#TITLE:Life;
#SUBTITLE:;
#ARTIST:prestissimo;
#TITLETRANSLIT:;
#SUBTITLETRANSLIT:;
#ARTISTTRANSLIT:;
#CREDIT:;
#BANNER:Life.png;
#BACKGROUND:Life-bg.png;
#LYRICSPATH:;
#CDTITLE:cdtitle.png;
#MUSIC:Life.mp3;
#OFFSET:-2.360;
#SAMPLESTART:86.800;
#SAMPLELENGTH:12.000;
#SELECTABLE:YES;
#BPMS:0.000=100.000,28.000=80.000,30.000=60.000,31.875=130.000,178.000=80.000,178.750=130.000,182.000=80.000,182.750=130.000;
#STOPS:;
#BGCHANGES:;

//---------------dance-single - BASIC----------------
#NOTES:
     dance-single:
     BASIC:
     Easy:
     4:
     0.291,0.355,0.304,0.198,0.000:
0000
0000
0000
0000
,
0000
0000
0000
0000
,
0000
0000
0000
0000
,
0000
0000
0000
0000
,
1000
1000
0001
0001
,
1000
1000
0001
0001
,
1000
1000
0100
0100
,
0001
0010
1000
0001
,
1001
1000
1100
0000
,
1001
0001
0101
0000
,
1001
1000
1010
0000
,
1001
0001
0011
0000
,
1001
1000
1100
0000
,
1001
0001
0101
0000
,
1001
1000
1010
0000
,
1001
0001
0011
0000
,
1000
1000
0100
1000
,
0001
0001
0100
0001
,
1000
1000
0100
1000
,
0001
0001
0100
0001
,
2000
0100
3001
0000
,
0002
0100
1003
0000
,
2000
0010
3001
0000
,
0002
0010
1003
0000
,
1000
0020
1000
0130
,
0001
0020
0001
0130
,
1000
0020
1000
0130
,
0001
0020
0001
0130
,
2000
0010
3001
1000
,
0002
0010
1003
0001
,
2000
0010
3001
1000
,
0002
0010
1003
0001
,
1000
0020
0000
1030
,
0001
0020
0000
0031
,
1000
0020
1000
0001
,
0100
0100
0001
1030
,
0001
0020
0000
0031
,
1000
0020
0000
1030
,
0001
0020
0001
1000
,
0100
0100
1000
0031
,
2002
0000
0000
3003
,
1000
0000
1000
0000
,
0001
0000
0001
0000
,
1000
0010
0001
0100
,
1000
0000
0000
0000
0001
0000
0000
0000
2000
0000
0000
3000
0000
0000
0000
0000
,
0100
0000
0000
0000
0010
0000
0000
0000
0002
0000
0000
0003
0000
0000
0000
0000
,
0100
0010
1000
0010
,
0001
0110
1001
0011
,
1010
0000
1001
0000
,
0011
0000
1001
0000
,
1010
0000
1001
0000
,
0011
0010
0110
0100
,
1100
0000
1001
0000
,
0011
0000
1001
0000
,
1010
0000
1001
0000
,
1001
1010
0011
0110
,
1001
1000
0000
1000
,
0000
0001
0000
0001
,
0000
1000
0000
1000
,
0000
0001
0000
0001
,
0000
1000
0000
0100
,
0000
0001
0000
0010
,
1000
0100
0001
0010
,
1000
0100
0001
1001
,
1000
0020
0000
1030
,
0001
0020
0000
0031
,
1000
0020
0100
1000
,
0001
0100
0100
0031
,
1000
0020
0000
1030
,
0001
0020
0000
0031
,
1000
0020
0100
0001
,
1000
0100
0100
1030
,
0010
0000
0010
0000
,
0010
0000
0010
0000
,
0010
0000
0010
0000
,
1010
0011
0110
1001
,
2002
0000
3003
1001
;

//---------------dance-single - TRICK----------------
#NOTES:
     dance-single:
     TRICK:
     Medium:
     7:
     0.426,0.431,0.251,0.244,0.007:
0000
0000
0000
0000
,
0000
0000
0000
0000
,
0000
0000
0000
0000
,
0000
0000
0000
0000
,
1000
0100
1000
0000
0001
0000
0010
0000
,
1000
0100
1000
0000
0001
0000
0010
0000
,
0001
0100
0001
0000
0100
0010
0100
0000
,
0001
0010
1000
0000
1000
0100
0001
0000
,
1000
0010
1000
0000
1100
0000
1001
0000
,
0001
0010
0001
0000
0101
0000
1001
0000
,
1000
0010
1000
0000
1010
0000
1001
0000
,
0001
0010
0001
0000
0011
0000
1001
0000
,
1000
0100
1000
0000
1010
0000
1001
0000
,
0001
0100
0001
0000
0011
0000
1001
0000
,
1000
0100
1000
0000
1010
0000
1001
0000
,
0001
0100
0001
0000
0011
0000
1001
0000
,
1000
0100
1000
0000
1000
1000
0100
0000
,
0001
0100
0001
0000
0001
0001
0100
0000
,
1000
0100
1000
0000
1000
1000
0100
0000
,
0001
0100
0001
0000
0001
0001
0100
0000
,
1000
1000
0200
0000
0301
0000
1000
0000
,
0001
0001
0200
0000
1300
0000
0001
0000
,
1000
1000
0200
0000
0301
0000
1000
0000
,
0001
0001
0200
0000
1300
0000
0001
0000
,
1000
0100
0020
0000
0001
0001
0130
0000
,
0001
0100
0020
0000
1000
1000
0130
0000
,
1000
0100
0020
0000
0001
0001
0130
0000
,
0001
0100
0020
0000
1000
1000
0130
0000
,
1000
0100
0020
0000
0032
0010
0103
0000
,
1000
0010
0200
0000
0302
0010
0103
0000
,
0001
0100
0020
0000
2030
0010
3100
0000
,
0001
0010
0200
0000
2300
0010
3100
0000
,
2000
0000
0010
0000
0100
0100
3001
0000
,
0002
0000
0010
0000
0100
0100
1003
0000
,
0001
0000
0011
0000
1000
1000
0001
0010
,
0100
0001
0100
0010
0001
1000
1000
0000
,
0002
0000
0010
0000
0100
0100
1003
0000
,
2000
0000
0010
0000
0100
0100
3001
0000
,
1000
0000
1010
0000
0001
0001
1000
0010
,
0100
1000
0100
0010
1000
0001
0001
0000
,
2002
0000
0000
3003
,
1000
0000
1000
0100
0000
0100
1000
0000
,
0001
0000
0001
0100
0000
0100
0001
0000
,
1000
0010
0100
0000
0001
0100
1000
0000
,
1000
0000
0010
0000
0001
0000
0000
0000
1002
0000
0000
1003
0000
0000
0010
0000
,
0100
0000
0000
0000
0010
0000
0000
0000
2001
0000
0000
3001
0000
0000
0010
0000
,
0100
0000
0010
0001
0100
0010
0100
0001
,
1000
0000
1000
0100
0001
0100
1000
0001
,
2000
0000
0000
0000
3001
1000
0000
0000
,
0002
0000
0000
0000
1003
0001
0000
0000
,
2000
0000
0000
0000
3001
1000
0000
0000
,
0001
1000
0010
0000
1001
0000
0001
1000
,
0100
0010
1001
0000
,
0001
0100
1001
0000
,
1000
0100
1001
0000
,
1010
0011
0101
1100
,
1001
1000
0100
1000
,
0100
0001
0010
0001
,
0010
0001
0100
0001
,
0100
1000
0100
1000
,
0100
1000
0010
1000
,
0010
0001
0010
0001
,
0010
1000
0100
0001
,
1000
0100
0001
1001
,
2000
0000
0010
0000
0100
0100
3001
0000
,
0002
0000
0010
0000
0100
0100
1003
0000
,
0001
0000
0011
0000
1000
1000
0001
0010
,
0100
0001
0100
0010
0001
1000
1000
0000
,
0002
0000
0010
0000
0100
0100
1003
0000
,
2000
0000
0010
0000
0100
0100
3001
0000
,
1000
0000
1010
0000
0001
0001
1000
0010
,
0100
1000
0100
0010
1000
0001
0001
0000
,
0002
0000
1003
0001
2000
0000
3001
1000
,
0002
0000
1003
0001
2000
0000
3001
1000
,
0002
0000
1003
0001
2000
0000
3001
1000
,
1010
0011
0101
1001
,
1000
0010
0001
0100
1000
0000
1001
0000
;

//---------------dance-single - HEAVY----------------
#NOTES:
     dance-single:
     HEAVY:
     Hard:
     9:
     0.570,0.583,0.271,0.172,0.059:
0000
0000
0000
0000
,
0000
0000
0000
0000
,
0000
0000
0000
0000
,
0000
0000
0000
0000
,
1000
0100
1000
0010
0001
1000
0010
0000
,
0001
0100
0001
0010
1000
0001
0010
0000
,
0001
0010
0001
0010
0100
1000
0100
1000
,
0001
0010
1000
0100
0001
0100
1000
0010
,
1001
0100
1000
0010
1000
0001
1000
0000
,
0001
0100
0001
0010
0001
1000
0001
0000
,
1000
0010
1000
0100
1000
0001
1000
0000
,
0001
0010
0001
0100
0001
1000
0001
0000
,
1000
0100
0010
0100
0001
0100
1000
0000
,
0001
0100
0010
0100
1000
0100
0001
0000
,
1000
0100
0010
0100
0001
0100
1000
0000
,
0001
0100
0010
0100
1000
0100
0001
0000
,
1000
1000
0100
0100
1000
1000
0100
1000
,
0001
0001
0100
0100
0001
0001
0100
0001
,
1000
1000
0100
0100
1000
1000
0100
1000
,
0001
0001
0100
0100
0001
0001
0100
0001
,
1000
0010
0001
0010
1000
1000
0001
0100
,
0001
0010
1000
0010
0001
0001
1000
0100
,
1000
0100
0001
0100
1000
1000
0001
0100
,
0001
0100
1000
0100
0001
0001
1000
0100
,
2000
0100
3100
0001
0020
0001
0100
1030
,
0002
0100
0103
1000
0020
1000
0100
0031
,
2000
0100
3100
0001
0020
0001
0100
1030
,
0002
0100
0103
1000
0020
1000
0100
0031
,
1000
0100
1010
0000
0001
0100
0011
0000
,
1000
0100
1010
0000
0001
0100
0011
0000
,
1000
0100
1010
0000
0001
0100
0011
0000
,
1000
0100
1010
0000
0001
0100
0011
0000
,
1000
0001
0020
1000
0130
0001
0100
1000
,
0001
1000
0020
0001
0130
1000
0100
0001
,
1000
0100
0021
0000
0031
1000
0001
0100
,
0010
0001
0100
1000
0001
0100
1000
0010
,
0001
1000
0020
0001
0130
1000
0100
0001
,
1000
0001
0020
1000
0130
0001
0100
1000
,
0001
0100
1020
0000
1030
0001
1000
0100
,
0010
1000
0100
0001
1000
0100
0001
0010
,
1000
0000
0000
0100
0000
0000
0001
0000
0000
1000
0000
0100
0000
0000
0001
0000
,
1001
1000
0100
1000
0100
0001
1000
0000
,
1001
0001
0100
0001
0100
1000
0001
0000
,
1000
0010
0100
0001
0100
1000
0001
0010
,
1000
0000
0000
0000
0100
0000
0000
0000
0001
0000
0000
0000
1000
0000
0000
0000
0001
0000
0000
0100
0000
0000
1000
0000
0000
0000
0000
0000
0010
0000
0000
0000
,
0100
0000
0000
0000
0001
0000
0000
0000
0010
0000
0000
0000
0001
0000
0000
0000
1000
0000
0000
0010
0000
0000
0100
0000
0000
0000
0000
0000
0001
0000
0000
0000
,
1000
0000
0000
0000
0100
0000
0000
0001
0000
0000
0010
0000
0000
1000
0000
0000
,
1001
0000
0000
1100
0000
0000
0101
0000
0000
0011
0000
0000
1001
0000
0000
0000
,
1000
0010
0100
0100
0001
1000
0000
0000
,
0001
0010
0100
0100
1000
0001
0000
0000
,
1000
0010
0001
1000
0100
1000
0100
0001
,
1001
0000
0110
0000
1100
0001
1000
0100
,
1001
0001
0010
0001
0100
0100
0001
0001
,
1001
1000
0010
1000
0100
0100
1000
1000
,
1001
0001
0010
0001
0100
1000
0010
1000
,
0100
0001
0000
0000
0001
0010
0000
0000
0010
1000
0000
0000
1000
0001
0000
0000
,
1001
0100
0001
1000
0010
0100
1000
0010
,
0100
0001
1000
0100
0001
0010
0100
0001
,
0010
0001
0100
1000
0010
0001
1000
0100
,
0001
0100
0010
1000
0100
0001
1000
0100
,
0010
0100
1000
0010
0001
0100
0010
1000
,
0100
0001
1000
0010
0100
1000
0010
0001
,
0010
1000
0100
0001
0010
1000
0100
0001
,
1000
0100
0001
0010
1000
1001
0110
1001
,
1000
0001
0020
1000
0130
0001
0100
1000
,
0001
1000
0020
0001
0130
1000
0100
0001
,
1000
0100
0021
0000
0031
1000
0001
0100
,
0010
0001
0100
1000
0001
0100
1000
0010
,
0001
1000
0020
0001
0130
1000
0100
0001
,
1000
0001
0020
1000
0130
0001
0100
1000
,
0001
0100
1020
0000
1030
0001
1000
0100
,
0010
1000
0100
0001
1000
0100
0001
0010
,
2000
0000
3010
1001
0002
0000
0013
0000
,
2000
0000
3010
1001
0002
0000
0013
0000
,
2000
0000
3010
1001
0002
0000
0013
0000
,
1010
0101
0011
0110
1010
0110
1001
0000
,
1000
0010
1000
0010
1000
0100
0001
0000
1000
0000
0000
0000
1001
0000
0000
0000
;

//---------------dance-single - ONI----------------
#NOTES:
     dance-single:
     ONI:
     Challenge:
     11:
     0.944,0.811,0.192,0.000,1.000: // measure 1
0000
0000
0000
0000
,  // measure 2
0000
0000
0000
0000
,  // measure 3
0000
0000
0000
0000
,  // measure 4
0000
0000
0000
0000
0000
0000
0000
0000
0000
0000
0000
0000
0000
0000
1000
0100
,  // measure 5
1000
0000
0000
0100
0010
0000
0000
0000
0001
0100
0010
1000
0100
0010
0100
1000
,  // measure 6
0001
0000
0000
0100
0010
0000
0000
0000
1000
0001
0100
0010
1000
0100
0010
0001
,  // measure 7
1000
0000
0000
0100
0010
0000
0000
0000
0001
0100
0010
1000
0100
0010
0001
0010
,  // measure 8
0100
0000
1000
0100
0010
0000
0001
0100
0010
0100
1000
0010
0100
0000
0010
1000
,  // measure 9
0001
0000
0100
0010
1000
0000
0100
0010
0001
0010
0100
1000
0100
0010
0001
1000
,  // measure 10
0001
0000
0100
0010
1000
0000
0001
0010
0100
1000
0001
0100
0010
1000
0100
0010
,  // measure 11
0001
0000
0100
0010
0100
0000
0001
0100
0010
1000
0100
0010
0100
1000
0100
1000
,  // measure 12
0001
0000
1000
0100
1000
0000
0001
0100
0010
0100
0001
0010
0001
0010
0100
1000
,  // measure 13
0001
0000
0100
0010
0100
0000
0001
0010
0100
0001
0100
0010
0001
0100
0010
0100
,  // measure 14
0001
0000
0100
0010
0100
0000
0010
0100
0010
1000
0100
0010
0100
1000
0010
1000
,  // measure 15
0001
0000
1000
0100
0010
0000
0001
0100
0010
1000
0100
0010
0001
0100
0010
0100
,  // measure 16
0001
0000
0010
0100
1000
0000
0001
0100
0010
0100
0001
0010
0100
0000
1000
0010
,  // measure 17
1000
0000
0100
0010
0001
0000
0010
0100
1000
0100
0010
0001
0100
0010
0100
0001
,  // measure 18
0010
0000
0100
0010
0001
0000
0100
0010
1000
0100
0010
0100
1000
0010
0100
0010
,  // measure 19
1000
0000
0100
0010
0001
0000
1000
0100
0001
0100
1000
0010
0100
0010
1000
0001
,  // measure 20
1000
0000
0010
0100
0010
0000
1000
0100
0010
0100
0010
0001
0100
1000
0100
0001
,  // measure 21
0010
0000
0100
1000
0001
0000
1000
0100
0010
0100
0010
0001
0100
0010
1000
0100
,  // measure 22
0010
0000
0001
0100
1000
0000
0100
0001
0010
0100
1000
0100
0010
0100
1000
0001
,  // measure 23
1000
0000
0010
0100
0001
0000
0100
0010
1000
0100
0010
0100
1000
0001
0100
0010
,  // measure 24
1000
0000
0001
0100
0010
0000
1000
0100
0010
0100
1000
0010
0100
0010
1000
0001
,  // measure 25
1000
0000
0010
0100
0010
0000
1000
0010
0100
0001
0100
0010
1000
0100
0010
0001
,  // measure 26
0100
0000
0010
1000
0100
0000
0010
0001
0100
0010
0100
0001
1000
0100
0010
0001
,  // measure 27
1000
0000
0010
0100
0010
0000
1000
0010
0100
0001
0010
0100
1000
0010
0100
0001
,  // measure 28
0100
0000
0010
0100
0010
0000
1000
0010
0100
0010
0100
0001
0100
0010
1000
0001
,  // measure 29
1000
0000
0001
0100
0001
0000
1000
0100
1000
0100
0010
0001
0010
0100
1000
0100
,  // measure 30
0010
0000
0001
0100
0010
0000
1000
0100
0010
0001
0010
0100
1000
0100
0010
0001
,  // measure 31
1000
0000
0100
0010
0001
0000
0100
0010
0100
0001
0100
0010
1000
0100
0001
0100
,  // measure 32
0010
0000
0001
0100
1000
0000
0100
0001
0010
1000
0010
0001
0010
0100
1000
0010
,  // measure 33
0100
0010
1000
0100
0010
0000
0100
1000
0100
0010
0100
0001
0100
0000
1000
0100
,  // measure 34
0010
0100
1000
0100
0010
0000
0001
0010
0100
0010
0001
0010
0100
0010
0001
0100
,  // measure 35
0010
1000
0100
0000
1000
0000
0100
0000
0010
0000
0001
0100
0010
1000
0010
0100
,  // measure 36
0001
0100
0010
1000
0100
0010
0001
0100
0010
0100
0001
1000
0010
0100
0001
1000
,  // measure 37
0100
0010
0001
0100
0010
0000
1000
0100
0010
0100
1000
0001
1000
0000
0001
0100
,  // measure 38
0010
0100
0010
1000
0100
0000
0010
0001
0100
1000
0100
0001
0010
0100
1000
0000
,  // measure 39
0100
0001
0100
0000
1000
0000
0100
0000
0010
0000
0001
0100
0010
1000
0100
0010
,  // measure 40
0001
0100
0010
1000
0100
0010
0001
0100
0010
1000
0100
1000
0100
0010
0001
0010
,  // measure 41
1100
0000
0000
0110
0000
0000
1001
0000
0000
0011
0000
1100
0000
0000
1001
0000
,  // measure 42
0010
0100
1000
0000
1000
0100
0000
0010
0001
0100
0010
0100
0001
0100
0010
1000
,  // measure 43
0001
0000
1000
0001
0000
0001
1000
0000
0001
1000
0000
1000
0001
1000
0100
0010
,  // measure 44
0001
0010
0100
0010
0001
0010
0100
0010
0001
0010
0100
1000
0100
0010
0100
1000
,  // measure 45
0001
0000
0110
0000
0000
0101
0000
0000
1001
1000
0001
0101
0000
0000
0110
0000
,  // measure 46
0110
0000
0000
0000
0000
0000
0000
0000
0000
1100
0000
0000
0000
0000
0000
0101
0000
0000
0000
0000
0000
1000
0000
0000
0001
0000
0000
1000
0000
0010
0000
0100
0000
0101
0000
0000
0000
0000
0000
0000
0000
0000
1100
0000
0000
0000
0000
0000
,  // measure 47
0011
0000
0000
0000
0110
0000
0000
0011
0000
0000
0110
0000
0000
1100
0000
0000
,  // measure 48
1001
0000
0000
1100
0000
0000
0101
0000
0000
0011
0000
0000
1001
0000
0000
0000
,  // measure 49
1000
0001
0100
0010
1000
0001
0100
0010
0100
1000
0100
0010
1000
0100
0010
0001
,  // measure 50
1000
0000
0010
0100
0010
1000
0001
0100
0010
1000
0100
0010
0001
0010
0100
1000
,  // measure 51
0001
0000
0100
0010
1000
0100
1000
0010
0100
0001
0100
0010
1000
0100
0010
0001
,  // measure 52
1000
0000
0100
1000
0001
0000
0100
1000
0001
0000
0100
1000
0100
0010
0001
0100
,  // measure 53
0010
0000
1000
0010
0100
0001
0100
0010
1000
0100
0010
0001
0100
0010
1000
0001
,  // measure 54
1000
0000
0010
0100
0001
0100
0010
1000
0100
0010
0001
0010
0100
1000
0010
0100
,  // measure 55
0001
0000
1000
0010
0100
0001
0100
0010
1000
0100
0010
0001
0100
0010
1000
0001
,  // measure 56
0100
0000
0010
1000
0001
0000
0010
1000
0001
0000
0010
1000
0100
0010
0001
0100
,  // measure 57
0010
1000
0100
0010
0001
0010
0000
0001
0000
1000
0000
0100
1000
0010
0100
0001
,  // measure 58
0100
0010
1000
0100
0010
0001
0000
1000
0000
0100
0000
0010
0001
0100
0010
1000
,  // measure 59
0100
0010
0001
0100
0010
1000
0000
0100
0000
1000
0000
0010
1000
0001
0100
0010
,  // measure 60
1000
0100
0010
0001
0100
0010
0000
1000
0000
0100
0000
0010
0001
0100
0010
1000
,  // measure 61
0100
0010
0001
0100
0010
1000
0000
0001
0000
0100
0000
0010
0000
0100
0010
1000
,  // measure 62
0100
0010
0001
0100
0010
1000
0000
0100
0000
0010
0000
0001
0000
0100
0010
1000
,  // measure 63
0100
0010
0100
1000
0100
0010
0100
1000
0100
0010
0001
0010
0100
0010
0001
0010
,  // measure 64
0100
1000
0100
0010
0001
0010
0000
1000
0000
0010
0001
0000
1001
0000
0110
0000
,  // measure 65
0001
0100
0010
1000
0100
0000
0010
0001
0100
0010
0100
0001
1000
0000
0100
0010
,  // measure 66
0001
0100
0010
1000
0100
0000
0010
0001
0100
0010
0100
0001
0100
0010
1000
0001
,  // measure 67
0100
0010
1000
0000
0100
0000
0010
0000
0001
0000
1000
0100
0010
0001
0100
0010
,  // measure 68
1000
0100
0010
0001
0100
0010
1000
0100
0010
0100
1000
0010
0100
0001
0100
1000
,  // measure 69
0100
0001
0010
0100
1000
0000
0100
0010
0100
1000
0010
0100
0001
0000
0100
1000
,  // measure 70
0100
0001
0010
0100
1000
0000
0001
0100
0010
1000
0100
0010
0001
0010
0001
0000
,  // measure 71
0100
0010
0100
0000
0001
0000
0100
0000
0010
0000
1000
0100
0010
0001
0100
0010
,  // measure 72
1000
0100
0010
0001
0100
0010
1000
0100
0010
0001
1000
0100
1000
0100
0010
0001
,  // measure 73
1000
0010
0100
0001
0010
0000
0100
1000
0010
0100
0010
1000
0001
0000
0010
0100
,  // measure 74
1000
0010
0100
0001
0010
0000
0100
1000
0010
0100
0010
1000
0010
0100
0001
0000
,  // measure 75
0010
0100
0010
0000
0001
0000
0010
0000
0100
0000
1000
0010
0100
0001
0010
0100
,  // measure 76
1000
0010
0100
0001
0010
0100
1000
0010
0100
0010
1000
0001
0100
0010
1000
0001
,  // measure 77
1000
0000
0000
0000
0000
0000
0001
0000
0010
0000
0001
0000
0010
0000
0000
0001
0000
0000
1000
0000
0000
0100
0000
0000
1000
0000
0000
0000
0000
0000
0000
0000
0000
0000
0000
0000
1001
0000
0000
0000
0000
0000
0000
0000
0000
0000
0000
0000
;
