#TITLE:七竜の伝説;
#SUBTITLE:;
#ARTIST:Fether;
#TITLETRANSLIT:Legend of dragon;
#SUBTITLETRANSLIT:;
#ARTISTTRANSLIT:;
#CREDIT:;
#BANNER:Legend of dragon.png;
#BACKGROUND:Legend of dragon-bg.png;
#LYRICSPATH:;
#CDTITLE:cdtitle.png;
#MUSIC:Legend of dragon.mp3;
#OFFSET:-0.100;
#SAMPLESTART:12.000;
#SAMPLELENGTH:12.000;
#SELECTABLE:YES;
#BPMS:0.000=100.000,13.500=98.000,13.625=97.000,13.750=95.000,13.875=92.000,14.000=90.000,14.125=97.000,14.250=85.000,14.375=82.000,14.500=80.000,14.625=87.000,14.750=75.000,14.875=72.000,15.000=70.000,15.750=80.000,15.875=90.000,16.000=100.000,45.000=98.000,45.125=95.000,45.250=80.000,45.375=85.000,45.500=82.000,45.625=77.000,45.750=73.000,45.875=68.000,47.750=76.000,47.875=87.000,48.000=100.001,70.000=68.000,72.000=100.000,74.625=98.000,74.750=95.001,74.875=94.001,75.000=82.001,75.500=100.001,90.625=98.001,90.750=95.001,90.875=94.001,91.000=82.001,91.500=100.001,142.000=99.001,142.125=98.001,142.250=97.001,142.375=96.001,142.500=95.001,142.625=94.001,142.750=92.001,142.875=90.001,143.000=88.001,143.125=90.001,143.250=88.001,143.375=86.001,143.500=84.001,143.625=82.001,143.750=80.001,143.875=78.001,144.000=76.001,144.125=74.001,144.250=72.001,144.375=70.001,144.500=68.001,144.625=66.001,144.750=64.001,144.875=62.001,145.000=60.001,148.000=100.002,176.000=99.002,176.125=98.002,176.250=97.002,176.375=95.002,176.500=94.002,176.625=93.002,176.750=91.002,176.875=90.002,177.000=89.002,177.125=88.002,177.250=87.002,177.375=86.002,177.500=85.002,177.625=84.002,177.750=83.002,177.875=82.002,178.000=80.002,178.125=79.002,178.250=77.002,178.375=75.002,178.500=74.002,178.625=72.002,178.750=70.002,178.875=68.002,179.000=66.002,179.125=65.002,179.250=63.002,179.375=61.002,180.000=100.002,244.000=99.002,244.125=97.002,244.250=95.002,244.375=93.002,244.500=91.002,244.625=89.002,244.750=87.002,244.875=85.002,245.000=83.002,245.125=81.003,245.250=79.003,245.375=77.003,245.500=75.003,245.625=73.003,245.750=71.003,245.875=69.003,246.000=66.003,246.125=64.003,246.250=62.003,246.375=60.003,246.500=58.003,246.625=56.003,246.750=54.003,246.875=52.003,247.000=50.003,248.000=165.003,416.000=80.003;
#STOPS:;
#BGCHANGES:;

//---------------dance-single - ----------------
#NOTES:
     dance-single:
     :
     Easy:
     2:
     0.156,0.213,0.063,0.013,0.000:
0000
0000
0000
0000
,
0000
0000
0000
0000
,
0000
0000
0000
0000
,
0000
0000
0000
0000
,
1001
0000
0000
1000
,
0001
0000
0000
0100
,
0010
0000
0000
0000
,
1001
0110
1000
0100
,
1001
0000
0000
0001
,
1000
0000
0000
0001
,
0100
0000
0000
0000
,
1001
0000
0110
0000
,
1001
0000
0000
0000
,
0000
0000
0000
0001
,
1000
0000
0000
0000
,
1000
0010
0100
0001
,
1001
0000
0000
0000
,
0001
0000
0001
1000
,
1001
0000
0000
1000
0000
0000
0000
0001
,
0000
0000
1000
0001
,
1000
0000
0000
0001
0000
0000
0000
1000
,
0000
0000
0000
0001
0000
0000
0000
0000
,
1000
0000
0000
1000
0000
0000
0000
0001
,
0000
0000
1001
0110
,
1001
0000
1000
0000
,
0000
0000
0001
0000
,
0000
0000
1000
0000
,
0001
0010
0100
1000
,
1001
0000
1000
0010
,
0001
0000
0100
0000
,
1000
0000
0001
0000
,
0100
0001
0010
0100
,
1000
0000
0001
0000
,
0100
0000
0010
0000
,
1000
0000
0001
0000
,
1000
0100
0001
0010
,
1000
0010
0001
0100
,
1000
0000
0000
0001
0000
0000
0000
1000
,
0000
0000
1000
0010
,
0001
0000
0000
0100
0000
0000
0000
1000
,
0000
0000
0000
0010
0000
0000
0000
0000
,
0100
0000
0000
0010
0000
0000
0000
1000
,
0000
0000
0001
0100
,
2000
0000
0000
0000
,
0000
0000
0000
0000
,
3000
0010
0100
0001
,
0010
0100
1000
0010
,
0100
0001
0010
0100
,
1000
0001
1000
0010
,
0100
0001
0010
0100
,
1000
0001
0100
0010
,
1000
0100
0001
0010
,
0100
1000
0010
0100
,
0001
0100
0010
1000
,
0001
0100
0010
1000
,
0100
0001
0010
1000
,
0010
0001
0100
0010
,
1000
0100
0001
0010
,
1000
0010
0100
0001
,
0010
1000
0100
0010
,
0001
0100
1000
0001
,
0010
1000
0100
0001
,
1000
0000
0000
0001
,
0000
0000
1000
0000
,
0001
0000
0000
1000
,
0000
0000
0001
0000
,
1000
0000
0000
0001
,
0000
0000
1000
0000
,
0001
0000
0000
0100
,
0000
0000
0010
0000
,
0100
0000
0000
0000
,
0010
0000
0000
0000
,
1000
0000
0000
0000
,
0001
0000
0000
0000
,
1000
0000
0000
0000
,
0001
0000
0000
0000
,
1000
0000
0000
0000
,
0001
0000
0000
0000
,
0100
0000
0000
0000
,
0010
0000
0000
0000
,
1000
0000
0000
0000
,
0001
0000
0000
0000
,
0100
0000
0000
0000
,
0010
0100
0010
0100
,
1001
0000
0000
0000
,
0020
0000
0000
0000
,
0030
0000
0000
0000
,
1000
0000
0001
0000
,
0100
0000
0010
0000
,
1000
0010
0100
0001
,
1000
0000
0000
0000
,
0001
0000
1000
0000
,
0001
0000
0000
0000
,
0001
0010
0100
1000
,
0001
0000
0000
0000
,
1000
0000
0000
0000
,
0001
0000
1000
0000
,
0001
0010
1000
0100
,
0001
0000
0000
0000
,
1000
0000
0010
0000
,
1000
0000
0000
0000
,
0001
0000
0100
0000
,
2000
0000
0000
0000
,
0000
0000
0000
0000
,
3001
0010
1000
0010
,
0001
0100
1000
0100
,
0001
0000
0000
0000
;

//---------------dance-single - TRICK----------------
#NOTES:
     dance-single:
     TRICK:
     Medium:
     4:
     0.269,0.355,0.223,0.054,0.009:
0000
0000
0000
0000
,
0000
0000
0000
0000
,
0000
0000
0000
0000
,
0000
0001
0100
1000
,
1001
1000
0100
1010
,
0101
0000
0010
0000
0001
0010
0100
1000
,
0010
0000
0000
0000
,
1001
0110
1000
0100
,
1001
0010
0100
0011
,
1100
0000
0010
0000
1000
0100
0001
0010
,
0100
0000
0000
0000
0000
0010
0100
0010
,
1001
0000
0110
0010
,
1001
1000
0010
0100
,
0001
0010
0100
0011
,
1001
0010
0100
0001
,
1000
0010
0100
0001
,
1001
0000
0000
0000
,
0001
0000
0001
1000
,
1001
0000
0001
1000
0000
0100
0010
0001
,
0000
0000
0110
1001
,
1000
0000
0010
0001
0000
0010
0100
1000
,
0000
0000
0000
0001
0010
0001
1000
0100
,
1000
0000
0010
1000
0000
0100
0010
0001
,
0000
0000
1001
0110
,
1001
0000
0000
1000
1000
0000
0000
0000
,
0001
0000
0000
0001
0001
0000
0000
0000
,
1000
0000
0000
1000
1000
0000
0000
0000
,
0001
0010
1000
0100
,
1001
0000
0000
0000
1000
0100
1000
0010
,
0001
0000
0110
0000
,
1010
0000
0101
0000
,
0100
0001
0010
0100
,
1000
0000
0000
0000
0001
0010
0001
1000
,
0100
0000
0110
0000
,
1010
0000
0101
0000
,
1000
0100
0001
0010
,
1000
0010
0001
0100
,
1001
0000
0010
0001
0000
0010
0100
1000
,
0000
0000
1001
0110
,
0001
0000
0010
0100
0000
0001
0010
1000
,
0000
0000
0000
0020
0000
0000
0000
0000
,
0230
0000
0000
0320
0000
0000
0000
2030
,
0000
0000
3001
0100
,
1000
0010
0001
0100
,
0010
1000
0100
0001
,
1000
0000
0010
0000
0100
0010
0001
0010
,
1000
0100
1000
0010
,
0200
0001
0310
0100
,
1000
0001
1000
0010
,
0100
0000
0001
0000
0010
0100
1000
0010
,
0100
0001
0100
0010
,
2000
0100
3001
0010
,
1000
0010
1000
0100
0010
0001
0100
0010
,
0001
0000
0100
0000
0010
0100
1000
0100
,
0001
0100
0010
1000
,
0200
0001
0310
1000
,
0010
0001
0100
0010
,
1000
0000
0100
0000
0001
0100
0010
0001
,
1000
0010
0100
0001
,
0020
1000
0130
0010
,
0002
0100
1003
0001
,
0010
1000
0100
0001
,
1000
0010
0100
0001
,
0100
0010
1000
0010
,
0001
0010
0100
1000
,
0010
1000
0001
0010
,
1000
0100
0010
0001
,
0100
0010
1000
0010
,
0001
0010
1000
0100
,
0010
0100
0010
0001
,
0100
0000
1000
0001
,
0010
0000
0000
0000
0000
0000
0100
0001
,
1000
0000
0000
0000
,
0001
1000
0010
0100
,
1000
0000
0000
0000
0000
0010
0100
1000
,
0001
0000
0000
0001
,
1000
0000
0000
0000
0000
0000
0000
0100
,
0010
0001
0010
1000
,
0100
0000
1000
0001
,
0010
0000
0000
0000
0000
0000
0001
0100
,
1000
0000
0000
0000
,
0001
0010
1000
0001
,
0100
0000
0000
0000
,
1001
1010
0101
0110
,
1001
0000
0000
0000
,
0020
0000
0000
0000
,
0130
1000
0000
0000
,
1001
0000
0101
0000
,
0110
0000
0101
0000
,
1000
0010
0001
0100
,
1000
0010
0000
0000
,
0011
0000
1100
0000
,
1001
0000
0000
0000
,
0001
0010
1000
0100
,
0001
0100
0000
0000
,
1010
0000
0110
0000
,
0101
0000
1010
0000
,
0001
0010
1000
0100
,
0001
0000
0000
0000
0000
0000
0000
0010
,
1000
0000
0110
0000
,
1001
0000
0000
0000
,
0001
0000
0010
0000
0100
0000
0010
0000
1000
0000
0001
0000
,
2002
0000
0000
0000
,
0000
0000
0000
0000
0000
0000
0000
0003
,
3001
0010
1000
0100
1000
0010
0001
0100
,
0001
0100
1000
0100
,
1001
0000
0000
0000
;

//---------------dance-single - HEAVY----------------
#NOTES:
     dance-single:
     HEAVY:
     Hard:
     8:
     0.415,0.544,0.411,0.067,0.074:
0000
0000
0000
0000
,
0000
0000
0000
0000
,
0000
0000
0000
0000
,
1000
0100
0001
0010
0100
0010
1000
0100
,
1000
0001
0000
0000
0000
0000
0000
0000
1000
0000
0000
0000
0000
0000
0000
0000
0100
0000
0000
0000
0000
0000
0000
0000
1010
0000
0000
0000
0000
0000
0000
0000
,
0100
0001
0000
0000
0000
0000
0000
0000
0010
0000
0000
0000
0000
0000
0000
0000
0000
0000
0000
0000
0010
0000
0000
0000
0100
0000
0000
0000
1000
0000
0000
0000
,
0001
0010
0000
0000
0000
0000
0000
0000
0000
0000
0000
0000
0000
0000
0000
0000
0000
0000
0000
0000
0000
0000
0000
0000
0000
0000
0000
0000
0000
0000
0000
0000
,
1001
0010
1000
0100
,
1000
0001
0000
0000
0000
0000
0000
0000
0010
0000
0000
0000
0000
0000
0000
0000
0100
0000
0000
0000
0000
0000
0000
0000
0011
0000
0000
0000
0000
0000
0000
0000
,
1000
0100
0000
0000
0000
0000
0000
0000
0010
0000
0000
0000
0000
0000
0000
0000
0000
0000
0000
0000
0100
0000
0000
0000
0001
0000
0000
0000
0010
0000
0000
0000
,
1000
0001
0000
0000
0000
0000
0000
0000
0000
0000
0000
0000
0000
0000
0000
0000
0000
0000
0000
0000
0010
0000
0000
0000
0100
0000
0000
0000
0010
0000
0000
0000
,
1001
0000
0000
0000
0000
0000
0000
0000
0110
0000
0000
0000
0010
0100
1000
0010
,
1001
0100
1000
0001
0010
1000
0100
0010
,
0001
0100
0010
1000
0100
0010
0011
0010
,
1001
0100
0010
0001
0100
0010
0001
0100
,
1010
0100
0110
0001
0101
0010
1010
0100
,
1001
0000
0000
0000
0000
0000
0000
0000
0000
0000
0000
0000
0000
0000
0000
0000
0000
0000
0000
0000
0000
0000
0000
0000
0000
0000
0000
0000
0000
0000
0010
1000
,
0001
0000
0011
1100
,
1001
0100
0001
1000
0000
0100
0010
0001
,
0000
0000
0110
1001
,
1000
0000
0000
0000
0100
0000
0000
0000
0010
0000
0000
0000
0001
0000
0000
0000
0000
0000
0000
0000
0010
0000
0000
0000
0100
0000
0000
0000
0010
1000
0000
0000
,
0000
0000
0000
0001
0010
0001
1000
0100
,
1000
0000
0000
0000
0100
0000
0000
0000
0010
0000
0000
0000
0001
1000
0000
0000
0000
0000
0000
0000
0100
0000
0000
0000
0010
0000
0000
0000
0001
0000
0000
0000
,
0000
0000
1001
0110
,
1001
0000
0000
0000
0000
0000
1000
1000
1000
0000
0000
0000
0000
0000
0000
0000
,
0001
0000
0000
0000
0000
0000
0001
0001
0001
0000
0000
0000
0000
0000
0000
0000
,
1000
0000
0000
0000
0000
0000
1000
1000
1000
0000
0010
0000
0100
0000
0010
0000
,
0011
1010
1100
0101
,
1001
0000
0000
0000
1000
0100
1000
0010
,
0001
0000
0000
0000
0000
0000
0000
0110
0110
0000
0000
0000
0000
0000
0000
0000
,
1010
0100
0010
0001
0101
0010
1000
0100
,
0101
0011
1010
0101
,
1001
0000
0000
0000
0001
0010
0001
1000
,
0100
0000
0000
0000
0000
0000
0000
0110
0110
0000
0000
0000
0000
0000
0000
0000
,
1010
0000
0000
0000
0101
0010
0001
0100
,
1000
0000
0010
0000
0100
0000
0010
0000
0001
0000
0000
0100
0000
0000
0010
0000
,
1000
0100
0010
0001
0010
1000
0100
0010
,
1001
0100
0010
0001
0000
0010
0100
1000
,
0000
0000
1001
0110
,
0001
0000
0000
0000
0100
0000
0000
0000
0010
0000
0000
0000
1000
0100
0000
0000
0000
0000
0000
0000
0001
0000
0000
0000
0010
0000
0000
0000
0001
1000
0000
0000
,
0000
0000
0000
0010
1000
0100
0010
0001
,
0110
1000
0100
0011
0000
0010
1000
1200
,
0000
0000
0000
0300
0001
0000
0100
0000
,
1001
0100
0010
1000
0001
0010
0100
0001
,
0010
0100
1000
0010
0100
1000
0001
0100
,
1000
0000
0010
0000
0100
0010
0001
0010
,
1010
0101
1010
0011
,
0210
0000
0001
0000
0310
0000
0100
0020
,
1000
0001
1030
0010
,
0100
0000
0001
0000
0010
0100
1000
0010
,
0100
0101
0110
1010
,
2000
0100
3001
0010
,
1000
0010
1000
0100
0010
0001
0100
0010
,
1001
0000
0100
0000
0010
0100
1000
0100
,
0001
0101
0110
1001
,
0200
0000
0001
0000
0310
0000
1000
0020
,
1000
0001
0130
0010
,
1001
0000
0100
0000
0001
0100
0010
0001
,
1000
0010
0100
0001
,
0020
1000
0130
0010
,
0002
0100
1003
0001
,
0010
0100
1000
0001
0100
0010
0001
1000
,
0100
0001
0010
1000
0100
0010
0001
0010
,
0100
1000
0010
0100
1000
0001
0010
0100
,
0001
0100
0010
0001
0100
0010
1000
0100
,
0010
0001
1000
0100
0001
0100
0010
0001
,
1000
0010
0100
1000
0010
0100
0001
0010
,
0100
0001
0010
0100
1000
0100
0010
0100
,
0001
1000
0010
0100
1000
0001
0100
0001
,
0010
1000
0100
0001
0010
0100
0001
0010
,
0100
0000
0000
0010
0000
0000
0001
0000
,
1000
0000
0000
0100
0000
0000
0010
0001
,
1000
0000
0000
0010
0000
0000
0100
0000
,
0001
0010
0000
1000
0000
0000
0100
0000
,
1000
0000
0000
0100
0000
0010
0100
1000
,
0001
0000
0000
0000
0000
0000
0000
0000
0000
0000
0000
0000
0000
0000
0000
0000
0000
0000
0000
0000
0000
0000
0000
0000
0000
0000
0000
0000
0000
0000
0000
0000
0000
0000
0000
0000
0000
0000
0000
0000
0000
0000
0000
0000
0000
0000
0000
0000
0000
0000
0000
0000
0000
0000
0000
0000
0000
0000
0000
0000
0000
0000
0000
0000
0000
0000
0000
0000
0000
0000
0000
0000
0100
0000
0000
0000
0000
0000
0000
0000
0000
0000
0000
0000
0000
0000
0000
0000
0000
0000
0000
0000
0000
0000
0000
0000
0000
0000
0000
0000
0000
0000
0000
0000
0000
0000
0000
0000
0001
0000
0000
0000
0000
0000
0000
0000
0000
0000
0000
0000
0000
0000
0000
0000
0000
0000
0000
0000
0000
0000
0000
0000
0000
0000
0000
0000
0000
0000
0010
0000
0000
0000
0000
0000
0000
0000
0000
0000
0000
0000
0000
0000
0000
0000
0000
0000
0000
0000
0000
0000
0000
0000
0000
0000
0100
0000
0000
0000
0000
0000
0000
0000
0000
0000
0000
0000
0000
0000
0000
0000
0000
0000
0000
0000
0000
0000
0000
0000
0000
0000
0000
0000
,
1000
0000
0000
0100
0000
0000
0001
0100
,
0010
0100
0001
1000
0010
0100
1000
0001
,
0100
0000
0000
0010
0000
0000
0001
0000
,
0010
0000
0000
0100
0000
0000
0001
0100
,
1000
0000
0000
0100
0000
0000
0010
0000
,
0001
0010
0000
0100
0000
0010
0001
1000
,
0100
0000
0000
0010
0000
0000
0100
0000
,
1001
1010
0101
0110
,
2002
0000
0000
0000
0000
0000
0000
3003
,
0010
1000
0100
0010
0001
0100
0010
1000
,
0100
0001
1000
0100
0000
0010
0001
0100
,
1001
0100
0101
0010
,
0110
0000
0000
0000
0000
0000
0000
0000
0000
0000
0000
0000
0000
0000
0000
0100
0001
0000
0000
0000
0000
0000
0000
0000
0000
0000
0000
0000
0000
0000
0000
1000
,
0010
1010
0101
0110
,
1001
0100
0010
0001
0000
0100
0010
0100
,
0011
0100
1100
0010
,
1001
0000
0000
0000
,
0001
0100
0010
0100
1000
0001
0100
0010
,
0001
1000
0100
0010
0000
0001
0100
0010
,
1010
0100
0110
0010
,
0101
0000
0000
0000
0000
0000
0000
0000
0000
0000
0000
0000
0000
0000
0000
1000
0010
0000
0000
0000
0000
0000
0000
0000
0000
0000
0000
0000
0000
0000
0000
0001
,
0100
0110
1010
0101
,
0001
0100
0010
2000
0000
0000
0000
3010
,
1000
0000
0000
0100
0000
0000
0110
0000
0110
0000
1001
0000
,
2002
0000
0000
3003
,
0101
0000
0110
0000
0101
0000
1010
0000
1100
0000
0011
0000
,
2002
0000
0000
0000
,
0000
0000
0000
0000
0000
0000
0000
0003
,
3001
0010
1000
0100
1000
0010
0001
0100
,
0001
0010
0100
1000
0010
0001
0100
1000
,
1001
0000
0000
0000
;

//---------------dance-single - ONI----------------
#NOTES:
     dance-single:
     ONI:
     Challenge:
     10:
     0.538,0.781,0.308,0.036,0.453: // measure 1
0000
0000
0000
0000
,  // measure 2
0000
0000
0000
0000
,  // measure 3
0000
0000
0000
0000
,  // measure 4
0000
0000
0001
0010
0100
0010
1000
0100
,  // measure 5
1000
0001
0000
0000
0000
0000
0000
0000
1000
0000
0000
0000
0000
0000
0000
0000
0100
0000
0000
0000
0000
0000
0000
0000
1010
0000
0000
0000
0000
0000
0000
0000
,  // measure 6
0100
0001
0000
0000
0000
0000
0000
0000
0100
0000
0000
0000
0010
0000
0000
0000
0000
0000
0000
0000
0010
0000
0000
0000
0100
0000
0000
0000
1000
0000
0000
0000
,  // measure 7
0001
0010
0000
0000
0000
0000
0000
0000
0000
0000
0000
0000
0000
0000
0000
0000
0000
0000
0000
0000
0000
0000
0000
0000
0000
0000
0000
0000
0000
0000
0000
0000
,  // measure 8
1001
0000
0000
0000
0000
0000
0000
0000
0110
0000
0000
0000
0000
0000
0000
0000
1000
0100
0000
0000
0000
0000
0000
0000
0001
0010
0000
0000
0000
0000
0000
0000
,  // measure 9
1000
0001
0000
0000
0000
0000
0000
0000
0010
0000
0000
0000
0000
0000
0000
0000
0100
0000
0000
0000
0000
0000
0000
0000
0011
0000
0000
0000
0000
0000
0000
0000
,  // measure 10
1000
0100
0000
0000
0000
0000
0000
0000
0010
0000
0000
0000
0100
0000
0000
0000
0000
0000
0000
0000
0100
0000
0000
0000
0001
0000
0000
0000
0010
0000
0000
0000
,  // measure 11
1000
0001
0000
0000
0000
0000
0000
0000
0000
0000
0000
0000
0000
0000
0000
0000
0000
0000
0000
0000
0010
0000
0000
0000
0100
0000
0000
0000
0010
0000
0000
0000
,  // measure 12
1001
0000
0000
0000
0000
0000
0000
0000
0110
0000
0000
0000
0010
0100
1000
0010
,  // measure 13
1001
0100
1000
0001
0010
1000
0100
0010
,  // measure 14
0001
0100
0010
1000
0100
0010
0011
0010
,  // measure 15
1001
0100
0010
0001
0100
0010
0001
0100
,  // measure 16
1010
0100
0110
0001
0101
0010
1010
0100
,  // measure 17
1001
0000
0000
0000
0000
0000
0000
0000
0000
0000
0000
0000
0000
0000
0000
0000
0000
0000
0000
0000
0000
0000
0000
0000
0000
0000
0000
0000
0000
0000
0010
1000
,  // measure 18
0001
0000
0011
1100
,  // measure 19
1001
0000
0000
0000
0100
0000
0000
0000
0001
0000
0000
0000
1000
0100
0000
0000
0000
0000
0000
0000
0100
0000
0000
0000
0010
0000
0000
0000
0001
1000
0000
0000
,  // measure 20
0000
0000
0110
1001
,  // measure 21
1000
0000
0000
0000
0100
0000
0000
0000
0010
0000
0000
0000
0001
0000
0000
0000
0000
0000
0000
0000
0010
0000
0000
0000
0100
0000
0000
0000
0010
1000
0000
0000
,  // measure 22
0000
0000
0000
0001
0010
0001
1000
0100
,  // measure 23
1000
0000
0000
0000
0100
0000
0000
0000
0010
0000
0000
0000
0001
1000
0000
0000
0000
0000
0000
0000
0100
0000
0000
0000
0010
0000
0000
0000
0001
0100
0000
0000
,  // measure 24
0000
0000
1001
0110
,  // measure 25
1001
0000
0000
0000
0000
0000
1000
1000
1000
0000
0000
0000
0000
0000
0000
0000
,  // measure 26
0001
0000
0000
0000
0000
0000
0001
0001
0001
0000
0000
0000
0000
0000
0000
0000
,  // measure 27
1000
0000
0000
0000
0000
0000
1000
1000
1000
0000
0010
0000
0100
0000
0010
0000
,  // measure 28
0011
1010
1100
0101
,  // measure 29
1001
0000
0000
0000
0001
0100
1000
0010
,  // measure 30
0001
0000
0000
0000
0000
0000
0000
0110
1001
0000
0000
0000
0000
0000
0000
0000
,  // measure 31
1010
0100
0010
0001
0101
0010
1000
0100
,  // measure 32
0100
0001
0000
0000
0000
0000
0000
0000
0001
0010
0000
0000
0000
0000
0000
0000
1000
0100
0000
0000
0000
0000
0000
0000
0001
1000
0000
0000
0000
0000
0000
0000
,  // measure 33
1001
0000
0000
0000
1000
0010
0001
0100
,  // measure 34
1000
0000
0000
0000
0000
0000
0000
0110
1001
0000
0000
0000
0000
0000
0000
0000
,  // measure 35
1010
0000
0000
0000
0101
0010
0001
0100
,  // measure 36
1000
0000
0010
0000
0100
0000
0010
0000
0001
0000
0000
0100
0000
0000
0010
0000
,  // measure 37
1000
0100
0010
0001
0010
1000
0100
0010
,  // measure 38
1001
0000
0000
0000
0100
0000
0000
0000
0010
0000
0000
0000
0001
1000
0000
0000
0000
0000
0000
0000
0010
0000
0000
0000
0100
0000
0000
0000
1000
0001
0000
0000
,  // measure 39
0000
0000
1001
0110
,  // measure 40
0001
0000
0000
0000
0100
0000
0000
0000
0010
0000
0000
0000
1000
0100
0000
0000
0000
0000
0000
0000
0001
0000
0000
0000
0010
0000
0000
0000
0001
1000
0000
0000
,  // measure 41
0000
0000
0000
0010
1000
0100
0010
0001
,  // measure 42
0110
1000
0100
0011
0000
0010
1000
1200
,  // measure 43
0000
0000
0000
0300
0001
0000
0100
0000
,  // measure 44
1001
0100
0010
1000
0001
0010
0100
0001
,  // measure 45
0010
0100
1000
0010
0100
1000
0001
0100
,  // measure 46
1000
0100
0001
0010
0100
0010
0001
0100
1000
0100
0001
0010
0100
0010
0001
0100
,  // measure 47
1000
0100
0001
0010
0100
0010
0001
1000
0100
1000
0001
0010
0100
0010
0001
0010
,  // measure 48
0100
1000
0100
0010
0001
1000
0100
0010
0100
1000
0100
0001
0100
1000
0001
0100
,  // measure 49
0001
1000
0010
0100
0001
0010
0100
1000
0100
0010
0001
0010
0100
1000
0100
0010
,  // measure 50
0001
0100
1000
0100
0001
0010
0100
0010
0001
0010
1000
0010
0001
0010
0100
0010
,  // measure 51
0001
0100
1000
0100
0001
0100
0010
0100
0001
0100
1000
0100
0001
0100
0010
0100
,  // measure 52
0001
0010
0100
1000
0100
0010
0001
0100
0010
1000
0100
0010
0001
0010
0100
1000
,  // measure 53
0001
0010
1000
0010
0001
0100
0010
0100
0001
0010
1000
0010
0001
0100
0010
0100
,  // measure 54
0001
0100
1000
0100
0001
0010
0100
0010
0001
0010
1000
0010
0001
0100
0010
0100
,  // measure 55
0001
0100
1000
0100
0001
0010
0100
0010
0001
0100
1000
0100
0001
0010
0100
0010
,  // measure 56
0001
1000
0100
1000
0001
0010
0100
1000
0010
0100
0001
1000
0100
0010
0001
1000
,  // measure 57
0010
0100
0001
0010
0100
1000
0100
0010
0001
0100
0010
1000
0100
0010
0001
1000
,  // measure 58
0001
0100
0010
0100
0001
0010
1000
0010
0001
0100
0010
0100
0001
0100
1000
0100
,  // measure 59
0001
0010
1000
0010
0001
0100
0010
0100
0001
0100
1000
0100
0001
0010
0100
0010
,  // measure 60
0001
0010
1000
0010
0001
0100
1000
0100
0001
0010
1000
0010
0001
0010
0100
0010
,  // measure 61
0001
0010
0100
1000
0010
0100
0001
0010
0100
1000
0100
0001
0100
1000
0010
0100
,  // measure 62
0001
0010
0100
1000
0010
0100
0001
0010
1000
0100
0001
0010
0100
1000
0100
0010
,  // measure 63
0001
1000
0010
0001
0100
0010
1000
0010
,  // measure 64
0100
0001
0010
0100
0001
1000
0010
0100
,  // measure 65
1000
0100
0010
1000
0100
0010
0001
0100
,  // measure 66
0010
1000
0001
0100
1000
0100
0010
1000
,  // measure 67
0001
0010
0100
0001
0010
0100
1000
0010
,  // measure 68
0100
1000
0010
0100
0001
0100
0010
0100
,  // measure 69
1000
0001
0010
0100
0001
1000
0100
1000
,  // measure 70
0010
0001
0100
1000
0010
0100
1000
0010
,  // measure 71
0100
0000
0000
0010
0000
0000
0001
0010
,  // measure 72
1000
0000
0000
0100
0000
0000
0010
0001
,  // measure 73
1000
0000
0000
0010
0000
0000
0100
0010
,  // measure 74
0001
0010
0000
1000
0000
0000
0100
0000
,  // measure 75
1000
0000
0000
0100
0000
0010
0100
1000
,  // measure 76
0001
0000
0000
0000
0000
0000
0000
0000
0000
0000
0000
0000
0000
0000
0000
0000
0000
0000
0000
0000
0000
0000
0000
0000
0000
0000
0000
0000
0000
0000
0000
0000
0000
0000
0000
0000
0000
0000
0000
0000
0000
0000
0000
0000
0000
0000
0000
0000
0000
0000
0000
0000
0000
0000
0000
0000
0000
0000
0000
0000
0000
0000
0000
0000
0000
0000
0000
0000
0000
0000
0000
0000
0100
0000
0000
0000
0000
0000
0000
0000
0000
0000
0000
0000
0000
0000
0000
0000
0000
0000
0000
0000
0000
0000
0000
0000
0000
0000
0000
0000
0000
0000
0000
0000
0000
0000
0000
0000
0001
0000
0000
0000
0000
0000
0000
0000
0000
0000
0000
0000
0000
0000
0000
0000
0000
0000
0000
0000
0000
0000
0000
0000
0000
0000
0000
0000
0000
0000
0010
0000
0000
0000
0000
0000
0000
0000
0000
0000
0000
0000
0000
0000
0000
0000
0000
0000
0000
0000
0000
0000
0000
0000
0000
0000
0100
0000
0000
0000
0000
0000
0000
0000
0000
0000
0000
0000
0000
0000
0000
0000
0000
0000
0000
0000
0000
0000
0000
0000
0000
0000
0000
0000
,  // measure 77
1000
0000
0000
0100
0000
0000
0001
0100
,  // measure 78
0010
0100
0001
1000
0010
0100
1000
0001
,  // measure 79
0100
0000
0000
0010
0000
0000
0001
1000
,  // measure 80
0010
0000
0000
0100
0000
0000
0001
0100
,  // measure 81
1000
0000
0000
0100
0000
0000
0010
0000
,  // measure 82
0001
0010
0000
0100
0000
0010
0001
1000
,  // measure 83
0100
0000
0000
0010
0000
0000
0100
0000
,  // measure 84
1000
0010
0000
0000
0001
0100
0000
0000
1000
0010
0000
0000
0001
0100
0000
0000
,  // measure 85
2002
0000
0000
0000
0000
0000
0000
3003
,  // measure 86
1000
0010
0100
0001
0010
0100
1000
0100
0010
0001
0100
0010
1000
0001
0100
0010
,  // measure 87
1000
0001
1000
0100
0000
0010
0001
0100
,  // measure 88
1001
0000
0000
0000
0100
0000
0000
0000
0001
0010
0000
0000
0010
0000
0000
0000
,  // measure 89
0110
0000
0000
0000
0000
0000
0000
0000
0000
0000
0000
0000
0000
0000
0000
0100
0001
0000
0000
0000
0000
0000
0000
0000
0000
0000
0000
0000
0000
0000
0000
1000
,  // measure 90
0010
1010
0101
0110
,  // measure 91
1001
0100
0010
0001
0000
0100
0010
0100
,  // measure 92
0011
0000
0000
0000
0100
0000
0000
0000
0100
1000
0000
0000
0010
0000
0000
0000
,  // measure 93
1001
0000
0000
0000
,  // measure 94
0001
0010
0100
1000
0001
0010
0100
1000
0001
0010
0100
1000
0001
0010
0100
1000
,  // measure 95
0001
1000
0100
0010
0000
0001
0100
0010
,  // measure 96
1010
0000
0000
0000
0100
0000
0000
0000
0100
0001
0000
0000
0010
0000
0000
0000
,  // measure 97
0101
0000
0000
0000
0000
0000
0000
0000
0000
0000
0000
0000
0000
0000
0000
1000
0010
0000
0000
0000
0000
0000
0000
0000
0000
0000
0000
0000
0000
0000
0000
0001
,  // measure 98
0100
0110
1010
0101
,  // measure 99
0001
0100
0010
2000
0000
0000
0000
3010
,  // measure 100
1000
0000
0000
0100
0000
0000
0110
0000
0110
0000
1001
0000
,  // measure 101
2002
0000
0000
3003
,  // measure 102
0101
0000
0110
0000
0101
0000
1010
0000
1100
0000
0011
0000
,  // measure 103
2002
0000
0000
0000
,  // measure 104
0000
0000
0000
0000
0000
0000
0000
0003
,  // measure 105
3001
0010
1000
0100
1000
0010
0001
0100
,  // measure 106
0001
0010
0100
1000
0010
0001
0100
1000
,  // measure 107
1001
0000
0000
0000
;
