#TITLE:Lapis;
#SUBTITLE:;
#ARTIST:shiki;
#TITLETRANSLIT:;
#SUBTITLETRANSLIT:;
#ARTISTTRANSLIT:;
#CREDIT:;
#BANNER:Lapis.png;
#BACKGROUND:Lapis-bg.png;
#LYRICSPATH:;
#CDTITLE:cdtitle.png;
#MUSIC:Lapis.mp3;
#OFFSET:-1.650;
#SAMPLESTART:80.580;
#SAMPLELENGTH:12.620;
#SELECTABLE:YES;
#BPMS:0.000=146.000,128.000=36.500,136.000=73.000,152.000=146.000;
#STOPS:183.500=0.411
;
#BGCHANGES:-4.000=Lapis.avi=1.000=1=1=0,
256.000=Lapis-bg.png=1.000=1=0=1,
99999=-nosongbg-=1.000=0=0=0 // don't automatically add -songbackground-
;

//---------------dance-single - BASIC----------------
#NOTES:
     dance-single:
     BASIC:
     Easy:
     3:
     0.151,0.246,0.032,0.056,0.000:
0000
0000
0000
0000
,
0000
0000
0000
0000
,
0000
0000
0000
0000
,
0000
0000
0000
0000
,
0000
0000
0000
0000
,
0000
0000
0000
0000
,
0000
0000
0000
0000
,
0000
0000
0000
0000
,
0001
0000
0000
0000
,
1000
0000
0000
0000
,
0001
0000
0000
0000
,
1000
0000
0000
0000
,
0010
0000
0000
0000
,
0010
0000
0000
0000
,
0100
0000
0000
0000
,
0001
0000
0000
0000
,
1000
0000
0000
0000
,
0100
0000
0010
0001
,
1000
0000
0000
0000
,
1000
0000
0000
0100
,
0001
0000
0000
0000
,
0010
0000
0100
0001
,
1000
0000
0100
0010
,
0001
0000
0000
1000
0000
0000
0010
0000
,
0100
0000
0000
0000
,
0001
0000
0010
0100
,
0001
0000
0000
0000
,
0100
0000
0000
1000
,
0010
0000
0000
0000
,
0100
0000
0001
0010
,
0100
0000
1000
0010
,
0100
0000
0000
0100
0000
0000
0100
0000
,
1001
0001
1000
0100
,
0010
0010
0001
0100
,
1000
0000
0000
0000
0100
0000
0000
0000
0002
0000
0000
0003
0000
0000
0000
0000
,
0010
0000
0000
0000
0100
0000
0000
0000
2000
0000
0000
3000
0000
0000
0000
0000
,
1000
0000
0000
0000
0001
0000
0000
0000
0020
0000
0000
0030
0000
0000
0000
0000
,
0010
0000
0000
0000
0100
0000
0000
0000
2000
0000
0000
3000
0000
0000
0000
0000
,
1000
0001
0010
0100
,
2000
0000
0000
3000
0000
0000
1000
0000
,
0001
1000
0100
0000
,
0002
0000
0000
0003
0000
0000
0001
0000
,
0010
0000
0100
0000
,
2000
0000
0000
3000
0000
0000
1000
0000
,
0100
0000
0010
0000
,
0001
1000
0100
0010
,
1001
0000
0000
0000
,
0001
0000
0010
0100
,
1000
0000
0000
0000
,
1000
0000
0000
0100
,
0001
0000
0000
0000
,
0010
0000
0100
1000
,
0001
0000
0010
0100
,
1000
0000
0000
0100
0000
0000
0001
0000
,
1001
0000
0001
0000
,
1000
0000
0010
0100
,
0001
0000
0001
0000
,
1000
0000
0010
0100
,
1000
0000
0100
0000
,
0001
0000
0010
1000
,
0001
0000
0010
0100
,
1000
0000
0000
0010
0000
0000
0001
0000
,
1001
0000
0000
0000
;

//---------------dance-single - TRICK----------------
#NOTES:
     dance-single:
     TRICK:
     Medium:
     5:
     0.270,0.370,0.270,0.072,0.000:
0000
0000
0000
0000
,
0000
0000
0000
0000
,
0000
0000
0000
0000
,
0000
0000
0000
0000
,
0000
0000
0000
0000
,
0000
0000
0000
0000
,
0000
0000
0000
0000
,
0000
0000
0000
0000
,
0001
0100
0100
0001
,
1000
0010
0010
1000
,
0001
0010
0010
0001
,
1000
0100
0100
1000
,
0010
0100
0100
0001
,
0010
1000
1000
0100
,
0001
0010
0010
1000
,
0100
0100
0001
0010
,
1100
1000
0000
1000
,
1100
0000
0100
0001
,
1001
1000
0000
0001
,
1001
0000
0010
0100
,
1001
0001
0000
0010
,
0110
0000
0100
1000
,
1001
0000
0100
0010
,
0001
0000
0010
1000
0000
0100
0010
0000
,
0101
0100
0000
0100
,
0101
0000
0010
0100
,
1001
1000
0000
0010
,
0101
0000
0010
0100
,
1001
1000
0000
0010
,
0110
0000
0001
0010
,
0101
0000
1000
0010
,
0100
0000
0010
0100
0000
0001
0100
0000
,
1001
0100
0001
0000
1000
0001
0200
0000
,
0310
0000
0010
0000
0001
0010
0200
0000
,
1300
0000
1000
0000
0100
0000
0010
0000
0002
0000
0000
0003
0000
0000
0000
0000
,
0010
0000
0010
0000
0100
0000
0000
0000
2000
0000
0000
3000
0000
0000
0000
0000
,
1000
0000
0000
0000
0001
0000
0010
0000
0020
0000
0000
0030
0000
0000
0000
0000
,
0010
0000
0000
0000
0100
0000
0000
0000
2000
0000
0000
3000
0000
0000
0000
0000
,
1000
0001
0010
0100
,
2001
0000
0000
3010
0000
0000
1000
0000
,
0001
1000
0100
0000
,
0002
0000
0000
0013
0000
0000
0001
0000
,
0010
0000
0100
0010
,
2001
0000
0000
3010
0000
0000
1000
0000
,
0100
0100
0010
0010
,
0001
1000
0100
0010
,
1001
0000
1000
0000
,
0001
0000
0010
0100
,
1000
0000
0001
0000
,
1000
0000
1000
0100
,
0001
0000
0010
0000
,
0010
0000
0100
1000
,
0001
0000
0010
0100
,
1000
0000
1000
0100
0000
0100
0001
0000
,
1001
0010
0001
0100
,
1001
0010
0110
0101
,
1001
0010
0001
0100
,
1100
0001
0010
0110
,
1001
0001
0100
0010
,
1001
0001
0110
1100
,
1001
0010
0011
1100
,
1001
0000
0100
0010
0000
0010
0100
0000
,
1001
0000
0000
0000
;

//---------------dance-single - HEAVY----------------
#NOTES:
     dance-single:
     HEAVY:
     Hard:
     6:
     0.402,0.591,0.461,0.167,0.099: // measure 1
0000
0000
0000
0000
,  // measure 2
0000
0000
0000
0000
,  // measure 3
0000
0000
0000
0000
,  // measure 4
0000
0000
0000
0000
,  // measure 5
0000
0000
0000
0000
,  // measure 6
0000
0000
0000
0000
,  // measure 7
0000
0000
0000
0000
,  // measure 8
0000
0000
0000
0000
,  // measure 9
0001
0010
0100
0000
0100
0000
0001
0000
,  // measure 10
1000
0100
0010
0001
0010
0000
1000
0000
,  // measure 11
0001
1000
0010
0000
0010
1000
0100
0000
,  // measure 12
1000
0010
0100
0010
0100
0000
1001
0000
,  // measure 13
0010
1000
0100
1000
0100
0000
0001
0000
,  // measure 14
1000
0100
0010
0000
1000
0000
0100
0000
,  // measure 15
0001
0010
0010
0000
0010
0010
0100
0000
,  // measure 16
1000
0000
0100
1000
0001
0000
0100
0000
,  // measure 17
1010
1000
0010
1000
,  // measure 18
1100
0100
0101
0011
,  // measure 19
1001
1000
0100
0001
,  // measure 20
1001
1000
0010
0110
,  // measure 21
1001
0001
0100
0010
,  // measure 22
0110
0100
0110
1010
,  // measure 23
1001
0100
0110
0011
,  // measure 24
1001
0000
0000
1010
0000
0010
0100
0000
,  // measure 25
0101
0100
0001
0100
,  // measure 26
0101
1000
1010
0110
,  // measure 27
1001
1000
0100
0010
,  // measure 28
0101
0100
0010
0110
,  // measure 29
1001
1000
0001
0010
,  // measure 30
0110
1000
0101
1010
,  // measure 31
1001
0100
1001
0110
,  // measure 32
1100
0000
0000
0110
0000
0001
0100
0000
,  // measure 33
1000
0000
0100
0000
0010
0000
0001
0000
0001
0000
0000
0001
0000
0000
0001
0000
1000
0000
0001
0000
0100
0000
0000
0000
0100
0000
0000
0001
0000
0000
0100
0000
,  // measure 34
0010
0000
0000
0000
0001
0000
0100
0000
0010
0000
0000
1000
0000
0000
1000
0000
0001
0000
0000
0000
0010
0000
0000
0000
0200
0000
0000
0000
0000
0000
0000
0000
,  // measure 35
1300
0000
1000
0000
0100
0000
0010
0000
0001
0000
0000
0001
0000
0000
1000
0000
,  // measure 36
0010
0000
0010
0000
0100
0000
0000
0000
1000
0000
0000
1000
0000
0000
0010
0000
,  // measure 37
1000
0000
0000
0000
0001
0000
1000
0000
0010
0000
0000
0010
0000
0000
0100
0000
,  // measure 38
0010
0000
0000
0000
0100
0000
0000
0000
1000
0000
0000
0001
0000
0000
0100
0000
,  // measure 39
2000
0001
3002
0010
0023
0100
0230
1000
,  // measure 40
2300
0010
0000
3020
0100
0000
0230
0000
,  // measure 41
0302
1000
2003
0100
3200
0000
0010
0000
,  // measure 42
2300
0010
0000
3020
0100
0030
0200
0000
,  // measure 43
0302
0000
0000
0013
0000
0000
0010
0100
1000
0100
0010
0001
,  // measure 44
2000
0100
3000
0020
0100
0030
2000
0000
,  // measure 45
3200
0001
0301
0010
0020
0100
0130
1000
,  // measure 46
2000
0010
3000
0001
0100
0001
1000
0100
,  // measure 47
1001
0000
1000
0000
,  // measure 48
0101
0000
0110
0100
,  // measure 49
1001
0000
0001
0000
,  // measure 50
1001
0000
0100
0110
,  // measure 51
1001
0000
0010
0000
,  // measure 52
0110
0000
0110
0010
,  // measure 53
1001
0000
1010
0100
,  // measure 54
1001
0000
1010
0100
0000
0100
1010
0000
,  // measure 55
1001
0000
0010
0100
0001
0000
0100
0000
,  // measure 56
1001
0000
0000
0000
0010
0000
0000
0000
0110
0000
0000
0010
0100
0000
0000
0000
,  // measure 57
1001
0000
0010
1000
0001
0000
0100
0000
,  // measure 58
1100
0000
0000
0000
0001
0000
0000
0000
0010
0000
0000
1000
0100
0000
0000
0000
,  // measure 59
1001
0000
0001
0000
0100
1000
0010
0000
,  // measure 60
1001
0000
0000
0000
0001
0000
0000
0000
0110
0000
0000
0100
1000
0000
0000
0000
,  // measure 61
1001
0000
0000
0000
0010
0000
0000
0010
0001
0000
0000
0100
1000
0000
0000
0000
,  // measure 62
1001
0000
0000
0010
0100
0000
0010
0000
0000
0100
0010
0000
0100
0000
0100
0000
,  // measure 63
1001
0000
0000
0000
;

//---------------dance-single - ONI----------------
#NOTES:
     dance-single:
     ONI:
     Challenge:
     10:
     0.759,0.813,0.302,0.016,1.000:
0000
0000
0000
0000
,
0000
0000
0000
0000
,
0000
0000
0000
0000
,
0000
0000
0000
0000
,
0000
0000
0000
0000
,
0000
0000
0000
0000
,
0000
0000
0000
0000
,
0000
0000
0000
0000
,
0001
1000
0010
0001
0000
1000
0100
0010
0100
0000
0100
0001
0000
0001
0010
0100
,
1000
0100
0010
0001
0000
0001
0010
0100
0010
0001
0100
0010
0000
0100
0001
1000
,
0010
0000
1000
0000
0010
0000
1000
0000
0000
0000
0000
0000
0010
0000
0000
0100
0000
0000
0000
0000
0000
0100
0000
0000
0010
0000
0000
0000
0000
0000
0100
0000
0000
0001
0000
0000
0000
0000
0000
0001
0000
0000
1000
0000
0000
0000
0000
0000
,
1000
0000
0000
0010
0000
0000
0100
0000
0000
0001
0000
0000
0000
0000
0000
0001
0000
0000
0100
0000
0000
0000
0000
0000
0100
0000
0010
0000
0100
0000
0010
0000
0000
0000
0000
0000
1000
0000
0000
0000
0000
0000
0100
0000
0000
0000
0000
0000
,
0010
0000
0000
0000
0000
0000
0000
0000
0000
0001
0000
0000
0000
0000
0000
1000
0000
0000
0100
0000
0000
0000
0000
0000
0010
0000
0000
0000
0000
0000
0001
0000
0010
0000
0001
0000
0010
0000
0000
0000
0000
0000
0100
0000
0000
0000
0000
0000
,
1000
0000
0000
0100
0000
0000
0000
0000
0000
0010
0000
0000
0000
0000
0000
0000
0000
0000
0001
0000
0000
0000
0000
0000
1000
0000
0000
0000
0000
0000
0010
0000
1000
0000
0010
0000
1000
0000
0000
0000
0000
0000
0001
0000
0000
0000
0000
0000
,
1000
0000
0000
0010
0000
0000
0000
0000
0000
1000
0000
0000
0000
0000
0000
0010
0000
0000
0001
0000
0000
0000
0000
0000
0010
0000
0000
0000
0000
0000
0010
0000
0100
0000
0010
0000
0100
0000
0000
0000
0000
0000
0001
0000
0000
0000
0000
0000
,
1000
0000
0000
0000
0000
0000
0010
0000
0000
0100
0000
0000
0000
0000
0000
0000
0000
0000
0100
0000
0000
0000
0000
0000
0001
0000
0000
0000
0000
0000
0001
0000
0010
0000
0100
0000
1000
0000
0000
0000
0000
0000
0100
0000
0000
0000
0000
0000
,
1001
0001
0100
0001
0000
1000
0010
0100
0010
0000
0010
1000
0000
1000
0100
0010
,
0011
0000
0100
1000
0000
1000
0100
0010
0100
1000
0010
0100
0001
0010
0100
1000
,
0001
0000
0100
0000
0010
0000
1000
0000
0000
0000
0000
0000
0100
0000
0000
0010
0000
0000
0000
0000
0000
0010
0000
0000
0100
0000
0000
0000
0000
0000
0010
0000
0000
0001
0000
0000
0000
0000
0000
0001
0000
0000
1000
0000
0000
0000
0000
0000
,
1001
0000
0000
0001
0000
0000
1000
0000
0000
0010
0000
0000
0000
0000
0000
1000
0000
0000
0010
0000
0000
0000
0000
0000
1000
0000
0100
0000
0010
0000
0001
0000
0000
0000
0000
0000
0011
0000
0000
0000
0000
0000
0010
0000
0000
0000
0000
0000
,
1100
0000
0000
0000
0000
0000
0000
0000
0000
1000
0000
0000
0000
0000
0000
0001
0000
0000
0010
0000
0000
0000
0000
0000
0100
0000
0000
0000
0000
0000
1000
0000
0100
0000
0010
0000
0001
0000
0000
0000
0000
0000
0010
0000
0000
0000
0000
0000
,
0011
0000
0000
0010
0000
0000
0000
0000
0000
0001
0000
0000
0000
0000
0000
0000
0000
0000
1000
0000
0000
0000
0000
0000
1001
0000
0000
0000
0000
0000
0001
0000
0100
0000
0010
0000
1000
0000
0000
0000
0000
0000
0001
0000
0000
0000
0000
0000
,
1100
0000
0000
1000
0000
0000
0000
0000
0000
0001
0000
0000
0000
0000
0000
0100
0000
0000
1000
0000
0000
0000
0000
0000
0101
0000
0000
0000
0000
0000
0100
0000
0010
0000
1000
0000
0001
0000
0000
0000
0000
0000
0001
0000
0000
0000
0000
0000
,
1001
0000
0000
0000
0000
0000
0100
0000
0000
0010
0000
0000
0000
0000
0000
0000
0000
0000
1001
0000
0000
0000
0000
0000
0001
0000
0000
0000
0000
0000
0010
0000
0100
0000
0010
0000
0001
0000
0000
0000
0000
0000
0100
0000
0000
0000
0000
0000
,
1001
1000
0100
1000
0000
0001
0010
0100
0010
0000
0010
0001
0000
1000
0100
0010
,
1001
0001
0100
1000
0000
1000
0100
0010
0100
1000
0100
0001
0010
0100
1000
0001
,
1000
0000
0100
0000
0010
0000
0100
0000
0000
0000
0000
0000
1000
0000
0000
0010
0000
0000
0000
0000
0000
0010
0000
0000
0100
0000
0000
0000
0000
0000
0010
0000
0000
1000
0000
0000
0000
0000
0000
1000
0000
0000
0001
0000
0000
0000
0000
0000
,
1001
0000
0000
0001
0000
0000
0010
0000
0000
1000
0000
0000
0000
0000
0000
1000
0000
0000
0010
0000
0000
0000
0000
0000
0010
0000
0001
0000
0010
0000
0100
0000
0000
0000
0000
0000
1100
0000
0000
0000
0000
0000
0010
0000
0000
0000
0000
0000
,
0101
0000
0000
0000
0000
0000
0000
0000
0000
1000
0000
0000
0000
0000
0000
0100
0000
0000
0010
0000
0000
0000
0000
0000
0001
0000
0000
0000
0000
0000
0001
0000
0010
0000
0100
0000
1000
0000
0000
0000
0000
0000
0100
0000
0000
0000
0000
0000
,
1100
0000
0000
0010
0000
0000
0000
0000
0000
0001
0000
0000
0000
0000
0000
0000
0000
0000
1000
0000
0000
0000
0000
0000
1001
0000
0000
0000
0000
0000
1000
0000
0100
0000
0010
0000
0001
0000
0000
0000
0000
0000
0001
0000
0000
0000
0000
0000
,
1100
0000
0000
0100
0000
0000
0000
0000
0000
0001
0000
0000
0000
0000
0000
0100
0000
0000
1000
0000
0000
0000
0000
0000
0101
0000
0000
0000
0000
0000
0100
0000
0010
0000
1000
0000
0001
0000
0000
0000
0000
0000
0001
0000
0000
0000
0000
0000
,
1001
0000
0000
0000
0000
0000
0100
0000
0000
0010
0000
0000
0000
0000
0000
0000
0000
0000
1001
0000
0000
0000
0000
0000
1000
0000
0000
0000
0000
0000
1000
0000
0100
0000
0010
0000
0001
0000
0000
0000
0000
0000
0010
0000
0000
0000
0000
0000
,
0011
0000
0100
0000
0010
0000
0001
0000
1000
0000
0000
0010
0000
0000
0010
0000
1000
0000
0001
0000
0100
0000
0000
0000
1000
0000
0000
0001
0000
0000
0100
0000
,
0010
0000
0000
0000
0000
0000
0000
0000
0000
0000
0000
0000
0000
0000
0000
0000
0000
0000
0000
0000
0000
0000
0000
0000
0001
0000
0000
0000
1000
0000
0000
0000
0010
0000
0000
0000
0100
0000
0000
0000
0001
0000
0000
0000
1000
0000
0000
0000
0010
0000
0000
0000
0000
0000
0000
0000
0000
0000
0000
0000
0000
0000
0000
0000
0000
0000
1000
0000
0000
0000
0000
0000
0000
0000
0000
0000
0000
0000
0000
0000
0000
0000
0000
0000
1000
0000
0000
0000
0000
0000
0000
0000
0000
0000
0000
0000
0001
0000
0000
0000
0000
0000
0000
0000
0000
0000
0000
0000
0000
0000
0000
0000
0000
0000
0000
0000
0000
0000
0000
0000
0010
0000
0000
0000
0000
0000
0000
0000
0000
0000
0000
0000
0000
0000
0000
0000
0000
0000
0000
0000
0000
0000
0000
0000
0100
0000
0000
0000
0000
0000
0000
0000
0000
0000
0000
0000
0000
0000
0000
0000
0000
0000
0000
0000
0000
0000
0000
0000
2002
0000
0000
0000
0000
0000
0000
0000
0000
0000
0000
0000
3003
0000
0000
0000
0000
0000
0000
0000
0000
0000
0000
0000
,
0010
0000
1000
0000
0100
0000
0010
0000
0001
0000
0000
0001
0000
0000
1000
0000
,
0010
0000
0010
0000
0001
0000
0000
0000
1000
0000
0000
0100
0000
0000
0010
0000
,
0001
0000
0000
0000
0000
0000
0000
0000
0000
0000
0000
0000
0001
0000
0010
0000
0100
0000
1000
0000
0001
0000
1000
0000
0100
0000
0000
0000
0000
0000
0000
0000
0000
0010
0000
0000
0000
0000
0000
0000
0000
0000
1000
0000
0000
0000
0000
0000
,
0010
0000
0000
0000
0000
0000
0000
0000
0100
0000
0000
0000
0000
0000
0000
0000
1000
0000
0000
0000
0000
0000
0001
0000
0000
0000
0001
0010
0100
1000
0000
0100
,
0010
0001
0000
0100
0000
0001
0010
0100
0010
0001
0000
0100
0000
0010
1000
0100
,
1000
0001
0010
0100
0000
0010
0001
0010
0100
0010
0001
0010
0100
0010
0001
0100
,
0001
0010
0000
0100
0000
1000
0010
0001
0010
0000
1000
0100
0000
0010
0100
0010
,
0001
0000
0010
0100
0000
0100
0010
0001
0100
0010
0000
1000
0000
0000
1000
0000
,
0100
0010
0000
0001
0000
0100
1000
0000
0100
0010
0000
1000
0000
0100
0010
0000
,
0001
0000
0100
0010
0000
1000
0010
0100
0001
1000
0000
0010
0000
0000
0100
0000
,
0001
0010
0100
1000
0000
0001
0010
0100
1000
0100
0000
0010
0000
0001
0100
0000
,
1000
0000
0001
0010
1000
0000
0001
0010
0100
1000
1010
0000
1001
0000
0110
0000
,
1000
0100
0010
0100
0000
1000
0010
0100
0001
0000
0010
0100
0000
0100
0010
0100
,
1000
0010
0100
0001
0000
1000
0100
0010
0100
1000
0010
0100
0001
0010
0100
1000
,
0001
0000
0100
0000
0010
0000
1000
0000
0000
0000
0000
0000
0100
0000
0000
0010
0000
0000
0000
0000
0000
0010
0000
0000
0100
0000
0000
0000
0000
0000
0010
0000
0000
1000
0000
0000
0000
0000
0000
1000
0000
0000
0001
0000
0000
0000
0000
0000
,
1000
0000
0000
0100
0000
0000
0010
0000
0000
0001
0000
0000
0000
0000
0000
0100
0000
0000
0010
0000
0000
0000
0000
0000
0100
0000
0010
0000
1000
0000
0010
0000
0000
0000
0000
0000
0100
0000
0000
0000
0000
0000
0010
0000
0000
0000
0000
0000
,
1000
0000
0000
0000
0000
0000
0000
0000
0000
1000
0000
0000
0000
0000
0000
0001
0000
0000
0010
0000
0000
0000
0000
0000
0100
0000
0000
0000
0000
0000
1000
0000
0100
0000
0010
0000
0100
0000
0000
0000
0000
0000
0100
0000
0000
0000
0000
0000
,
0010
0000
0000
0001
0000
0000
0000
0000
0000
0001
0000
0000
0000
0000
0000
0000
0000
0000
1000
0000
0000
0000
0000
0000
0001
0000
0000
0000
0000
0000
1000
0000
0100
0000
0010
0000
0001
0000
0000
0000
0000
0000
0001
0000
0000
0000
0000
0000
,
1000
0000
0000
0100
0000
0000
0000
0000
0000
0001
0000
0000
0000
0000
0000
0100
0000
0000
1000
0000
0000
0000
0000
0000
0001
0000
0000
0000
0000
0000
0100
0000
0010
0000
1000
0000
0001
0000
0000
0000
0000
0000
1000
0000
0000
0000
0000
0000
,
0010
0000
0000
0000
1000
0010
1000
0010
1000
0000
0000
0000
0001
1000
0001
1000
0001
0000
0000
0000
1000
0000
0001
0000
1000
0000
0010
0000
0100
0000
0001
0000
,
1001
1000
0100
1000
0000
0001
0010
0100
0010
0000
0010
0001
0000
0001
0100
0010
,
1010
0000
0100
0001
0000
0001
0100
0010
0100
0001
0010
0100
1000
0010
0100
0001
,
1000
0000
0100
0000
0010
0000
0001
0000
0000
0000
0000
0000
0100
0000
0000
0010
0000
0000
0000
0000
0000
0010
0000
0000
0100
0000
0000
0000
0000
0000
0010
0000
0000
1000
0000
0000
0000
0000
0000
1000
0000
0000
0001
0000
0000
0000
0000
0000
,
1001
0000
0000
1000
0000
0000
0001
0000
0000
0010
0000
0000
0000
0000
0000
0001
0000
0000
0010
0000
0000
0000
0000
0000
0001
0000
0100
0000
0010
0000
1000
0000
0000
0000
0000
0000
1010
0000
0000
0000
0000
0000
0010
0000
0000
0000
0000
0000
,
0101
0000
0000
0000
0000
0000
0000
0000
0000
0001
0000
0000
0000
0000
0000
1000
0000
0000
0010
0000
0000
0000
0000
0000
0100
0000
0000
0000
0000
0000
0001
0000
0100
0000
0010
0000
1000
0000
0000
0000
0000
0000
0010
0000
0000
0000
0000
0000
,
1010
0000
0000
0010
0000
0000
0000
0000
0000
1000
0000
0000
0000
0000
0000
0000
0000
0000
0001
0000
0000
0000
0000
0000
1001
0000
0000
0000
0000
0000
1000
0000
0100
0000
0010
0000
0001
0000
0000
0000
0000
0000
1000
0000
0000
0000
0000
0000
,
0101
0000
0000
0001
0000
0000
0000
0000
0000
1000
0000
0000
0000
0000
0000
0100
0000
0000
0001
0000
0000
0000
0000
0000
1100
0000
0000
0000
0000
0000
0100
0000
0010
0000
0001
0000
1000
0000
0000
0000
0000
0000
1000
0000
0000
0000
0000
0000
,
1001
0000
0000
0000
1000
0010
1000
0010
1000
0000
0000
0000
0001
0010
0001
0010
0001
0000
0000
0000
1000
0000
0100
0000
0010
0000
0001
0000
0010
0000
0100
0000
,
1001
0000
0000
0000
;

//---------------dance-double - ----------------
#NOTES:
     dance-double:
     :
     Hard:
     8:
     0.443,0.739,0.016,0.318,0.099:
00000000
00000000
00000000
00000000
,
00000000
00000000
00000000
00000000
,
00000000
00000000
00000000
00000000
,
00000000
00000000
00000000
00000000
,
00000000
00000000
00000000
00000000
,
00000000
00000000
00000000
00000000
,
00000000
00000000
00000000
00000000
,
00000000
00000000
00000000
00000000
,
10000000
01000000
00100000
00010000
00100000
00001000
00100000
00001000
,
00010000
00000010
00010000
00001000
00010000
00001000
00010000
00000100
,
00000010
00000100
00001000
00000100
00000010
00000001
00000010
00000001
,
00000010
00000100
00000010
00000001
00000100
00000010
00000100
00000010
,
00010000
00000010
00000100
00000010
00010000
00001000
00010000
00001000
,
00100000
00001000
00010000
00001000
00100000
01000000
00100000
01000000
,
10000000
01000000
00010000
01000000
00010000
01000000
00100000
00001000
,
00100000
00010000
00100000
00010000
00001000
00010000
00001000
00000100
,
00000020
00001000
00000030
00000001
00000100
00000010
00000000
00010000
,
00002000
00000000
00103000
00010000
20000000
00000000
32000000
00010000
,
03002000
00000000
00003010
00000000
00000100
00000001
00001000
00000100
,
00000002
00000000
00000013
00000000
00000100
00000010
00000002
00000000
,
00000023
00000000
00010030
00001000
00100000
00000000
00001000
00010000
,
02000000
10000000
03100000
00000000
02000000
00100000
03002000
00010000
,
00003020
00000000
00001030
00010000
00000200
00000000
00000320
00000001
,
00000230
00000000
00000310
00020000
00001000
00130000
00002000
00010000
,
02003000
00000000
13000000
00000000
01000000
00100000
00000000
00001000
,
00020000
00000010
00030000
00000100
00000002
00001000
00000203
00000000
,
00000320
00000000
00001030
00000100
00010000
00000000
00000010
00010000
,
00002000
00000000
00003010
00000000
00000100
00010000
00002000
00100000
,
00023000
00000000
10030000
01000000
00100000
00000000
01000000
10000000
,
00200000
00000000
01300000
00000000
00002000
00100000
02003000
00010000
,
03002000
00000000
00003100
00000010
00000200
00000001
00000320
00000100
,
00002030
00000000
00003001
00000200
00000010
00010300
00002000
00100000
,
01003000
00000000
10000000
00000000
00100000
00000000
00010000
00000000
00001000
00000000
00000000
00000100
00000000
00000000
00000010
00000000
00001000
00000000
00000001
00000000
00000010
00000000
00000000
00000000
00000100
00000000
00000000
00001000
00000000
00000000
00010000
00000000
,
01000000
00000000
00000000
00000000
00000000
00000000
00000000
00000000
00000000
00000000
00000000
00000000
00000000
00000000
00000000
00000000
00000000
00000000
00000000
00000000
00000000
00000000
00000000
00000000
00100000
00000000
00000000
00000000
10000000
00000000
00000000
00000000
01000000
00000000
00000000
00000000
00010000
00000000
00000000
00000000
01000000
00000000
00000000
00000000
10000000
00000000
00000000
00000000
00100000
00000000
00000000
00000000
00000000
00000000
00000000
00000000
00000000
00000000
00000000
00000000
00000000
00000000
00000000
00000000
00000000
00000000
00010000
00000000
00000000
00000000
00000000
00000000
00000000
00000000
00000000
00000000
00000000
00000000
00000000
00000000
00000000
00000000
00000000
00000000
00001000
00000000
00000000
00000000
00000000
00000000
00000000
00000000
00000000
00000000
00000000
00000000
00000200
00000000
00000000
00000000
00000000
00000000
00000000
00000000
00000000
00000000
00000000
00000000
00000000
00000000
00000000
00000000
00000000
00000000
00000000
00000000
00000000
00000000
00000000
00000000
00000320
00000000
00000000
00000000
00000000
00000000
00000000
00000000
00000000
00000000
00000000
00000000
00000000
00000000
00000000
00000000
00000000
00000000
00000000
00000000
00000000
00000000
00000000
00000000
00000032
00000000
00000000
00000000
00000000
00000000
00000000
00000000
00000000
00000000
00000000
00000000
00000000
00000000
00000000
00000000
00000000
00000000
00000000
00000000
00000000
00000000
00000000
00000000
00000000
00000000
00000000
00000000
00000000
00000000
00000000
00000000
00000000
00000000
00000000
00000000
00000000
00000000
00000000
00000000
00000000
00000000
00000000
00000000
00000000
00000000
00000000
00000000
,
00000103
00000000
00001000
00000000
00010000
00000000
01000000
00000000
00100000
00000000
00000000
10000000
00000000
00000000
01000000
00000000
,
00010000
00000000
00001000
00000000
00000010
00000000
00000000
00000000
00000001
00000000
00000000
00000100
00000000
00000000
00000010
00000000
,
00010000
00000000
00000000
00000000
00000000
00000000
00000000
00000000
00000000
00000000
00000000
00000000
00001000
00000000
00010000
00000000
01000000
00000000
00100000
00000000
10000000
00000000
01000000
00000000
00100000
00000000
00000000
00000000
00000000
00000000
00000000
00000000
00000000
10000000
00000000
00000000
00000000
00000000
00000000
00000000
00000000
00000000
01000000
00000000
00000000
00000000
00000000
00000000
,
00020000
00000000
00000000
00000000
00032000
00000000
00000000
00000000
00003200
00000000
00000000
00000010
00000000
00000000
00000301
00000000
,
00000010
00000001
00000100
00000000
00010010
00000000
00000100
00000000
,
00010000
00001000
00100000
01000000
00000000
10000000
00100000
00000000
,
01000000
00001000
00100000
00000000
00010000
00001000
00100000
00000000
,
00010000
00000000
00001000
00000100
00000000
00000010
00000000
00001000
,
00000001
00000010
00000100
00000000
00001000
00000010
00000100
00000000
,
00000001
00000000
00000010
00000100
00010000
00000000
00001000
00000000
,
00100000
00010000
10000000
00000000
01000000
00000000
00100000
00001000
,
00010000
00000000
00000010
00010000
00001000
00000000
00000100
00000010
,
00000101
00000010
00001000
00010000
,
00100000
00000000
10000000
00000000
01000000
00100000
00001000
00000000
,
00010000
00000010
00001000
00000001
,
00000010
00000000
00000100
00010000
00000000
00000100
00000010
00000000
,
00001000
00000000
00010000
00000000
00100000
00000000
10000000
01000000
,
00010000
00000000
00001000
00000000
00100000
00000000
00001000
00010000
,
00000100
00000000
00000010
00000001
00000100
00000000
00010000
00001000
,
00000000
00100000
00010000
10000000
01000000
00000000
00010000
00000000
,
00001000
00010000
01000000
00000000
00100000
00000000
10000000
00000000
,
00100000
00000000
00001000
00010000
00000010
00010000
00001000
00000000
,
00000100
00000001
00000010
00000000
00000100
00000000
00001000
00000010
,
00000100
00000000
00000001
00000010
00000100
00000000
00010000
00001000
,
00100000
00000000
00010000
00000000
00000000
00000000
10000000
00000000
01000000
00000000
00000000
00010000
00000000
00000000
00001000
00000000
,
00010000
00000000
00000000
00000000
00000100
00000000
00000010
00000000
00001000
00000000
00000000
00000001
00000000
00000000
00000010
00000000
,
00000100
00000000
00010000
00001000
00100000
00000000
10000000
01000000
,
00100000
00000000
00000000
00000000
00010000
00000000
00001000
00000000
00000100
00000000
00000000
00000010
00000000
00000000
00001000
00000000
,
00010000
00000000
00000000
00000000
;

//---------------dance-double - ----------------
#NOTES:
     dance-double:
     :
     Challenge:
     10:
     0.795,1.000,0.270,0.493,0.946:
00000000
00000000
00000000
00000000
,
00000000
00000000
00000000
00000000
,
00000000
00000000
00000000
00000000
,
00000000
00000000
00000000
00000000
,
00000000
00000000
00000000
00000000
,
00000000
00000000
00000000
00000000
,
00000000
00000000
00000000
00000000
,
00000000
00000000
00000000
00000000
,
00100000
00010000
10000000
01000000
00000000
00100000
00000000
00001000
00010000
00000000
00000010
00010000
00000000
00001000
00000100
00000000
,
00000001
00000010
00000100
00001000
00000000
00000001
00000000
00000100
00000010
00000000
00001000
00000100
00000000
00010000
00000000
00001000
,
00100000
00000000
00010000
00000000
10000000
00000000
01000000
00000000
00000000
00100000
00000000
00000000
00010000
00000000
00000000
00100000
00000000
00000000
00000000
00000000
00000000
01000000
00000000
00000000
00001000
00000000
00000000
00000000
00000000
00000000
00010000
00000000
00000000
00000010
00000000
00000000
00000000
00000000
00000000
00010000
00000000
00000000
00001000
00000000
00000000
00000000
00000000
00000000
,
00000100
00000000
00000000
00000001
00000000
00000000
00001000
00000000
00000000
00000100
00000000
00000000
00000000
00000000
00000000
00000010
00000000
00000000
00000001
00000000
00000000
00000100
00000000
00000000
00001000
00000000
00000010
00000000
00000100
00000000
00001000
00000000
00000000
00000000
00000000
00000000
00010000
00000000
00000000
00000000
00000000
00000000
00000100
00000000
00000000
00000000
00000000
00000000
,
00010000
00000000
00000000
00000000
00000000
00000000
00100000
00000000
00000000
10000000
00000000
00000000
00000000
00000000
00000000
01000000
00000000
00000000
00100000
00000000
00000000
00000000
00000000
00000000
00010000
00000000
00001000
00000000
00000010
00000000
00001000
00000000
00000000
00000000
00000000
00000000
00000001
00000000
00000000
00000000
00000000
00000000
00000100
00000000
00000000
00000000
00000000
00000000
,
00001000
00000000
00010000
00000000
01000000
00000000
00100000
00000000
00000000
10000000
00000000
00000000
00000000
00000000
00000000
01000000
00000000
00000000
00100000
00000000
00000000
00000000
00000000
00000000
00010000
00000000
00000000
00000000
00000000
00000000
01000000
00000000
00100000
00000000
00001000
00000000
00010000
00000000
00000000
00000000
00000000
00000000
00001000
00000000
00000000
00000000
00000000
00000000
,
00010000
00000000
00000100
00000010
00000000
00000100
00001000
00000000
00000001
00000000
00000010
00000100
00001000
00000000
00000001
00000000
,
00000100
00000000
00000000
00000000
00000000
00000000
00000010
00000000
00000000
00010000
00000000
00000000
00000000
00000000
00000000
00000000
00000000
00000000
00001000
00000000
00000000
00000000
00000000
00000000
00100000
00000000
00000000
00000000
00000000
00000000
00001000
00000000
00010000
00000000
01000000
00000000
00100000
00000000
00000000
00000000
00000000
00000000
10000000
00000000
00000000
00000000
00000000
00000000
,
00010100
00000000
01000000
00001000
00000000
00010000
00000010
00000000
00010000
00000000
00001000
00000100
00000000
00000001
00001000
00000000
,
00000110
00000000
00000010
00000001
00000000
00000100
00000000
00000010
00101000
00000000
00000100
00010000
00010100
00001000
00010000
00000000
,
00110000
00000000
01000000
00000000
10000000
00000000
00010000
00000000
00000000
00000000
00000000
00000000
10000000
00000000
00000000
00000000
00000000
00000000
00100000
00000000
00000000
00010000
00000000
00000000
00100000
00000000
00000000
00000000
00000000
00000000
00001000
00000000
00000000
00010000
00000000
00000000
00000000
00000000
00000000
00000010
00000000
00000000
00010000
00000000
00000000
00000000
00000000
00000000
,
00001100
00000000
00000000
00000000
00000000
00000000
00000100
00000000
00000000
00000001
00000000
00000000
00001000
00000000
00000000
00000000
00000000
00000000
00000100
00000000
00000000
00000010
00000000
00000000
00000001
00000000
00001000
00000000
00000100
00000000
00000010
00000000
00000000
00000001
00000000
00000000
00001100
00000000
00000000
00000000
00000000
00000000
00000100
00000000
00000000
00000000
00000000
00000000
,
00011000
00000000
00000000
00000000
00000000
00000000
00001000
00000000
00000000
00100000
00000000
00000000
00000000
00000000
00000000
00001000
00000000
00000000
00010000
00000000
00000000
00000000
00000000
00000000
01000000
00000000
00000000
00000000
00000000
00000000
10000000
00000000
01000000
00000000
00100000
00000000
00010000
00000000
00000000
00000000
00000000
00000000
00001000
00000000
00000000
00000000
00000000
00000000
,
00010100
00000000
00000000
00000000
00000000
00000000
00001000
00000000
00000000
00010000
00000000
00000000
00000000
00000000
00000000
00000100
00000000
00000000
00000010
00000000
00000000
00000000
00000000
00000000
00000101
00000000
00000000
00000000
00000000
00000000
00000010
00000000
00001000
00000000
00000100
00000000
00000011
00000000
00000000
00000000
00000000
00000000
00000001
00000000
00000000
00000000
00000000
00000000
,
00000101
00000000
00000010
00010000
00000000
00001000
00100000
00000000
00101000
00000000
00010000
01000000
10010000
00000000
01000000
00000000
,
00110000
00000000
00000000
00000000
00000000
00000000
00001000
00000000
00000000
00010000
00000000
00000000
00000000
00000000
00000000
00000010
00000000
00000000
00000101
00000000
00000000
00000000
00000000
00000000
00001000
00000000
00000000
00000000
00000000
00000000
00000100
00000000
00000001
00000000
00001000
00000000
00001001
00000000
00000000
00000000
00000000
00000000
00000100
00000000
00000000
00000000
00000000
00000000
,
00000110
00000000
00000001
00000100
00000000
00000010
00001000
00000000
00000100
00000000
00010000
00001000
00000000
00010000
00001000
00000000
,
00101000
00000000
00010000
00100000
00000000
01000000
00000000
10000000
00101000
00000000
00010000
00100000
00110000
01000000
00000000
00010000
,
00001100
00000000
00000100
00000000
00000001
00000000
00000100
00000000
00000000
00000000
00000000
00000000
00000010
00000000
00000000
00000000
00000000
00000000
00001000
00000000
00000000
00000100
00000000
00000000
00000010
00000000
00000000
00000000
00000000
00000000
00000001
00000000
00000000
00000100
00000000
00000000
00000000
00000000
00000000
00000010
00000000
00000000
00001000
00000000
00000000
00000000
00000000
00000000
,
00010100
00000000
00000000
00000000
00000000
00000000
00010000
00000000
00000000
00000010
00000000
00000000
00000000
00000000
00000000
00001000
00000000
00000000
00010000
00000000
00000000
00000000
00000000
00000000
01000000
00000000
00100000
00000000
00010000
00000000
10000000
00000000
00000000
01000000
00000000
00000000
01100000
00000000
00000000
00000000
00000000
00000000
00010000
00000000
00000000
00000000
00000000
00000000
,
00011000
00000000
00000000
00000000
00000000
00000000
00010000
00000000
00000000
00000010
00000000
00000000
00000000
00000000
00000000
00001000
00000000
00000000
00000100
00000000
00000000
00000000
00000000
00000000
00000010
00000000
00000000
00000000
00000000
00000000
00000001
00000000
00000100
00000000
00000010
00000000
00001000
00000000
00000000
00000000
00000000
00000000
00010000
00000000
00000000
00000000
00000000
00000000
,
00010100
00000000
00000000
00000000
00000000
00000000
00010000
00000000
00000000
00001000
00000000
00000000
00000000
00000000
00000000
00100000
00000000
00000000
00001000
00000000
00000000
00000000
00000000
00000000
10010000
00000000
00000000
00000000
00000000
00000000
01000000
00000000
10000000
00000000
01000000
00000000
01100000
00000000
00000000
00000000
00000000
00000000
00100000
00000000
00000000
00000000
00000000
00000000
,
00101000
00000000
00010000
00000010
00000000
00010000
00001000
00000000
00000110
00000000
00000001
00001000
00000101
00000000
00000010
00000000
,
00001001
00000100
00000010
00001000
00000000
00010000
00010100
00000000
00010000
00000000
00001000
00100000
00101000
00000000
00010000
00000000
,
02000000
00000000
20000000
03000000
00200000
30000000
00020000
00300000
00002000
00000000
00030000
00000020
00000000
00003000
00000002
00000030
00002000
00000003
00000200
00003000
00000020
00000000
00000000
00000300
00020000
00000000
00000030
02000000
00000000
00030000
20000000
00000000
,
03200000
00000000
00000000
00000000
00000000
00000000
00000000
00000000
00000000
00000000
00000000
00000000
00000000
00000000
00000000
00000000
00000000
00000000
30000000
00000000
00000000
00000000
00000000
00000000
00310000
00000000
00000000
00000000
00000100
00000000
00000000
00000000
00000001
00000000
00000000
00000000
00000010
00000000
00000000
00000000
00001000
00000000
00000000
00000000
00010000
00000000
00000000
00000000
00200000
00000000
00000000
00000000
00000000
00000000
00000000
00000000
00000000
00000000
00000000
00000000
00000000
00000000
00000000
00000000
00000000
00000000
20000000
00000000
00000000
00000000
00000000
00000000
00000000
00000000
00000000
00000000
00000000
00000000
00300000
00000000
00000000
00000000
00000000
00000000
02000000
00000000
00000000
00000000
00000000
00000000
30000000
00000000
00000000
00000000
00000000
00000000
00020000
00000000
00000000
00000000
00000000
00000000
00000000
00000000
00000000
00000000
00000000
00000000
00000000
00000000
00000000
00000000
00000000
00000000
03000000
00000000
00000000
00000000
00000000
00000000
00000020
00000000
00000000
00000000
00000000
00000000
00000000
00000000
00000000
00000000
00000000
00000000
00000000
00000000
00000000
00000000
00000000
00000000
00030000
00000000
00000000
00000000
00000000
00000000
00000002
00000000
00000000
00000000
00000000
00000000
00000000
00000000
00000000
00000000
00000000
00000000
00000000
00000000
00000000
00000000
00000000
00000000
00000000
00000000
00000000
00000000
00000000
00000000
00000000
00000000
00000000
00000000
00000000
00000000
00000000
00000000
00000000
00000000
00000000
00000000
00000000
00000000
00000000
00000000
00000000
00000000
00000030
00000000
00000000
00000000
00000000
00000000
,
00000203
00000000
00020000
00000300
20000000
00030000
02000000
30000000
00002000
00000000
03000000
00000020
00000000
00003000
00000200
00000030
,
00000002
00000300
00000200
00000003
00000020
00000000
00000000
00000300
00020000
00000000
00000030
02000000
00000000
00030000
00200000
03000000
,
20000000
00000000
00000000
00000000
00000000
00000000
00000000
00000000
00000000
00300000
00000000
00000000
31000000
00000000
00001000
00000000
00010000
00000000
00000010
00000000
00000001
00000000
00000100
00000000
00020000
00000000
00000000
00000000
00000000
00000000
00000000
00000000
00000000
20000000
00000000
00000000
00000000
00000000
00000000
00030000
00000000
00000000
02000000
00000000
00000000
30000000
00000000
00000000
,
00002000
00000000
00000000
03000000
00000020
00000000
00000000
00003000
00000002
00000000
00000030
00000200
00000000
00000003
00002000
00000300
,
00023000
00001000
02030000
00100000
23000000
01000000
30200000
00001000
,
00320000
00001000
00000010
00032000
00000100
00000001
00003200
00010000
,
00000320
00000100
00002030
00010000
00003002
00000100
00000010
00000100
,
00000023
00000001
00001000
00000230
00010000
00001000
00020300
00000100
,
00032000
00000000
00000000
00010000
00000000
00000000
01000000
00000000
00000000
00010000
00000000
00000000
00103000
00000000
01000000
00000000
00001000
00000000
00010000
00000000
00000100
00000000
00000001
00000000
,
00000020
00001000
00000100
00002030
00010000
00100000
00023000
10000000
,
02030000
00010000
00100000
00010000
03200000
01000000
00010000
01000000
,
00320000
00001000
00000100
00001000
00030100
00000001
00000100
00001000
,
00010000
00000000
00001000
00100000
00000000
00010000
10000000
00000000
01000000
00000000
00100000
01000000
00000000
00001000
00010000
00000000
,
00000010
00000000
00010000
00001000
00000000
00000100
00000000
00000001
00001000
00000000
00000100
00000010
00000000
00000001
00000000
00000100
,
00000010
00000000
00000100
00000000
00001000
00000000
00010000
00000000
00000000
00000000
00000000
00000000
00001000
00000000
00000000
00000000
00000000
00000000
00100000
00000000
00000000
00001000
00000000
00000000
00010000
00000000
00000000
00000000
00000000
00000000
01000000
00000000
00000000
10000000
00000000
00000000
00000000
00000000
00000000
00010000
00000000
00000000
00100000
00000000
00000000
00000000
00000000
00000000
,
01000000
00000000
00000000
00000000
00000000
00000000
00010000
00000000
00000000
00001000
00000000
00000000
00000000
00000000
00000000
00010000
00000000
00000000
00000000
00000000
00000000
00000010
00000000
00000000
00001000
00000000
00000100
00000000
00000001
00000000
00000100
00000000
00000000
00000000
00000000
00000000
00001000
00000000
00000000
00000000
00000000
00000000
00000010
00000000
00000000
00000000
00000000
00000000
,
00001000
00000000
00000000
00000000
00000000
00000000
00000100
00000000
00000000
00010000
00000000
00000000
00000000
00000000
00000000
00001000
00000000
00000000
00100000
00000000
00000000
00000000
00000000
00000000
00001000
00000000
00000000
00000000
00000000
00000000
00010000
00000000
00100000
00000000
00010000
00000000
01000000
00000000
00000000
00000000
00000000
00000000
10000000
00000000
00000000
00000000
00000000
00000000
,
00010000
00000000
00000000
00000000
00000000
00000000
00100000
00000000
00000000
01000000
00000000
00000000
00000000
00000000
00000000
00001000
00000000
00000000
00010000
00000000
00000000
00000000
00000000
00000000
00000010
00000000
00000000
00000000
00000000
00000000
00010000
00000000
00000010
00000000
00000100
00000000
00001000
00000000
00000000
00000000
00000000
00000000
00000100
00000000
00000000
00000000
00000000
00000000
,
00000001
00000000
00001000
00000100
00000000
00000010
00000001
00000000
00000100
00000000
00000010
00010000
00000000
00001000
00000000
00010000
,
00100000
00000000
00000000
00000000
00000000
00000000
00001000
00000000
00000000
00010000
00000000
00000000
00000000
00000000
00000000
01000000
00000000
00000000
10000000
00000000
00000000
00000000
00000000
00000000
00010000
00000000
00000000
00000000
00000000
00000000
00100000
00000000
01000000
00000000
00010000
00000000
00100000
00000000
00000000
00000000
00000000
00000000
00001000
00000000
00000000
00000000
00000000
00000000
,
00000010
00010000
00001000
00010000
00000100
00001000
00000001
00000100
00000010
00000001
00001000
00000010
00000100
00000001
00000010
00000100
,
00000010
00001000
00000001
00001000
00000100
00001000
00000010
00010000
00001000
00010000
00001000
00100000
00001000
00010000
01000000
10000000
,
01000000
00010000
10000000
00100000
01000000
00100000
00001000
00010000
00001000
00010000
00000010
00010000
00001000
00010000
00000100
00001000
,
00000001
00000010
00000100
00000010
00000001
00000100
00000010
00000100
00000001
00000010
00000100
00001000
00000010
00000100
00000010
00001000
,
00000010
00010000
00000010
00010000
00001000
00010000
00001000
00100000
00001000
00010000
00001000
00010000
00000010
00010000
00001000
00010000
,
00001000
00100000
00001000
00010000
01000000
00010000
00001000
00010000
00000100
00010000
00001000
00010000
01000000
00010000
00001000
00100000
,
01000000
00100000
00010000
10000000
01000000
00100000
00010000
00100000
01000000
00100000
00001000
00010000
00000010
00010000
00001000
00010000
,
00000010
00000100
00000001
00001000
00000100
00000010
00000001
00000100
00000010
00001000
00000001
00000100
00000010
00001000
00000001
00000100
,
00010000
00000000
00000000
00000000
;

//---------------dance-double - ----------------
#NOTES:
     dance-double:
     :
     Medium:
     5:
     0.322,0.419,0.056,0.318,0.040:
00000000
00000000
00000000
00000000
,
00000000
00000000
00000000
00000000
,
00000000
00000000
00000000
00000000
,
00000000
00000000
00000000
00000000
,
00000000
00000000
00000000
00000000
,
00000000
00000000
00000000
00000000
,
00000000
00000000
00000000
00000000
,
00000000
00000000
00000000
00000000
,
01000000
11000000
00100000
00001000
,
00010000
01000000
00010000
00001000
,
00000100
00000011
00000100
00000001
,
00000100
00001000
00010000
00000010
,
00010000
00001000
00100000
00000000
01000000
00000000
00100000
00000000
,
10000000
01000000
00100000
00000000
00001000
00000000
00010000
00000000
,
00000100
00000000
00000010
00000001
00000100
00000000
00001000
00000000
,
00010000
00000000
01000000
10000000
00100000
00000000
00010000
00000000
,
00002000
00010000
00003010
00000100
,
00000020
00010000
00000230
00000302
,
00000023
00001000
00010030
00000100
,
00002000
00010000
00103000
02000000
,
23000000
00100000
30010000
01000000
,
00020000
00001000
02030000
03200000
,
00302000
00010000
00003020
00002030
,
00003002
00000000
00000000
00000200
00000003
00000300
00002000
00000000
,
00023000
00100000
10030000
01000000
,
00002000
00010000
00003200
00000320
,
00002030
00000001
00003100
00001000
,
00020000
00100000
10030000
02000000
,
03020000
00001000
00030100
00000010
,
00000002
00000100
00000023
00002030
,
00023000
00100000
20030000
32000000
,
03020000
00000000
00000000
00002000
00030000
00003000
00000200
00000000
,
00000301
00000000
00000000
00000000
00000100
00000000
00000000
00000000
00001000
00000000
00000000
00010000
00000000
00000000
00000000
00000000
00100000
00000000
00000000
00000000
01000000
00000000
00000000
00000000
10000000
00000000
00000000
01000000
00000000
00000000
00000000
00000000
,
00010000
00000000
00000000
00000000
00002000
00000000
00000000
00000000
00003000
00000000
00000000
00000010
00000000
00000000
00000001
00000000
00000100
00000000
00000000
00000000
00010000
00000000
00000000
00000000
00001000
00000000
00000000
00000000
00000000
00000000
00000000
00000000
,
00100000
00000000
00010000
00000000
10000000
00000000
01000000
00000000
00001000
00000000
00000000
00010000
00000000
00000000
00000100
00000000
,
00000010
00000000
00000001
00000000
00000010
00000000
00000000
00000000
00010000
00000000
00000000
00001000
00000000
00000000
00100000
00000000
,
02000000
00000000
00000000
00000000
13000000
01000000
00010000
01000000
10000000
00000000
00000000
00100000
00000000
00000000
00010000
00000000
,
00001000
00000000
00000000
00000000
00000010
00000000
00000000
00000000
00000001
00000000
00000000
00001000
00000000
00000000
00000100
00000000
,
00000010
00000011
00000001
00000100
,
00001000
00000000
00000000
00010000
00000000
00000000
01000000
00000000
,
00100000
10100000
10000000
00000000
,
01000000
00000000
00000000
00010000
00000000
00000000
00001000
00000000
,
00000020
00000000
00000000
00000000
00000001
00000001
00000001
00000001
,
00000031
00000000
00000000
00000100
00000000
00000000
00001000
00000000
,
00020000
00000000
00230000
00000000
,
20300000
00000000
00000000
00000000
00000000
31000000
00010000
00001000
,
00000010
00000001
00000100
00001000
,
00010000
00001000
00100000
01000000
,
10000000
00010000
01000000
00100000
,
00001000
00010000
00000010
00010010
,
00000100
00000000
00000010
00000000
00000001
00000100
00001000
00000000
,
00010000
00000000
01000000
00000000
10000000
01000000
00010000
00000000
,
00001000
00000000
00000100
00000000
00000001
00000000
00000010
00000100
,
00010000
00000000
00001000
00000000
00100000
00001000
00010000
00000000
,
01000000
11000000
00010000
01000000
,
00100000
00000000
00001000
00000000
00010000
00000010
00000100
00000000
,
00001000
00000001
00000100
00010010
,
00001000
00000000
00100000
00000000
00001000
00000000
00010000
01000000
,
10000000
01000000
00100000
01000000
,
10000000
00100000
00010000
01000000
,
00001000
00010000
00000100
00000010
,
00000001
00001000
00000010
00000100
,
00010000
00000000
00000000
00000000
;

//---------------dance-double - ----------------
#NOTES:
     dance-double:
     :
     Easy:
     3:
     0.203,0.370,0.048,0.246,0.000:
00000000
00000000
00000000
00000000
,
00000000
00000000
00000000
00000000
,
00000000
00000000
00000000
00000000
,
00000000
00000000
00000000
00000000
,
00000000
00000000
00000000
00000000
,
00000000
00000000
00000000
00000000
,
00000000
00000000
00000000
00000000
,
00000000
00000000
00000000
00000000
,
10000000
00000000
01000000
00000000
,
00100000
00000000
01000000
00010000
,
00001000
00000000
00000100
00000000
,
00000010
00000000
00000100
00000001
,
00000010
00000000
00010000
00000000
,
00010010
00000000
00010000
00000000
,
00001000
00000000
01000000
00000000
,
01001000
00000000
01000000
00000000
,
00200000
00300000
00000000
00000000
,
20000000
30000000
01000000
00010000
,
00002000
00003000
00000000
00000000
,
00000200
00000300
00000000
00000010
,
00000002
00000003
00000000
00000000
,
00000200
00000300
00001000
00010000
,
00200000
00300000
10000000
01000000
,
00002000
00000000
00003000
00020000
00000000
00030000
00000100
00000000
,
00000020
00000030
00000000
00000000
,
00000002
00000003
00000100
00001000
,
00020000
00030000
00000000
00000000
,
00200000
00300000
00000000
10000000
,
02000000
03000000
00000000
00000000
,
00002000
00003000
00010000
00000100
,
00000020
00000030
00000001
00000100
,
00002000
00000000
00003000
00010000
00000000
00000000
01000000
00000000
,
00200000
20300000
30020000
02030000
,
03002000
00000000
00003020
00000032
,
00000203
00000000
00020300
00000000
,
00032000
00000000
00203000
00000000
,
20300000
00000000
00000000
00000000
,
32000000
00000000
03002000
00000000
,
00013000
00000100
00000010
00000000
,
00000001
00000100
00000010
00000000
,
00001000
00100000
01000000
00000000
,
00010000
10000000
00000000
01000000
,
00100000
00000000
00001000
00000100
,
00000010
00000000
00010000
00000100
,
00000001
00000000
00000010
00000000
,
00010000
00000000
00000000
01000000
,
10000000
11000000
10000000
00000000
,
01000000
00000000
00010000
00001000
,
00000100
00000000
00000010
00000110
,
00000010
00000000
00000001
00001000
,
00000100
00000000
00000010
00000000
,
00011000
00000000
00100000
01000000
,
10000000
00000000
00100000
00000000
,
00001000
00000000
01001000
00000000
,
00010000
00000100
00000010
00000001
,
00000010
00000100
00010000
00000100
,
00001000
01000000
00100000
10000000
,
00100000
01000000
00001000
01000000
,
00010000
00000100
00000010
00000001
,
00000010
00000100
00000010
00000001
,
00000001
00000100
00000010
00010000
,
00000010
00001000
00000100
00010000
,
01000000
00000000
00000000
00000000
;

//---------------dance-single - ----------------
#NOTES:
     dance-single:
     :
     Beginner:
     1:
     0.090,0.123,0.000,0.000,0.000:
0000
0000
0000
0000
,
0000
0000
0000
0000
,
0000
0000
0000
0000
,
0000
0000
0000
0000
,
0000
0000
0000
0000
,
0000
0000
0000
0000
,
0000
0000
0000
0000
,
0000
0000
0000
0000
,
0010
0000
0000
0000
,
0000
0000
0000
0000
,
0001
0000
0000
0000
,
0000
0000
0000
0000
,
1000
0000
0000
0000
,
0001
0000
0000
0000
,
1000
0000
0000
0000
,
0010
0000
0000
0000
,
0010
0000
0000
0000
,
1000
0000
0000
0100
,
0100
0000
0000
0000
,
0001
0000
0000
0010
,
0010
0000
0000
0000
,
0001
0000
0000
1000
,
1000
0000
0000
0100
,
0100
0000
0000
0000
,
0010
0000
0000
0000
,
0001
0000
0000
1000
,
1000
0000
0000
0000
,
0001
0000
0000
0100
,
0100
0000
0000
0000
,
0010
0000
0000
0100
,
0100
0000
0000
1000
,
1000
0000
0000
0000
,
0001
0000
1000
0000
,
0100
0000
0010
0000
,
0010
0000
0000
0000
,
0001
0000
1000
0000
,
0100
0000
0000
0000
,
0010
0000
0000
0000
,
1000
0000
0000
0000
,
0100
0000
0000
0000
,
0001
0000
0000
0000
,
0010
0000
0010
0000
,
0100
0000
0000
0000
,
0100
0000
0000
0000
,
0001
0000
0000
0000
,
1000
0000
0000
0000
,
0010
0000
0000
0000
,
0100
0000
0001
0000
,
1000
0000
0000
0000
,
0100
0000
0000
1000
,
1000
0000
0000
0000
,
0001
0000
0010
0010
,
0010
0000
0100
0100
,
0100
0000
0000
0000
,
0001
0000
1000
0000
,
0001
0000
1000
0000
,
0100
0000
0010
0000
,
0100
0000
0010
0000
,
1000
0000
0001
0000
,
0010
0000
0100
0000
,
1000
0000
0001
0000
,
0100
0000
0010
0000
,
0100
0000
0000
0000
;
