#TITLE:LOVEā˜†BEAM;
#SUBTITLE:(orange summer mix);
#ARTIST:honey princess;
#TITLETRANSLIT:;
#SUBTITLETRANSLIT:;
#ARTISTTRANSLIT:;
#CREDIT:;
#BANNER:LOVE STAR BEAM (orange summer mix).png;
#BACKGROUND:LOVE STAR BEAM (orange summer mix)-bg.png;
#LYRICSPATH:;
#CDTITLE:cdtitle.png;
#MUSIC:LOVE STAR BEAM (orange summer mix).mp3;
#OFFSET:-1.230;
#SAMPLESTART:71.440;
#SAMPLELENGTH:11.980;
#SELECTABLE:YES;
#BPMS:0.000=188.000;
#STOPS:;
#BGCHANGES:;

//---------------dance-single - BASIC----------------
#NOTES:
     dance-single:
     BASIC:
     Easy:
     5:
     0.289,0.399,0.025,0.016,0.000:
0000
0000
0000
0000
,
0000
0000
0000
0000
,
0000
0000
0000
0000
,
0000
0000
0000
0000
,
1000
0010
0100
0001
,
0100
0100
0010
0010
,
1000
0100
0010
0001
,
1000
0000
0001
0000
,
1000
0010
0100
0100
,
0001
0010
0010
0100
,
1000
0100
0010
0000
,
0100
0010
1000
0000
,
1000
0100
1000
0010
,
0100
0001
0100
1000
,
0100
0001
0010
0001
,
0010
0000
0100
0000
,
0100
0010
0010
0001
,
0010
1000
0010
0100
,
0001
0100
1000
0000
,
0001
0100
0010
0000
,
0100
0000
0010
0000
,
0000
0000
0100
0000
,
0001
0000
1000
0000
,
0000
0000
0010
0000
,
1000
0000
0001
0000
,
0000
0100
0010
0100
,
0001
0000
1000
0000
,
0000
0100
1000
0100
,
0001
0000
0010
0000
,
1000
0000
0001
0000
,
1000
1001
0001
1001
,
0000
0100
0000
0100
0000
0010
0000
0010
,
0100
0000
0001
0000
,
0000
0100
0001
0010
,
0100
0000
1000
0000
,
0000
0100
1000
0100
,
0001
0000
0010
0000
,
0000
0100
0001
0100
,
1000
0000
0100
0000
,
0001
0000
0010
0000
,
1000
0000
1000
0000
,
1000
1000
0100
0010
,
0001
0000
0001
0000
,
0001
0100
0100
0010
,
1000
0000
1000
0000
,
0001
0100
0100
0100
,
0010
0000
0010
0000
,
0100
0100
0001
0001
,
1000
0000
0000
0000
,
0001
0000
0000
0000
,
1000
0000
0000
0000
,
0001
0000
0000
0000
,
0200
0000
0000
0000
,
0000
0000
0000
0000
,
0320
0000
0000
0000
,
0000
0000
0000
0000
,
1030
1000
0100
0100
,
1000
0001
1000
0001
,
0001
0001
0100
0100
,
0001
0100
0010
0100
,
0001
0001
1000
1000
,
0001
1000
0001
1000
,
1000
1000
0100
0100
,
1000
0100
0010
0100
,
1000
0000
0000
0001
,
0000
0000
0000
1000
,
0000
0000
0000
0000
0000
0000
0000
0001
,
0000
0010
0000
0100
0000
1000
0000
0001
,
1000
0000
0000
0000
0000
0000
0000
0100
,
0000
0000
0000
0000
,
0001
0010
0000
0010
0000
0010
0000
0100
,
0000
0100
0000
0100
1000
0000
0000
0000
,
0001
0010
0100
1000
,
0100
0100
0010
0010
,
0001
0100
0010
1000
,
0001
0000
1000
0000
,
0001
0010
0100
0100
,
1000
0010
0010
0100
,
0001
0100
0010
0000
,
0100
0010
0001
0000
,
0001
0100
0001
0010
,
0100
1000
0100
0001
,
0100
1000
0010
1000
,
0010
0000
0100
0000
,
0100
0010
0010
1000
,
0010
0001
0010
0100
,
1000
0100
0001
0000
,
1000
0100
0010
0100
,
0000
1001
0000
0000
;

//---------------dance-single - TRICK----------------
#NOTES:
     dance-single:
     TRICK:
     Medium:
     8:
     0.461,0.544,0.189,0.008,0.000:
0000
0000
0000
0000
,
0000
0000
0000
0000
,
0000
0000
0000
0000
,
0000
0000
0000
0000
,
1000
1000
0100
0100
0000
0010
0000
0001
,
0100
0001
0100
0000
0010
0000
0010
0000
,
1000
0100
1000
0010
0000
0100
0000
0001
,
0000
0000
1000
0001
1000
0000
1000
0000
,
1000
1000
0001
0001
0000
0010
0000
0010
,
0100
1000
0100
0000
0010
0000
0010
0000
,
0001
0010
0100
1000
,
0001
1000
0001
1000
0001
0000
1001
0000
,
0001
0001
0100
0100
0000
0010
0000
1000
,
0100
1000
0100
0000
0010
0000
0010
0000
,
0001
0100
0001
0010
0000
0100
0000
1000
,
0000
0000
0001
1000
0001
0000
0001
0000
,
0001
0001
1000
1000
0000
0010
0000
0010
,
0100
0001
0100
0000
0010
0000
0010
0000
,
1000
0010
0100
0001
,
1000
0001
1000
0001
1000
0000
1001
0000
,
0100
0000
0000
0100
0100
0000
0000
0010
,
0000
0010
0000
0100
0100
0000
0000
0000
,
1000
0000
0000
0000
0001
0000
0000
0010
,
0000
0010
0000
0100
0100
0000
0000
0000
,
1000
0100
0001
0100
,
1000
0100
0010
0100
,
0001
0100
1000
0010
,
0100
0100
1000
0100
,
0001
0010
0001
0010
,
0100
1000
0001
1000
,
0001
0011
1000
1100
,
0000
0100
0000
0100
0000
0010
0000
0010
,
0100
1000
0100
0010
,
0100
1000
0001
0100
,
0010
1000
0100
0010
,
0100
1000
0001
0010
,
0100
1000
0001
0100
,
1000
0100
0001
0010
,
0100
0010
0001
0010
,
0100
1000
0100
0001
,
0100
1000
0010
0100
,
0001
0010
0100
1000
,
0100
0100
0001
0010
,
0001
0100
0100
0010
,
1000
0100
1000
0010
,
0001
0010
0100
0100
,
0010
1000
0010
0100
,
0001
0100
0001
0001
,
1000
0000
0100
0000
,
0001
0000
0010
0000
,
1000
0000
0000
0000
,
0001
0000
0000
0000
,
0100
0100
0100
0100
,
1000
1000
1000
1000
,
0010
0010
0010
0010
,
0010
0000
0100
0001
0000
0010
0000
0000
,
0001
0000
1000
0000
0100
0100
0100
0100
,
0000
0100
1000
0000
0001
0000
1001
0000
,
0001
0100
0001
0100
0000
0100
0010
0100
,
0000
0001
0000
0100
0000
1010
0000
0001
,
0000
0100
0001
0100
1000
0000
1000
0010
,
0000
0001
1000
0000
1100
0000
1001
0000
,
1000
0100
1000
0000
0100
0010
0100
1000
,
0000
0110
0000
0011
0000
0110
0000
1001
,
0000
0000
0000
0000
0000
0000
0001
1000
,
0000
0000
0000
0000
0000
0000
1000
0001
,
0000
0000
0000
0000
0000
0000
0010
0001
,
0000
0010
0000
0100
0000
1000
0000
0001
,
1000
0000
0000
0000
0000
1000
0100
0001
,
0000
0000
0000
0000
0000
1000
0100
0100
,
0001
0010
0000
0010
0000
0010
0000
0200
,
0000
0000
0300
0100
,
0001
1000
0100
0010
0000
0010
0000
0001
,
0100
0010
0100
0000
0001
0000
1000
0000
,
1000
0100
1000
0010
0000
0110
0000
1001
,
0000
0000
0010
0100
1000
0100
0010
0000
,
0010
0100
0001
0010
0000
0011
0000
0010
,
0100
1000
0100
0000
0010
0001
0010
0000
,
0001
0010
0100
1000
,
0001
1000
0001
1000
0001
0000
1001
0000
,
0001
0100
0010
1000
0000
1010
0000
1000
,
0100
0001
0100
0000
1000
0000
0100
0000
,
0010
0001
1000
0010
0000
0100
0000
1010
,
0000
0000
0001
1000
0001
0000
0110
0000
,
0001
0001
1000
1000
0000
1010
0000
0010
,
0100
0001
0100
0000
0010
1000
0010
0000
,
1000
0010
0100
0001
,
1000
0100
0001
0010
1000
0000
1001
0000
,
0110
1001
0000
0000
;

//---------------dance-single - HEAVY----------------
#NOTES:
     dance-single:
     HEAVY:
     Hard:
     8:
     0.564,0.616,0.255,0.074,0.041:
0000
0000
0000
0000
,
0000
0000
0000
0000
,
0000
0000
0000
0000
,
0000
0000
0000
0000
,
1000
0001
0010
0100
0000
1000
0000
1000
,
0100
0001
0100
0000
0010
1000
0010
0100
,
1000
0001
1000
0100
0000
1100
0000
0011
,
0000
0000
0010
0001
1000
0100
1000
0000
,
0001
0010
0100
1000
0000
0010
0000
0010
,
0001
0100
0010
1000
0100
0010
0100
0010
,
0001
0000
0000
0010
0000
0000
0100
0000
1000
0000
0001
0000
0000
0000
0000
0000
,
1000
0000
0000
0010
0000
0000
0100
0000
0001
0000
0000
0000
1001
0000
0000
0000
,
0001
0010
0100
1000
0000
0001
0000
0001
,
0010
0001
0100
0010
0100
0100
0001
0001
,
0010
0100
1000
0001
0000
0100
0000
1001
,
0000
0000
0001
1000
0001
0001
0100
0000
,
0001
0001
1000
1000
0000
0010
0000
0010
,
0100
0001
0100
0010
1000
0010
1000
0100
,
0010
0000
0000
0001
0000
0000
0010
0000
0100
0000
1000
0000
0000
0000
0000
0000
,
1000
0000
0000
0010
0000
0000
0100
0000
0001
0000
0000
0000
1001
0000
0000
0000
,
0100
0000
0000
0001
0010
0000
0000
1001
,
0000
1001
0000
0100
1000
0000
0000
0000
,
1000
0000
0000
0010
0001
0000
0000
0110
,
0000
0110
0000
0100
1000
0000
0000
0000
,
1000
0000
0000
0100
0001
0000
0100
0000
,
1000
0000
0100
0010
0100
0001
0100
0000
,
1000
0000
0000
0010
0100
0000
0001
0000
,
1000
0010
0100
0100
,
0001
0000
0000
0100
1000
0000
0100
0000
,
0001
1000
1000
1000
,
0011
1001
1010
1001
,
0000
1000
0000
1000
0000
0001
0000
0001
,
0100
0010
0100
0001
0010
0100
0010
0001
,
0100
0010
1000
0100
0001
0100
1000
0010
,
0100
0010
1000
0001
0100
0010
0100
0001
,
1000
0100
1000
0010
0100
0001
0010
0001
,
0100
0010
1000
0010
0100
0001
1000
0010
,
0100
0001
0010
0100
1000
0100
0010
0001
,
0100
1000
0100
0001
0100
0010
1000
0100
,
1000
0001
1000
0100
1000
0010
0100
0000
,
0001
0000
0000
0010
0010
0000
0000
0100
,
0000
0100
0000
1000
1000
0000
0000
0001
,
0001
0000
0000
1000
1000
0000
0000
0100
,
0000
0000
1000
0000
0000
0000
1000
0000
0100
0000
0000
0010
0000
0000
0000
0000
,
1001
0000
0000
0100
0100
0000
0000
0010
,
0000
0100
0000
0001
0001
0000
0000
0100
,
0100
0000
0000
0010
0010
0000
0000
1000
,
1000
0100
0000
0010
0001
0000
0001
0000
,
2000
0000
3200
0000
,
0302
0000
0023
0000
,
2030
0000
0000
0000
0000
0000
0000
0000
0000
0010
0000
0000
0000
0000
0000
0000
0000
0100
0000
0000
0000
0000
0000
0000
,
3002
0000
0000
0010
0000
0000
0100
0000
,
0103
0100
0001
0001
,
1000
1000
0010
0010
,
0100
0100
0001
0001
,
1000
0000
0010
0100
0000
0001
0000
0000
,
1001
0000
1100
0000
1000
0100
1000
0100
,
0000
0100
1000
0100
0001
0100
1000
0000
,
0001
0100
0001
0100
0010
1000
0010
0100
,
0000
0101
0000
0100
0000
1010
0000
0001
,
0000
0100
0001
0100
1000
0100
1000
0100
,
0000
0001
0100
0010
0100
0010
1000
0000
,
1000
0100
1000
0100
0010
0001
0100
1000
,
0000
1100
0000
0101
0000
0011
0000
1002
,
0000
0000
0000
0000
0000
0003
0001
0200
,
0000
0000
0000
0000
0000
0300
0100
2000
,
0000
0000
0000
0000
0000
3000
1000
0010
,
0000
0100
0000
0100
0000
0001
0000
0010
,
1001
0000
0000
0000
0000
0010
0010
0010
,
0000
0000
0000
0000
0000
1000
0100
0001
,
0010
0100
0000
0010
0000
0010
0000
0100
,
0000
0100
0000
0100
0100
0000
1001
0000
,
0001
1000
0010
0100
0000
0001
0000
0001
,
0100
1000
0100
0000
0010
0001
0010
0100
,
0001
1000
0001
0100
0000
0101
0000
1010
,
0000
0000
0010
1000
0001
0100
0001
0000
,
1000
0010
0100
0001
0000
0010
0000
0010
,
1000
0100
0010
0001
0100
0010
0100
0010
,
1000
0000
0000
0010
0000
0000
0100
0000
0001
0000
1000
0000
0000
0000
0000
0000
,
0001
0000
0000
0010
0000
0000
0100
0000
1000
0000
0000
0000
1001
0000
0000
0000
,
1000
0010
0100
0001
0000
1000
0000
1000
,
0010
1000
0100
0010
0100
0100
1000
1000
,
0010
0100
0001
1000
0000
0100
0000
1001
,
0000
0000
1000
0001
1000
1000
0100
0000
,
1000
1000
0001
0001
0000
0010
0000
0010
,
0100
1000
0100
0010
0001
0010
0001
0100
,
0010
0000
0000
1000
0000
0000
0010
0000
0100
0000
0001
0000
0000
0000
0000
0000
,
0001
0000
0000
0010
0000
0000
0100
0000
1000
0000
0000
0000
1001
0000
0000
0000
,
0110
1001
0000
0000
;

//---------------dance-single - ONI----------------
#NOTES:
     dance-single:
     ONI:
     Challenge:
     9:
     0.730,0.725,0.821,0.057,0.107:
0000
0000
0000
0000
,
0000
0000
0000
0000
,
0000
0000
0000
0000
,
0000
0000
0000
0000
,
0001
0010
0100
1000
0000
1100
0000
1000
,
0100
0001
0100
1000
0010
1000
0010
0100
,
1000
0001
1000
0100
0000
1001
0000
0110
,
0000
0000
0010
0001
1000
0100
1000
0000
,
0001
0010
0100
1000
0000
1001
0000
0010
,
0001
0000
0100
0000
0010
0000
1000
0000
0100
0010
0100
0010
0100
1000
0010
0100
,
0001
0000
0000
0010
0000
0000
0100
0000
1000
0000
1001
0000
0000
0000
0000
0000
,
1000
0000
0000
0010
0000
0000
0100
0000
1001
0000
0000
0000
1001
0000
0000
0000
,
0001
0010
0100
1000
0000
1001
0000
0001
,
0010
0001
0100
0010
0100
0100
0001
0001
,
0010
0100
1000
0001
0000
0110
0000
1001
,
0000
0000
0001
1000
0001
0001
0100
0000
,
0001
0001
1000
1000
0000
1001
0000
0010
,
0100
0000
0001
0000
0100
0000
0010
0000
1000
0010
1000
0010
1000
0100
0010
0001
,
1000
0000
0000
0001
0000
0000
0010
0000
0100
0000
1001
0000
0000
0000
0000
0000
,
1000
0000
0000
0010
0000
0000
0100
0000
1001
0000
0000
0000
1001
0000
0000
0000
,
0110
0000
0000
0001
0010
0000
0100
1001
,
0000
1001
0010
0100
1000
0000
1001
0000
,
1000
0000
0100
0010
0001
0000
1000
0110
,
0000
0110
1000
0100
0001
0000
1001
0000
,
1000
0010
0100
0001
0100
0010
1000
0100
,
0001
0100
0010
0100
0001
0100
1000
0010
,
1000
0100
0010
0001
0010
0100
1000
0100
,
0010
0100
1000
0100
0010
0001
0100
1000
,
0100
0001
0010
0100
1000
0010
0001
0010
,
1000
0100
0010
0100
1000
0001
0100
0010
,
1010
0000
0001
0010
1000
0000
1001
0000
,
1000
0100
0000
0110
0000
1001
0000
0101
,
0100
0010
0100
0001
0010
0100
0010
0001
,
0100
0010
1000
0100
0001
0100
1000
0010
,
0100
0010
1000
0001
0100
0010
0100
0001
,
1000
0100
1000
0010
0100
0001
0010
0001
,
0100
0010
1000
0010
0100
0001
1000
0010
,
0100
0001
0010
0100
1000
0100
0010
0001
,
0100
1000
0100
0001
0100
0010
1000
0100
,
1000
0001
1000
0100
1000
0010
0100
0000
,
0101
0000
0000
0010
0010
0000
0010
0100
,
0000
1100
0000
1000
1000
0000
0100
0001
,
0001
0000
0010
1000
1000
0000
0010
0100
,
0000
0000
1001
0000
0000
0000
1000
0000
0100
0000
0000
0010
0000
0000
0000
0000
,
1001
0000
0000
0100
0100
0000
0100
0010
,
0000
0101
0000
0001
0001
0000
0010
0100
,
0100
0000
0100
0010
0010
0000
0000
1000
,
1000
0100
0000
0010
1000
0000
1001
0000
,
2000
0001
3200
0010
,
0302
1000
0023
0100
,
1030
0000
0000
0000
0000
0000
0000
0000
0000
0000
0000
0000
1010
0000
0000
0000
0000
0000
0000
0000
0000
0000
0000
0101
0000
0000
0000
0000
0000
0000
0000
0000
,
0011
0000
0000
0110
0000
0000
1001
0000
,
1100
1100
0011
0011
,
1010
1010
0101
0101
,
0110
1010
0101
0011
,
1001
0000
0010
0100
0000
1001
0000
0000
,
1001
0000
1100
0000
1000
0100
1000
0110
,
0000
0100
1000
0100
0001
0100
1001
0000
,
0001
0100
0001
0100
1010
1000
0010
0100
,
0000
0101
0000
1001
0000
1010
0000
1001
,
0000
0100
0001
0100
1000
0100
1000
0011
,
0000
0001
0100
0010
0100
0010
1010
0000
,
1000
0100
1000
0100
0010
0001
0100
1001
,
0000
1100
0000
0101
0000
0011
0000
1002
,
1000
0000
0100
0000
0100
0003
0001
0200
,
0010
0000
0010
0000
0010
0300
0100
2000
,
0010
0000
0010
0000
0010
3000
0100
1000
,
0000
1100
0000
0011
0000
1001
0000
0010
,
1001
0000
0100
0000
0001
1010
0010
0101
,
0100
0000
1000
0000
0001
1000
0100
0001
,
1001
0110
0000
0110
0000
1001
0000
1010
,
0000
0101
0000
0110
1001
0000
1001
0000
,
0001
1000
0010
0100
0000
1001
0000
0001
,
0100
1000
0100
0001
0010
0001
0010
0100
,
0001
1000
0001
0100
0000
0101
0000
1010
,
0000
0000
0010
1000
0001
0100
1001
0000
,
1000
0010
0100
0001
0000
1001
0000
0010
,
1000
0000
0100
0000
0010
0000
0001
0000
0100
0010
0100
0010
0100
0001
0010
0100
,
1000
0000
0000
0010
0000
0000
0100
0000
0001
0000
1001
0000
0000
0000
0000
0000
,
0001
0000
0000
0010
0000
0000
0100
0000
1001
0000
0000
0000
1001
0000
0000
0000
,
1000
0010
0100
0001
0000
1001
0000
1000
,
0010
1000
0100
0010
0100
0100
1000
1000
,
0010
0100
0001
1000
0000
0110
0000
1001
,
0000
0000
1000
0001
1000
1000
0110
0000
,
1000
1000
0001
0001
0000
1001
0000
0010
,
0100
0000
1000
0000
0100
0000
0010
0000
0001
0010
0001
0010
0001
1000
0010
0100
,
0001
0000
0000
1000
0000
0000
0010
0000
0100
0000
1001
0000
0000
0000
0000
0000
,
0001
0000
0000
0010
0000
0000
0100
0000
1001
0000
0000
0000
1001
0000
0000
0000
,
0110
1001
0000
0000
;

//---------------dance-double - ----------------
#NOTES:
     dance-double:
     :
     Hard:
     8:
     0.560,0.550,0.090,0.238,0.037:
00000000
00000000
00000000
00000000
,
00000000
00000000
00000000
00000000
,
00000000
00000000
00000000
00000000
,
00000000
00000000
00000000
00000000
,
00000100
00000001
00000100
00000010
00000000
00001000
00010000
00000100
,
00000000
00000100
00010000
00001000
00010000
00001000
00100000
00010000
,
01000000
00000000
10000000
02000000
00000000
00100000
00000000
03001000
,
00000000
00010000
00000010
00010000
00001000
00010000
01000000
00000000
,
01000000
10000000
01000000
00200000
00000000
00001000
00000000
00310000
,
00000000
00001000
00010000
00000100
00001000
00000010
00001000
00000100
,
00000010
00000000
00000000
00000001
00000000
00000000
00000100
00000000
00000010
00000000
00002000
00000000
00000000
00000000
00013000
00000000
,
00001000
00000000
00000000
01000000
00000000
00000000
00100000
00000000
10000000
00000000
01000000
00000000
00100000
00000000
00000000
00000000
,
00010000
00001000
00010000
02000000
00000000
00100000
00000000
03001000
,
00000000
00010000
00000100
00010000
00001000
00000100
00000010
00000001
,
00001000
00000100
00000010
00000002
00000000
00000100
00000000
00000013
,
00000000
00010000
00001000
00100000
00010000
10000000
01000000
00000000
,
00100000
00010000
01000000
00002000
00000000
00010000
00000000
00003100
,
00000000
00010000
00000100
00001000
00000001
00001000
00000100
00001000
,
00000010
00000000
00000000
00000100
00000000
00000000
00000001
00000000
00000010
00000000
00000200
00000000
00000000
00000000
00001300
00000000
,
00000100
00000000
00000000
00010000
00000000
00000000
00001000
00000000
00100000
00000000
01000000
00000000
10000000
00000000
00000000
00000000
,
10010000
00000000
00000000
00010000
00001000
00000000
00000000
00000110
,
00000000
00000110
00000000
00001000
00000002
00000000
00000103
00000000
,
00000110
00000000
00000000
00010000
00001000
00000000
00000000
00101000
,
00000000
00101000
00000000
00010000
01000000
00000000
00000000
00000000
,
01000000
10000000
00000000
00010000
00100000
00000000
00001000
00010000
,
00000000
00000010
00000000
00010000
00001000
00000000
00000010
00000100
,
00001000
00000000
00000001
00000100
00000010
00000000
00001000
00000100
,
00000000
00010000
00000000
00001000
00000000
00100000
00010000
10000000
,
01000000
00000000
00100000
01000000
00010000
00000000
00001000
00000000
,
00010000
00000010
00010000
00000000
00001000
00000100
00000001
00000000
,
00000010
00000000
00000100
00001000
00000001
00000000
00000100
00000010
,
00000000
00010000
00000000
00010000
00000000
10000000
00000000
10000000
,
00010000
00000000
00100000
01000000
00010000
00000000
00001000
00000100
,
00000010
00000000
00001000
00000100
00000001
00000000
00000100
00001000
,
00000010
00000000
00000001
00000100
00001000
00000000
00010000
00001000
,
00100000
00000000
01000000
00100000
00010000
00000000
10000000
01000000
,
00010000
00001000
00010000
00000000
01000000
00100000
00001000
00000000
,
00100000
00010000
00001000
00000000
00000010
00001000
00000001
00000000
,
00000100
00000010
00000100
00000001
00000010
00000100
00001000
00000000
,
00010000
00001000
00100000
00010000
10000000
01000000
00100000
00000000
,
00010000
00000000
00000000
00001000
00001000
00000000
00000000
00010000
,
00000000
00010000
00000000
00000010
00000010
00000000
00000100
00000000
,
00000001
00000000
00001000
00001000
00000000
00000100
00000010
00000000
,
00000000
00001000
00000000
00001000
00010000
00000000
01000000
00000000
,
10100000
00000000
00000000
01000000
01000000
00000000
00000000
10000000
,
00000000
00100000
00000000
00001000
00001000
00000000
00000000
00000010
,
00000010
00000000
00000000
00000100
00000100
00000000
00000000
00000001
,
00002000
00000100
00003020
00010000
,
00002030
00000000
00000000
00000000
,
02003000
00000000
00000000
00000000
,
23000000
00000000
00000000
00000000
00000000
00000000
00000000
00000000
00000000
00100000
00000000
00000000
00000000
00000000
00000000
00000000
00000000
01000000
00000000
00000000
00000000
00000000
00000000
00000000
,
30020000
00000000
00000000
00001000
00000000
00000000
00000100
00000000
,
00030100
00000100
00010000
00010000
,
00000010
00000010
00001000
00001000
,
00100000
00100000
00010000
00010000
,
10000000
00000000
01000000
00010000
00000000
00001000
00000000
00000000
,
00001002
00000000
00000103
00000000
00000100
00001000
00000100
00001000
,
00000000
00001000
00010000
00001000
00000100
00001000
00010000
00000000
,
00010000
01000000
00010000
01000000
00100000
10000000
00100000
02000000
,
00000000
03010000
00000000
00002000
00000000
00003010
00000000
00000001
,
00000000
00000010
00000001
00000010
00001000
00000010
00001000
00000010
,
00000000
00001000
00010000
01000000
00010000
01000000
10000000
00000000
,
10000000
01000000
10000000
01000000
00100000
00010000
00001000
00000200
,
00000000
00000001
00000000
00000010
00000000
00001300
00000000
00021000
,
00000000
00000000
00000000
00000000
00000000
00030000
00010000
02000000
,
00000000
00000000
00000000
00000000
00000000
03000000
01000000
20000000
,
00000000
00000000
00000000
00000000
00000000
30000000
10000000
00200000
,
00000000
00010000
00000000
00010000
00000000
00301000
00000000
00000100
,
00002010
00000000
00000000
00000000
00000000
00000100
00000100
00003200
,
00000000
00000000
00000000
00000000
00000300
00000001
00000100
00001000
,
00000010
00000002
00000000
00000100
00000000
00000100
00000000
00000010
,
00000000
00000010
00000000
00000010
00000013
00000000
00001010
00000000
,
01000000
00001000
01000000
00100000
00000000
10000000
00010000
01000000
,
00000000
00010000
00001000
00010000
00000010
00001000
00000100
00000000
,
00000010
00000000
00000001
00000200
00000000
00001000
00000000
00010300
,
00000000
01000000
00100000
01000000
10000000
01000000
00010000
00000000
,
00001000
00010000
00001000
00000010
00000000
00000001
00001000
00000100
,
00000000
00000010
00010000
00001000
00010000
00000100
00010000
00000000
,
00001000
00000000
00000000
00100000
00000000
00000000
00010000
00000000
10000000
00000000
01000000
00000000
00000000
00000000
00000000
00000000
,
00100000
00000000
00000000
00001000
00000000
00000000
00010000
00000000
00000010
00000000
00010000
00000000
00000100
00000000
00000000
00000000
,
00001000
00000010
00001000
00010000
00000000
00100000
00010000
01000000
,
00000000
10000000
01000000
00100000
00001000
00010000
00000100
00000000
,
00000010
00000000
00000001
00000200
00000000
00001000
00000000
00010300
,
00000000
00001000
00000010
00000001
00000010
00001000
00010000
00000000
,
01000000
00100000
01000000
00010000
00000000
01000000
00100000
10000000
,
00000000
01000000
00100000
00001000
00010000
00000010
00001000
00000000
,
00000100
00000000
00000000
00000010
00000000
00000000
00000001
00000000
00000100
00000000
00001000
00000000
00000000
00000000
00000000
00000000
,
00010000
00000000
00000000
00001000
00000000
00000000
00100000
00000000
01000000
00000000
10000000
00000000
00020000
00000000
00000000
00000000
,
00000000
00002000
00000000
00000000
,
00000000
00033000
00000000
00000000
;

//---------------dance-double - ----------------
#NOTES:
     dance-double:
     :
     Challenge:
     9:
     0.766,0.770,0.435,0.148,0.099: // measure 1
00000000
00000000
00000000
00000000
,  // measure 2
00000000
00000000
00000000
00000000
,  // measure 3
00000000
00000000
00000000
00000000
,  // measure 4
00000000
00000000
00000000
00000000
,  // measure 5
00010000
00000010
00010000
00001000
00100000
00010000
00001000
01000000
,  // measure 6
10000000
01000000
00100000
00001000
00100000
01000000
00010000
00001000
,  // measure 7
00000010
00000100
00001000
00000001
00000100
00000010
00002000
00000001
,  // measure 8
00000000
00003100
00000010
00001000
00010000
00001000
00100000
00000000
,  // measure 9
01000000
10000000
01000000
00001000
01000000
00100000
00001000
00010000
,  // measure 10
00000010
00000000
00010000
00000000
00001000
00000000
00000100
00000000
00000001
00000010
00000001
00000010
00000100
00001000
00000100
00001000
,  // measure 11
00010000
00000000
00000000
01010000
00000000
00000000
11000000
00000000
01000000
00000000
00100000
00000000
00000000
00000000
00010000
00000000
,  // measure 12
00001000
00000000
00000000
00001100
00000000
00000000
00000101
00000000
00000100
00000000
00000001
00000000
00000010
00000000
00000000
00000000
,  // measure 13
00001000
00010000
00001000
00000100
00001000
00010000
00000010
00010000
,  // measure 14
00001000
00100000
00001000
00010000
01000000
10000000
01000000
00010000
,  // measure 15
00001000
00100000
01000000
00100000
00001000
00010000
00000020
00000100
,  // measure 16
00000000
00001030
00000001
00000010
00000100
00010000
00001000
00000000
,  // measure 17
01000000
00001000
01000000
00010000
10000000
01000000
00010000
01000000
,  // measure 18
00100000
00000000
00001000
00000000
00010000
00000000
00000010
00000000
00010000
00000100
00010000
00000100
00000010
00000001
00000010
00000001
,  // measure 19
00001000
00000000
00000000
00001010
00000000
00000000
00000011
00000000
00000010
00000000
00000001
00000000
00000000
00000000
00001000
00000000
,  // measure 20
00010000
00000000
00000000
00110000
00000000
00000000
10100000
00000000
10000000
00000000
00100000
00000000
00010000
00000000
00000000
00000000
,  // measure 21
00011000
00000000
00001000
00000100
00000101
00000000
00000001
00000011
,  // measure 22
00000000
00000110
00000000
00001000
00010100
00001000
00010000
00000000
,  // measure 23
00101000
00000000
00100000
00010000
11000000
00000000
10000000
11000000
,  // measure 24
00000000
01100000
00000000
00010000
00010010
00000010
00000100
00000000
,  // measure 25
00001001
00000000
00000100
00000010
00010000
00001000
00100000
00001000
,  // measure 26
00010000
01000000
10000000
00100000
00010000
00001000
00000010
00010000
,  // measure 27
00001000
00000100
00000001
00000010
00000100
00010000
00001000
00000100
,  // measure 28
00000010
00000100
00001000
00010000
00001000
00100000
01000000
00000000
,  // measure 29
00100000
10000000
01000000
00010000
00001000
00010000
00000100
00010000
,  // measure 30
00000010
00001000
00000010
00010000
00001000
00010000
00000100
00001000
,  // measure 31
00000001
00000100
00001010
00000000
00001000
00000100
00000011
00000000
,  // measure 32
00000100
00001010
00000000
00011000
00000000
01000000
00010000
00000000
,  // measure 33
10000000
01000000
00100000
00001000
00010000
00000010
00010000
00001000
,  // measure 34
00000100
00000001
00000010
00000100
00001000
00000001
00000100
00000010
,  // measure 35
00010000
00001000
00100000
01000000
10000000
00010000
00100000
01000000
,  // measure 36
00001000
00010000
00000100
00000010
00000001
00000100
00000010
00010000
,  // measure 37
00001000
00000100
00000010
00000100
00000001
00000010
00000100
00010000
,  // measure 38
00001000
00100000
00001000
00010000
01000000
10000000
00010000
00100000
,  // measure 39
01000000
00001000
00010000
00000010
00010000
00001000
00000100
00000001
,  // measure 40
00000010
00001100
00000000
00001010
00000000
00010000
00001000
00100000
,  // measure 41
10010000
00000000
01000000
00000000
00100000
00001000
00010000
00000000
,  // measure 42
00000010
00000000
00001100
00000000
00000001
00000100
00000010
00000000
,  // measure 43
00011000
00000000
00101000
00000000
00100000
00010000
10000000
00000000
,  // measure 44
01000000
00100000
00001000
00000000
00010000
00000010
00000100
00000001
,  // measure 45
00001001
00000000
00000010
00000000
00000001
00000100
00000010
00000000
,  // measure 46
00010000
00000000
00101000
00000000
10000000
01000000
00100000
00000000
,  // measure 47
00010000
00000000
00101000
00000000
00010000
00000100
00001000
00000000
,  // measure 48
00000001
00000100
00000000
00000010
00000000
00010000
00001000
00100000
,  // measure 49
00002000
01000000
00023000
00100000
,  // measure 50
20030000
01000000
30020000
00001000
,  // measure 51
00030200
00000000
00000010
00000002
00000300
00000000
00001000
00000000
,  // measure 52
00000023
00000000
00000100
00002000
00000030
00000000
00013000
00000000
,  // measure 53
02001000
00100000
00100000
00100000
,  // measure 54
23000000
01000000
01000000
01000000
,  // measure 55
30020000
00100000
00032000
00013000
,  // measure 56
00001010
00000000
00001010
00000101
00000000
00000101
00001000
00000000
,  // measure 57
00000110
00000001
00000100
00001000
00010000
01000000
10000000
01000000
,  // measure 58
00010000
01000000
00100000
00010000
00100000
01000000
00100000
00010000
,  // measure 59
00001000
00010000
00001000
00000010
00000001
00000010
00001000
00000010
,  // measure 60
00000001
00000100
00000010
00000100
00000001
00000010
00000100
00001000
,  // measure 61
00000010
00000001
00000010
00001000
00010000
00001000
00010000
00001000
,  // measure 62
00100000
00010000
00100000
01000000
10000000
01000000
00010000
01000000
,  // measure 63
10000000
00100000
00010000
00100000
00001000
00010000
00001000
00010000
,  // measure 64
00000010
00010000
00001000
00000001
00000010
00000100
00001000
00000000
,  // measure 65
00000010
00000100
00000001
00000100
00000000
00000010
00001000
00000100
,  // measure 66
00010000
00001000
00100000
00001000
00010000
01000000
10000000
00000000
,  // measure 67
00010000
01000000
00100000
00010000
10000000
01000000
00010000
00001000
,  // measure 68
00000010
00000001
00000000
00000100
00000010
00000001
00000100
00000000
,  // measure 69
00000010
00010000
00001000
00100000
00001000
00010000
01000000
00100000
,  // measure 70
10000000
00010000
00100000
01000000
00100000
00001000
00010000
00000010
,  // measure 71
00011000
00010000
00000000
00010010
00000000
00000101
00000000
00001100
,  // measure 72
00000000
00000011
00000000
00010000
00010100
00000000
00000011
00000000
,  // measure 73
00000100
00010000
00000100
00000010
00000100
00001000
00000001
00000100
,  // measure 74
00000010
00010000
00001000
00010000
00001000
00100000
00001000
00010000
,  // measure 75
01000000
10000000
01000000
00010000
00001000
01000000
00020000
00100000
,  // measure 76
00000000
00031000
00000010
00010000
00001000
00000100
00000001
00000000
,  // measure 77
00000100
00010000
00001000
00000100
00001000
00010000
01000000
10000000
,  // measure 78
01000000
00000000
00100000
00000000
00001000
00000000
00010000
00000000
00100000
00010000
00100000
00010000
00001000
00000100
00001000
00000100
,  // measure 79
00000001
00000000
00000000
00000101
00000000
00000000
00001100
00000000
00001000
00000000
00100000
00000000
00000000
00000000
01000000
00000000
,  // measure 80
10000000
00000000
00000000
11000000
00000000
00000000
01010000
00000000
00010000
00000000
00001000
00000000
00000010
00000000
00000000
00000000
,  // measure 81
00001000
00010000
01000000
00100000
00001000
00010000
00001000
00100000
,  // measure 82
01000000
10000000
01000000
00010000
00001000
00000100
00000010
00010000
,  // measure 83
00001000
00000010
00000100
00000010
00000001
00001000
00000020
00000100
,  // measure 84
00000000
00010030
00001000
00100000
00001000
00010000
01000000
00000000
,  // measure 85
10000000
01000000
00100000
01000000
00010000
00001000
00010000
00000010
,  // measure 86
00010000
00000000
00001000
00000000
00000100
00000000
00000001
00000000
00001000
00000100
00001000
00000100
00000010
00000001
00000010
00000001
,  // measure 87
00000100
00000000
00000000
00010100
00000000
00000000
01010000
00000000
01000000
00000000
00100000
00000000
00000000
00000000
10000000
00000000
,  // measure 88
01000000
00000000
00000000
01010000
00000000
00000000
00010100
00000000
00010000
00000000
00000100
00000000
00000020
00000000
00000000
00000000
,  // measure 89
00000000
00020000
00000000
00000000
,  // measure 90
00000000
00030030
00000000
00000000
;

//---------------dance-double - ----------------
#NOTES:
     dance-double:
     :
     Medium:
     6:
     0.422,0.440,0.066,0.074,0.033:
00000000
00000000
00000000
00000000
,
00000000
00000000
00000000
00000000
,
00000000
00000000
00000000
00000000
,
00000000
00000000
00000000
00000000
,
00010000
00000000
01000000
00100000
00000000
10000000
00000000
01000000
,
00000000
00001000
00010000
00000000
00000010
00000100
00000001
00000000
,
00001000
00000000
00000100
00000001
00000000
00000010
00000000
00010000
,
00000000
00000000
00001000
00000000
00100000
00010000
10000000
00000000
,
01000000
00000000
00010000
00001000
00000000
00010000
00000000
00000100
,
00000000
00000010
00000000
00000001
00001000
00000000
00000010
00000000
,
00000100
00000000
00000000
00001000
00000000
00000000
00020000
00000000
00000000
00000000
00130000
00000000
00000000
00000000
00000000
00000000
,
01000000
00000000
00000000
10000000
00000000
00000000
00020000
00000000
00000000
00000000
00031000
00000000
00000010
00000000
00000000
00000000
,
00000100
00000000
00000001
00001000
00000000
00000100
00000000
00000010
,
00000000
00000001
00000000
00000100
00000010
00000000
00010000
00000000
,
00001000
00000000
00100000
00010000
00000000
10000000
00000000
01000000
,
00000000
00000000
00010000
00000000
00001000
00000100
00000001
00000000
,
00001000
00000000
00000100
00000010
00000000
00000001
00000000
00000100
,
00000000
00000010
00000000
00010000
00001000
00000000
00100000
00000000
,
00010000
00000000
00000000
10000000
00000000
00000000
02000000
00000000
00000000
00000000
03010000
00000000
00000000
00000000
00000000
00000000
,
00001000
00000000
00000000
00000100
00000000
00000000
00000002
00000000
00000000
00000000
00001003
00000000
00001000
00000000
00000000
00000000
,
00000010
00000000
00000000
00000100
00001000
00000000
00000000
00010000
,
00000000
00010000
00000000
01000000
10000000
00000000
00000000
00000000
,
00100000
00000000
00000000
01000000
00010000
00000000
00000000
00001000
,
00000000
00001000
00000000
00000100
00000001
00000000
00000000
00000000
,
00000010
00000100
00001000
00010000
,
00001000
00000000
00000100
00000000
00001000
00010000
01000000
00000000
,
00100000
01000000
10000000
01000000
,
00010000
00000000
00001000
00000000
00010000
01000000
00010000
00000000
,
00001000
00000100
00000010
00001000
,
00000001
00000010
00000100
00000001
,
00000010
00010010
00001000
00101000
,
00010000
01000000
00000000
10000000
00000000
01000000
00000000
00010000
,
00001000
00000100
00000010
00000100
,
00000001
00000000
00000100
00000100
00001000
00000000
00000110
00000000
,
00000100
00000001
00000100
00001000
,
00010000
00000000
00001000
00000000
00010000
00000000
00100000
00010000
,
00100000
10000000
01000000
00010000
,
00001000
00000000
00010000
00000000
00100000
00000000
00001000
00100000
,
00001000
00010000
00000010
00010000
,
00001000
00000100
00000000
00000001
00000000
00000100
00000000
00001000
,
00010000
00000000
00000000
01000000
01000000
00000000
00000000
00000000
,
10000000
00000000
00000000
01000000
01000000
00000000
00000000
00000000
,
00010000
00000000
00001000
00000000
,
00000100
00000000
00000010
00000000
,
00000001
00000000
00000000
00001000
00001000
00000000
00000000
00000000
,
00000100
00000000
00000000
00010000
00010000
00000000
00000000
00000000
,
00001000
00000000
00100000
00000000
,
10000000
00000000
01000000
00000000
,
00010000
00000000
00000000
00000000
,
00000100
00000000
00000000
00000000
,
00000010
00000000
00000000
00000000
,
00000001
00000000
00000000
00000000
,
00001000
00001000
00010000
00010000
,
00100000
00100000
01000000
01000000
,
10000000
01000000
00010000
00001000
,
00010000
00000000
00001000
00000010
00000000
00000010
00000000
00000010
,
00000001
00000100
00001000
00010000
,
00001000
00010000
01000000
10000000
,
00010000
10000000
01000000
00010000
,
00001000
00010000
00000100
00000001
,
00001000
00000000
00000010
00000000
00000100
00000001
00000010
00000000
,
00000001
00000000
00000010
00000000
00000100
00001000
00000010
00000000
,
00010000
00000000
00001000
00000000
00100000
00010000
01000000
00000000
,
00100000
00000000
01000000
00000000
00100000
10000000
01000000
00000000
,
00100000
11000000
00100000
01000000
,
00010000
00001000
01000000
00100000
,
00010000
00001100
00010000
00001000
,
00000010
00000001
00000100
00001000
,
00000010
00000101
00001000
00000010
,
00000100
00010000
00001000
00000100
,
00010000
00010000
00000000
00001000
00000000
00100000
00000000
01000000
,
00000000
10000000
00000000
00010000
01000000
00000000
01010000
00000000
,
10000000
00000000
01000000
00010000
00000000
00001000
00000000
00000100
,
00000000
00000001
00000000
00001000
00000100
00000000
00000010
00000000
,
00000001
00000000
00000100
00000010
00000000
00010000
00000000
00001000
,
00000000
00100000
00010000
00000000
10000000
01000000
00010000
00000000
,
00001000
00000000
00010000
00001000
00000000
00000100
00000000
00000001
,
00000000
00001000
00000100
00000000
00010000
00001000
00000100
00000000
,
00000010
00000000
00000000
00010000
00000000
00000000
00002000
00000000
00000000
00000000
01003000
00000000
00000000
00000000
00000000
00000000
,
10000000
00000000
00000000
01000000
00000000
00000000
00200000
00000000
00000000
00000000
00310000
00000000
00001000
00000000
00000000
00000000
,
00000010
00000000
00000100
00000001
00000000
00001000
00000000
00000100
,
00000000
00000001
00000000
00000010
00010000
00000000
00001000
00000000
,
00100000
00000000
00001000
00010000
00000000
01000000
00000000
10000000
,
00000000
00000000
01000000
00000000
00010000
00001000
00000100
00000000
,
00000001
00000000
00001000
00000100
00000000
00000010
00000000
00000001
,
00000000
00000100
00000000
00001000
00010000
00000000
00001000
00000000
,
00100000
00000000
00000000
00010000
00000000
00000000
20000000
00000000
00000000
00000000
31000000
00000000
00000000
00000000
00000000
00000000
,
00010000
00000000
00000000
00001000
00000000
00000000
00000100
00000000
00000010
00000000
00000000
00000000
00002010
00000000
00000000
00000000
,
00000000
00020000
00000000
00000000
,
00000000
00033000
00000000
00000000
;

//---------------dance-double - ----------------
#NOTES:
     dance-double:
     :
     Easy:
     5:
     0.382,0.403,0.123,0.057,0.000:
00000000
00000000
00000000
00000000
,
00000000
00000000
00000000
00000000
,
00000000
00000000
00000000
00000000
,
00000000
00000000
00000000
00000000
,
00100000
10000000
01000000
00010000
,
00001000
00010000
01000000
00010000
,
00001000
00000100
00000010
00001000
,
00000001
00000010
00000100
00010000
,
00001000
00100000
01000000
10000000
,
00010000
00100000
01000000
00100000
,
00001000
00001000
00010000
00011000
,
00000100
00000100
00000010
00000110
,
00000001
00000100
00000010
00010000
,
00000010
00000001
00000010
00000100
,
00010000
00001000
00100000
01000000
,
10000000
10000000
00100000
01000000
,
00001000
00010000
01000000
10000000
,
01000000
00010000
00001000
00000100
,
00000010
00000010
00001000
00000101
,
00000001
00000001
00000010
00001100
,
00010000
00000000
00001000
00000000
,
00100000
01000000
00100000
00000000
,
10000000
00000000
00010000
00000000
,
01000000
00001000
01000000
00000000
,
10000000
01000000
00010000
00000000
,
01000000
00100000
10000000
00000000
,
00100000
00001000
00010000
00000000
,
00000010
00010000
00000100
00000000
,
00000010
00000001
00000100
00000000
,
00000010
00000100
00001000
00000000
,
00010000
00011000
00000000
00110000
,
00000000
01000000
01000000
01000000
,
10000000
01000000
00100000
00001000
,
00010000
00000010
00010000
00001000
,
00000100
00000001
00000010
00000100
,
00000001
00000010
00010000
00001000
,
00010000
00001000
01000000
00001000
,
00100000
00001000
00010000
00000100
,
00010000
00000010
00010000
00001000
,
00100000
00100000
01000000
01000000
,
11000000
00000000
00010000
01000000
,
00001000
00100000
01000000
00010000
,
00001000
01000000
00100000
00010000
,
00001000
00000100
00000010
00010000
,
00000100
00010000
00000010
00000100
,
00001000
00010000
00000100
00000010
,
00001000
00000010
00000001
00000010
,
00001000
00000100
00000001
00000100
,
00000020
00000000
00000000
00000000
,
00020030
00000000
00000000
00000000
,
00032000
00000000
00000000
00000000
,
02003000
00000000
00000000
00000000
,
03100000
00100000
00100000
00100000
,
10000000
10000000
10000000
10000000
,
00010000
00010000
00010000
00010000
,
01000000
00001000
00000000
00010000
,
00000010
00000110
00000001
00000010
,
00000100
00000010
00000100
00000010
,
00001000
00010000
00001000
00011000
,
00010000
00001000
01000000
00001000
,
00010000
01000000
10000000
11000000
,
00010000
01000000
10000000
01000000
,
00100000
00001000
00100000
00001000
,
00010000
00000100
00000010
00000110
,
00000001
00000100
00000010
00010000
,
00001000
00000100
00000010
00010000
,
00001000
00100000
00001000
00010000
,
00001000
00100000
01000000
10000000
,
00100000
00010000
00100000
10000000
,
00100000
00010000
00001000
01000000
,
00002000
00000000
00010000
00010000
,
00013000
00000000
00000010
00000110
,
00010000
00001000
00010000
01000000
,
00100000
01000000
10000000
01000000
,
00010000
00001000
00000100
00000010
,
00001000
00000010
00000001
00000100
,
00000010
00000100
00010000
00001000
,
00010000
00001000
00100000
01000000
,
10000000
10000000
00100000
00100000
,
00001000
00001000
00010000
00010000
,
01010000
00100000
01000000
10000000
,
01000000
00010000
00001000
00000010
,
00010000
00000100
00000010
00000001
,
00001001
00000000
00000100
00010000
,
00101000
00100000
00001000
00100000
,
01000000
00100000
01000000
10000000
,
00100000
00001000
00001000
00000000
,
00010000
00000100
00000200
00000000
,
00000000
00000020
00000000
00000000
,
00000000
00000330
00000000
00000000
;

//---------------dance-single - ----------------
#NOTES:
     dance-single:
     :
     Beginner:
     2:
     0.148,0.217,0.008,0.000,0.000:
0000
0000
0000
0000
,
0000
0000
0000
0000
,
0000
0000
0000
0000
,
0000
0000
0000
0000
,
0010
0000
0000
0000
,
0010
0000
0001
0000
,
1000
0000
0000
0000
,
1000
0000
0000
0100
,
0100
0000
0000
0010
,
0000
0000
0001
0000
,
1000
0000
0000
0000
,
0001
0000
0000
0000
,
0010
0000
0000
0000
,
0100
0000
0100
0000
,
1000
0000
0001
0000
,
0000
0000
0010
0000
,
0100
0000
0000
0000
,
0001
0000
0000
1000
,
1000
0000
0100
0000
,
0010
0000
0001
0000
,
0100
0000
0010
0000
,
1000
0000
1000
0000
,
0100
0000
0010
0000
,
0001
0000
0001
0000
,
1000
0000
0000
0000
,
0100
0000
0000
0000
,
0001
0000
0000
0000
,
0100
0000
0000
0000
,
1000
0000
0000
0000
,
0001
0000
0000
0000
,
0000
0100
0000
0100
,
0000
0010
0010
0010
,
0000
0100
0000
0000
,
0000
0010
0000
0000
,
0000
0100
0000
0000
,
0000
0010
0000
0000
,
0000
0001
0000
0000
,
0000
1000
0000
0000
,
0000
0001
0000
0001
,
0000
1000
1000
1000
,
0000
0100
0000
0100
,
0000
0010
0000
0010
,
0000
0100
0000
0010
,
0000
0001
0000
1000
,
0000
0010
0000
0100
,
0000
0010
0000
0010
,
0000
0100
0000
0010
,
0000
0001
0000
1000
,
1000
0000
0000
0000
,
0000
0000
0000
0000
,
0001
0000
0000
0000
,
0000
0000
0000
0000
,
0010
0000
0000
0000
,
0000
0000
0000
0000
,
0100
0000
0100
0000
,
0010
0010
0000
0010
,
0010
0000
0100
0000
,
1000
0000
0100
0000
,
0001
0000
0100
0000
,
0001
0000
0010
0000
,
0100
0000
0010
0000
,
1000
0000
0010
0000
,
0001
0000
0100
0000
,
0010
0000
0100
0000
,
1000
0000
0000
0000
,
0001
0000
0000
0000
,
0100
0000
0000
0000
,
0010
0000
0000
0000
,
0001
0000
0000
0000
,
1000
0000
0000
0000
,
0100
0100
0000
0010
,
0010
0000
0010
0000
,
0001
0000
0000
0000
,
1000
0000
0100
0000
,
0010
0000
0000
0000
,
0001
0000
0000
0000
,
0010
0000
0000
0000
,
0100
0000
1000
0000
,
0001
0000
0000
0000
,
0100
0000
0000
0000
,
1000
0000
0000
0000
,
0100
0000
0010
0000
,
0100
0000
0000
0000
,
0001
0000
0000
0000
,
1000
0000
0000
0000
,
0000
0000
0100
0000
,
0100
0000
0000
0000
,
0010
0000
0000
0000
,
0000
1001
0000
0000
;
