#TITLE:L99;
#SUBTITLE:;
#ARTIST:naotyu-;
#TITLETRANSLIT:;
#SUBTITLETRANSLIT:;
#ARTISTTRANSLIT:;
#CREDIT:;
#BANNER:L99.png;
#BACKGROUND:L99-bg.png;
#LYRICSPATH:;
#CDTITLE:cdtitle.png;
#MUSIC:L99.mp3;
#OFFSET:0.000;
#SAMPLESTART:56.800;
#SAMPLELENGTH:12.000;
#SELECTABLE:YES;
#DISPLAYBPM:240.000;
#BPMS:0.000=240.000,95.000=241.000,127.000=240.000,153.000=241.000,185.000=240.000,291.000=241.000,321.000=240.000,385.000=241.000,393.000=242.000,401.000=243.000,404.000=244.000,407.000=245.000,410.000=244.000,411.000=243.000,412.000=242.000,413.000=241.000,447.500=242.000,498.000=250.000,498.250=255.000,498.500=260.000,498.750=265.000,499.000=270.000,499.250=275.000,499.500=280.001,499.750=285.000,500.000=290.000,500.250=295.001,500.500=300.001,501.000=310.001,501.500=320.001,502.000=330.001,502.500=350.000,503.000=370.000,503.500=390.000,504.000=400.000,504.500=420.000,505.000=440.000,505.500=460.000,506.000=480.000,520.000=440.000,520.500=420.000,521.000=400.000,521.500=370.000,522.000=350.001,522.500=320.001,523.000=280.001,523.500=260.002,524.000=244.002,528.000=240.002,532.000=244.002,536.000=243.002,540.000=242.002;
#STOPS:447.500=0.640
;
#BGCHANGES:0.000=L99.avi=1.000=1=0=1,
586.000=L99-bg.png=1.000=0=0=1,
99999=-nosongbg-=1.000=0=0=0 // don't automatically add -songbackground-
;

//---------------dance-single - BASIC----------------
#NOTES:
     dance-single:
     BASIC:
     Easy:
     3:
     0.257,0.399,0.231,0.041,0.000:
0000
0000
0000
0000
,
0000
0000
0000
0000
,
0000
0000
0000
0000
,
0000
0000
0000
0000
,
0000
0000
0000
0000
,
0000
0000
0000
0000
,
0000
0000
0000
0000
,
0000
0000
0000
1000
,
0000
0010
0000
0100
,
0000
0001
0000
1000
,
0000
0001
0000
0110
,
0000
1001
0000
0001
,
0000
0100
0000
0010
,
0000
1000
0000
0001
,
0000
1000
0000
0110
,
0000
1001
0000
1000
,
0000
0010
0000
0100
,
0000
0001
0000
1000
,
0000
0001
0000
0110
,
0000
1001
0000
0001
,
0000
0100
0000
0010
,
0000
1000
0000
0001
,
0000
1000
0000
0110
,
0000
1001
0000
0100
,
0100
1000
0000
0000
,
0010
0010
0000
0100
,
0100
1000
0000
0000
,
0010
0010
0000
0100
,
0100
0001
0000
0000
,
0010
0010
0000
0100
,
0100
0001
0000
0000
,
0010
0010
0000
1000
,
0000
0000
0000
0000
,
0010
0000
0001
0000
,
0000
0000
0000
0100
,
0000
1000
0000
0000
,
0001
0000
0000
1000
,
0000
0000
0010
0000
,
0000
0100
0100
0001
,
0000
0000
0010
0010
,
0000
0100
0100
0001
,
0000
0000
0010
0010
,
0000
0100
0100
1000
,
0000
0000
0010
0010
,
0000
0100
0100
1000
,
0000
0000
0010
0010
,
0000
1000
0000
0000
,
0000
0010
0001
0100
,
1000
0000
0000
0000
,
0000
0010
0000
0001
0000
0000
0001
0000
,
0000
1000
0000
0100
,
0000
0010
0000
0001
,
0000
1000
0000
0110
,
0000
0110
0000
1001
,
0000
1001
0000
0110
,
0000
0110
0000
1001
,
0000
1001
0000
1000
,
0000
0010
0000
0100
,
0000
0100
0000
0010
,
0000
1000
0000
0100
,
0000
0001
0000
1000
,
0000
0010
0000
0100
,
0000
0100
0000
0010
,
0000
0001
0000
0100
,
0000
1000
0000
0001
,
0000
0010
0000
0100
,
0000
0100
0000
0010
,
0000
0001
0000
0100
,
0000
1000
0000
0001
,
0000
0010
0000
0100
,
0000
0100
0000
0010
,
0000
1000
0000
0100
,
0000
0001
0000
1000
,
0000
0000
0000
0000
,
0000
0000
0000
0001
,
0000
0000
0000
0000
,
0000
1000
0000
0000
,
0000
0000
0000
0000
,
0000
0001
0000
0000
,
0000
0000
0000
1001
,
0000
1000
0000
0010
,
0000
0100
0000
0010
,
0000
0001
0000
0100
,
0000
1000
0000
0001
,
0000
1000
0000
0010
,
0000
0110
0000
0100
,
0000
1000
0000
0001
,
0000
0110
0000
1001
,
0000
0001
0000
0100
,
0000
0010
0000
0010
,
0000
1000
0000
0001
,
0000
0100
0100
0010
,
0000
1000
0000
0000
,
0000
0100
0000
0000
,
0000
0001
0000
0000
,
0000
1000
0000
0000
,
0000
1001
0000
0000
,
0000
0100
0000
0000
,
0000
1001
0000
0000
,
0000
0010
0000
0000
,
0000
1001
0000
0000
,
0100
0000
0000
0010
,
0000
0000
1000
0100
,
0001
1000
0000
0000
,
0001
0000
0000
0100
,
0000
0000
0010
0000
,
0000
1000
0100
1000
,
0100
1000
0010
0100
,
0000
0000
0010
0000
,
0000
0010
0000
0000
,
0010
0000
0000
0010
,
0000
0000
0000
2000
0000
0002
0000
3003
,
0000
0000
0000
0000
,
0000
0000
1001
0000
,
0000
0000
0000
0000
,
0000
0000
0000
0000
,
0000
0010
0000
0000
,
1001
0000
0000
0000
,
0000
0000
0000
0000
,
0000
0010
0000
0000
,
1001
0000
0000
0000
,
0000
0000
1000
0000
,
0000
0001
0000
0000
,
0110
0000
0000
0000
,
0000
0000
2002
0000
,
0000
0000
0000
0000
,
0000
0000
0000
0000
,
0000
0000
0000
0000
,
0000
0000
0000
0000
,
0000
0000
0000
0000
,
0000
0000
0000
0000
,
3003
0000
0001
0000
,
1000
0000
0000
0000
0020
0000
0000
0030
,
0000
0000
0000
0000
,
1001
0000
0000
0000
,
1000
0000
0010
0000
,
0110
0000
0100
0000
,
0001
0000
1001
0000
,
1000
0000
0010
0000
,
0010
0000
0100
0000
,
0110
0000
1000
0000
,
1001
0000
0001
0000
,
1001
0000
1000
0000
,
0020
0000
0000
0000
,
0000
0000
0000
0000
,
0000
0000
0000
0000
,
0000
0000
0030
0000
;

//---------------dance-single - TRICK----------------
#NOTES:
     dance-single:
     TRICK:
     Medium:
     6:
     0.440,0.698,0.320,0.286,0.014:
0000
0000
0000
0000
,
0000
0000
0000
0000
,
0000
0000
0000
0000
,
0000
0000
0000
0000
,
0000
0000
0000
0000
,
0000
0000
0000
0000
,
0000
0000
0000
0000
,
0000
0000
0000
1000
,
0010
0010
0000
0100
,
0100
0001
0000
1000
,
0000
0001
0000
0110
,
0100
1001
0000
0001
,
0100
0100
0000
0010
,
0010
1000
0000
0001
,
0000
1000
0000
0110
,
0100
1001
0000
1000
,
0010
0001
0000
0001
,
0100
1000
0000
1000
,
0000
0001
0000
0110
,
0010
1001
0000
0001
,
0100
1000
0000
1000
,
0010
0001
0000
0001
,
0000
1000
0000
0110
,
0010
1001
0000
0100
,
0100
1000
0100
0100
,
0010
0001
0100
0100
,
1000
0100
0001
0010
,
0010
0001
0100
0010
,
0100
0001
0100
1000
,
0010
0010
0001
0100
,
0100
0001
0100
0100
,
0010
0010
0000
1000
,
0000
0001
0000
0100
,
0010
0001
0001
0100
,
1000
0100
0001
0010
,
0000
0000
1010
0000
0000
0010
0000
0000
,
0101
0000
0000
0001
0000
0000
1010
0000
,
0000
1000
0000
0000
1001
0000
0000
0001
,
0000
0100
0100
0001
,
0100
0100
0010
1000
,
0100
0100
0001
0100
,
1000
0010
0010
1000
,
0100
0010
0100
1000
,
0100
0001
0010
0010
,
1000
0100
0100
1000
,
0100
0100
0010
0010
,
0000
1000
0000
0000
,
0000
0020
1000
0031
,
0010
0000
0000
0000
,
0000
0020
0000
0001
0000
0130
1000
0000
,
0000
0001
0000
0100
,
0000
0010
0000
0001
,
0000
1000
0000
0110
,
1001
0110
0000
1001
,
0110
1001
0000
0110
,
1001
0110
0000
1001
,
0110
1001
0000
1000
,
0010
0200
0010
2000
,
0300
3010
0000
0010
,
0010
1000
0020
0100
,
0030
0001
0000
1000
,
0200
0010
0310
0100
,
1000
0001
0100
0010
,
1000
0100
0001
0100
,
1000
0010
0000
0001
,
0010
0200
0010
0002
,
0300
0013
0000
0010
,
0010
0001
0020
0100
,
0030
1000
0000
0001
,
0200
0010
0310
0100
,
0001
1000
0100
0010
,
0001
0100
1000
0100
,
0001
0010
0000
1000
,
0000
1000
0000
0000
1000
0000
0000
0000
,
0000
1001
0000
0001
,
0020
0100
0000
1030
,
0010
0000
0001
0000
0000
0001
0000
0000
,
0001
0000
0000
1001
,
0000
1000
0020
0100
,
0000
0031
1000
1001
,
0000
2000
0010
0001
,
3010
0200
1000
0010
,
0300
0002
0100
0010
,
0003
0001
1000
0001
,
0000
1000
1000
0010
,
0010
0100
0100
0001
,
0001
0010
0010
0100
,
0100
1000
1000
1001
,
0000
0020
1000
0230
,
0001
0320
0100
2030
,
0001
0020
0000
0030
,
3001
0020
0100
2030
,
0000
3002
0000
0000
,
0000
0203
0000
0000
,
0000
2300
0000
0000
,
0000
3002
0000
0000
,
0003
0000
1001
0000
0000
0100
0000
0000
,
0200
0020
0300
0030
,
0000
0000
1001
0000
0000
0100
0000
0000
,
0200
0020
0300
0030
,
0000
1001
1000
0100
,
1001
0001
0100
0010
,
0020
1000
1030
0100
,
0001
0000
1000
0000
0000
0100
1000
0000
,
0001
0000
0000
0100
0001
0000
0100
0000
,
0010
1000
0000
0000
0100
0000
0010
0001
,
0000
0020
0100
1030
,
0010
0100
0001
0200
,
0000
0000
0310
0000
,
0000
1001
0000
0000
,
1001
0000
0000
1001
,
0000
0000
0000
2000
0000
0002
0000
3003
,
0000
0001
0000
1000
,
0000
0000
1001
0000
,
0000
0000
0000
0000
,
0000
0000
0010
0000
,
0000
0010
0000
0000
,
1001
0000
0000
0000
,
0000
0000
0010
0000
,
0000
0010
0000
0000
,
1001
0000
0000
0000
,
0000
0100
1000
0000
,
0010
0001
0000
0100
,
1001
0000
0000
0000
,
0000
0000
2002
0000
,
0000
0000
0000
0000
,
0000
0000
0000
0000
,
0000
0000
0000
0000
,
0000
0000
0000
0000
,
0000
0000
0000
0000
,
0000
0000
0000
3003
,
1000
0000
0001
0000
,
1000
0000
0010
0000
0100
0000
0001
0000
0010
0000
0200
0000
,
0000
0000
0300
0000
,
1001
0000
0000
0100
0000
0000
0100
0000
,
1000
1000
0001
0100
,
2010
0000
3200
0000
,
0320
0000
0000
0030
,
1001
0000
0010
0000
,
0010
1000
0100
0100
,
0010
0010
0001
1000
,
1001
0000
0110
0000
,
1001
0000
0110
0000
,
0020
0000
0000
0000
,
0000
0000
0000
0000
,
0000
0000
0000
0000
,
0000
0000
0030
0000
;

//---------------dance-single - HEAVY----------------
#NOTES:
     dance-single:
     HEAVY:
     Hard:
     8:
     0.670,0.848,0.490,0.266,0.014:
0000
0000
0000
0000
,
0000
0000
0000
0000
,
0000
0000
0000
0000
,
0000
0000
0000
0000
,
0000
0000
0000
0000
,
0000
0000
0000
0000
,
0000
0000
0000
0000
,
0000
0000
0000
1000
,
0010
0100
0010
0000
1001
0000
0100
0010
,
0100
0000
0001
0000
0000
0100
1000
0000
,
0000
0000
0001
0000
0000
0000
0001
0010
,
1000
1001
0000
0001
,
0100
0010
0100
0000
1001
0000
0010
0100
,
0010
0000
1000
0000
0000
0100
0001
0000
,
0000
0000
1000
0000
0000
0000
1000
0010
,
0001
0000
1001
0000
0000
0000
1000
0100
,
0010
0000
1001
0000
0001
0100
0010
0000
,
1000
0000
0000
0010
0001
0000
1000
0000
,
0000
0000
0001
0000
0000
0000
1000
0010
,
0001
0000
0001
0100
1000
0000
0001
0010
,
0100
0000
1001
0000
1000
0010
0100
0000
,
0001
0000
0000
0010
1000
0000
0001
0000
,
0000
0000
1000
0000
0000
0000
0001
0010
,
1000
0000
1000
0100
0001
0000
0100
0010
,
0100
0010
0001
0010
0100
0010
0100
0010
,
1000
0100
0010
0001
0100
0010
0100
1000
,
0100
0001
0010
0100
1000
0100
0010
0000
,
0010
0001
0000
0001
0000
0000
0010
0100
,
0001
0100
1000
0100
1000
0100
1000
0010
,
0100
0010
0100
0010
1000
0100
0000
0110
,
0000
0000
1001
0000
0000
0110
0000
0000
,
1010
0000
0000
1001
0000
0000
1000
0100
,
1000
0100
1000
0010
0100
0001
0000
0000
,
0001
0100
0001
0100
0001
0010
0100
1000
,
0010
0100
1000
0100
0000
0000
0001
0010
,
0100
0000
1000
0100
0010
0100
0000
0000
,
0001
0010
0100
0010
0000
0000
1000
0010
,
0100
1000
0000
0000
0001
0010
0100
0001
,
0000
0000
0100
0010
0100
0010
1000
0010
,
0100
0010
0100
0010
0001
0100
0010
1000
,
0100
0010
0100
0001
0100
1000
0010
0100
,
0001
0100
0010
0000
0010
1000
0000
1000
,
0000
0000
0010
0100
1000
0100
0001
0100
,
0001
0100
0001
0010
0100
0010
0100
0010
,
0001
0100
0000
0110
0000
0000
1001
0000
,
0000
0110
0000
0000
0011
0000
0000
1001
,
0000
2002
0000
0000
,
3003
1010
1001
0110
,
2002
0000
0000
0000
0000
0000
0000
3003
,
0000
1010
0000
0101
0000
0100
2000
0000
,
0000
3002
0000
0203
,
0000
0320
0000
2030
,
0000
0000
3002
0000
0000
0000
1003
0010
,
0100
0000
1000
0010
0100
0000
1000
0010
,
0100
0000
1000
0010
0100
0000
0001
0010
,
0100
0000
0001
0010
0100
0000
0001
0010
,
0100
0000
0001
0010
0100
0000
0001
0000
,
0100
1010
0010
2000
,
0100
3010
0100
0001
,
0100
0000
1000
0000
0010
1000
0100
0000
,
0001
0002
0000
1003
,
0200
0010
1300
0100
,
0002
0010
0103
0010
,
1000
0001
0100
0100
,
1000
0010
0000
1000
,
0100
0011
0010
0002
,
0100
0013
0100
1000
,
0100
0000
0001
0000
0010
0001
0100
0000
,
1000
2000
0000
3001
,
0200
0010
0301
0100
,
2000
0010
3100
0010
,
0001
1000
0100
0100
,
0001
0010
0000
0110
,
0000
1001
0000
0000
0110
0000
0000
0000
,
1001
0000
1001
0000
0000
0000
0000
0001
,
0010
0001
0100
0010
1000
0010
1000
0100
,
0010
0001
1001
0000
0000
0110
0000
0000
,
1001
0000
1001
1001
,
0000
0000
0000
1000
0010
1000
0100
0010
,
0001
0010
0001
0100
0010
1000
1001
0000
,
0000
0100
0010
1001
,
0020
0000
2000
0030
3001
0000
0010
0000
,
0200
0000
0002
0300
0013
0000
0010
0001
,
0001
0100
1000
0000
1000
0000
0001
0000
,
0000
0000
1000
0010
1000
0010
0100
0010
,
0100
0000
0100
0001
0100
0001
0010
0001
,
0100
1000
0100
0001
0010
0100
1000
0100
,
0001
0000
0100
0000
1000
0001
0000
1001
,
0000
1000
0002
0200
,
0003
0320
2000
0030
,
3100
0002
0000
2000
,
3003
0010
0000
0100
,
0000
2001
0010
3000
,
1000
0100
0001
0100
,
1000
0011
0001
0100
,
1000
0020
0000
0000
,
0030
0000
1001
1000
0100
0001
0100
1000
,
0200
0002
0300
0003
,
0000
0000
1001
0001
0100
1000
0100
0001
,
0200
2000
0300
3000
,
0000
1001
1010
0101
,
1001
0011
1100
0010
,
1000
1010
1001
0110
,
1001
0000
1000
0100
1000
0100
1000
0000
,
0001
0100
0001
0100
0001
0000
0100
0010
,
1000
0100
1000
0010
0100
0001
0010
0100
,
1000
0110
1001
0110
,
1001
0110
1001
0200
,
0000
0000
0310
0000
,
0000
0000
1000
0001
1000
0000
0010
0000
,
0001
1000
0001
0000
0010
0000
1000
0001
,
1000
0000
0010
2000
0000
0002
0000
3003
,
1000
0001
0010
1000
,
0001
0100
1001
0000
,
0000
0000
0000
0000
,
0000
0000
0010
1000
,
0100
0010
0001
0100
,
1001
0000
0000
0000
,
0000
0000
0010
1000
,
0001
1000
0000
0001
,
1001
0000
0000
0000
,
0000
0100
0011
0001
,
0100
1010
0000
0100
,
1001
0000
0000
0000
,
0000
0000
2002
0000
,
0000
0000
0000
0000
,
0000
0000
0000
0000
,
0000
0000
0000
0000
,
0000
0000
0000
0000
,
0000
0000
0000
0000
,
0000
0000
0000
3003
,
1000
0010
0100
0010
1000
0001
0010
0100
,
1000
0000
0010
0000
0100
0000
0001
0000
0010
0000
0100
0000
,
0000
1000
0000
0001
,
1001
0000
0000
0110
0000
0000
1001
0000
,
1000
0000
0001
0000
,
1000
0000
0100
0000
,
0010
0000
0000
0000
0000
0000
1000
0100
,
0001
0010
0100
0000
,
0010
1000
0100
1000
0010
0100
0001
0100
,
1000
0010
1000
0100
0001
0010
1000
0010
,
0001
0100
0001
0010
0100
1000
0001
0100
,
1000
0001
0010
1000
0010
0100
0010
1000
,
0100
0000
0000
0110
0000
0000
1001
0000
,
0000
0000
1001
0000
,
0000
0000
1000
0010
0100
0010
0001
0010
,
0100
1000
0010
0100
1001
0000
0000
0000
;

//---------------dance-single - ONI----------------
#NOTES:
     dance-single:
     ONI:
     Challenge:
     10:
     0.934,0.997,0.667,0.408,0.031: // measure 1
0000
0000
0000
0000
,  // measure 2
0000
0000
0000
0000
,  // measure 3
0000
0000
0000
0000
,  // measure 4
0000
0000
0000
0000
,  // measure 5
0000
0000
0000
0000
,  // measure 6
0000
0000
0000
0000
,  // measure 7
0000
0000
0000
0000
,  // measure 8
0000
0000
0000
0000
0000
0000
1000
0010
,  // measure 9
0000
0010
1000
0000
1001
0000
0100
0001
,  // measure 10
0000
0001
0100
0000
0000
0100
1000
0000
,  // measure 11
0000
1000
0001
0000
0000
0000
0001
0010
,  // measure 12
0001
0100
0010
1000
0100
0010
0001
0010
,  // measure 13
0000
0010
0001
0000
1001
0000
0100
1000
,  // measure 14
0000
1000
0100
0000
0000
0100
0001
0000
,  // measure 15
0000
0001
1000
0000
0000
0000
1000
0010
,  // measure 16
1000
0100
0010
0001
0100
0010
1000
0000
,  // measure 17
0110
0000
1010
0000
1001
0000
0010
1000
,  // measure 18
0000
1000
0000
0010
0001
0010
1000
0000
,  // measure 19
1100
0000
0011
0000
0001
0100
0010
0100
,  // measure 20
0001
0010
0100
0010
0001
0100
0001
0000
,  // measure 21
0110
0000
0011
0000
1001
0000
0010
0001
,  // measure 22
0000
0001
0000
0010
1000
0010
0001
0000
,  // measure 23
0101
0000
1010
0000
1000
0100
0010
0100
,  // measure 24
1000
0010
0100
0010
1000
0100
1000
0010
,  // measure 25
0100
0010
0001
0010
0100
0010
0100
0010
,  // measure 26
1000
0100
0010
0001
0100
0010
0100
1000
,  // measure 27
0100
0001
0010
0100
1000
0100
0110
0000
,  // measure 28
0010
0011
0000
1001
0000
0000
0010
0100
,  // measure 29
0001
0100
1000
0100
1000
0100
1000
0010
,  // measure 30
0100
0010
0100
0010
1000
0100
0000
0220
,  // measure 31
0000
0330
2002
0000
3003
0220
0000
0330
,  // measure 32
2020
0000
3030
2002
0000
3003
1000
0100
,  // measure 33
1000
0100
1000
0010
0200
0002
0000
0003
,  // measure 34
0301
0100
0001
0100
0001
0010
0100
1000
,  // measure 35
0010
0100
2000
0200
0000
3000
0301
0010
,  // measure 36
0100
1000
0010
0100
0010
0100
0001
0100
,  // measure 37
0001
0010
0100
0010
0100
1000
0100
1000
,  // measure 38
0010
0100
0001
1000
0100
0010
0001
0010
,  // measure 39
0001
1000
0001
0010
0100
0010
1000
0010
,  // measure 40
0100
0010
0100
0010
0001
0100
0010
1000
,  // measure 41
0100
0010
0100
0001
0100
1000
0010
0100
,  // measure 42
0001
0100
0110
0000
0010
1010
0000
1001
,  // measure 43
0000
0000
0010
0100
1000
0100
0001
0100
,  // measure 44
0001
0100
0001
0010
0100
0010
0100
0010
,  // measure 45
0001
0100
0000
0220
0000
0330
2002
0000
,  // measure 46
3003
0220
0000
0330
0022
0000
0033
2002
,  // measure 47
0000
3003
1001
0000
1000
0010
0100
0001
,  // measure 48
1000
0001
1001
0000
0110
0000
0110
0000
,  // measure 49
1001
0000
0001
0010
0100
1000
0001
1000
,  // measure 50
0000
1010
0000
0101
0000
0001
0100
0010
,  // measure 51
1000
0010
1000
0100
1000
0100
0010
0001
,  // measure 52
0010
0100
1000
0010
0100
0010
1000
0100
,  // measure 53
0010
0001
0010
0001
0010
0100
1000
0010
,  // measure 54
0100
0010
1000
0010
0100
0010
1000
0010
,  // measure 55
0100
0010
1000
0010
0100
0010
0001
0010
,  // measure 56
0100
0010
0001
0010
0100
0010
0001
0010
,  // measure 57
0100
0010
0001
0010
1000
0001
1000
0000
,  // measure 58
0100
0000
1000
0100
0010
0100
1000
0000
,  // measure 59
0100
0000
0010
0000
0001
0001
0100
0010
,  // measure 60
0100
0000
1000
0000
0010
1000
0100
0000
,  // measure 61
0011
0000
0101
0001
1000
0100
1000
0010
,  // measure 62
0100
0001
0010
0100
1000
0100
0010
0001
,  // measure 63
0100
0010
0100
0001
0010
0100
1000
0010
,  // measure 64
0100
0010
1000
0100
0010
0001
0100
0010
,  // measure 65
1000
0001
1000
0100
1000
0001
1000
0000
,  // measure 66
0100
0000
1000
0010
0100
0010
1000
0000
,  // measure 67
0010
0000
0100
0000
0001
0001
0100
0010
,  // measure 68
0100
0000
0001
0000
0010
0001
0100
0000
,  // measure 69
1000
0000
1010
1000
0001
0100
0001
0010
,  // measure 70
0100
1000
0100
0010
0001
0100
0010
0100
,  // measure 71
0001
0010
0100
1000
0010
0100
0010
1000
,  // measure 72
0100
0010
0100
1000
0001
0010
0100
0010
,  // measure 73
0001
0010
0100
0010
0100
0010
0220
0000
,  // measure 74
0330
2002
0000
3003
0220
0000
0330
0000
,  // measure 75
1001
0000
2002
0000
0000
3003
0000
0001
,  // measure 76
0010
0001
0100
0010
1000
0010
1000
0100
,  // measure 77
0010
0001
2002
0000
3003
0220
0000
0330
,  // measure 78
2002
3003
1001
2002
,  // measure 79
0000
3003
0001
1000
0010
1000
0100
0010
,  // measure 80
0001
0010
0001
0100
0010
1000
0001
0100
,  // measure 81
0010
1000
0100
0000
0010
0000
1000
0000
,  // measure 82
0010
0100
1000
0100
0001
0000
0100
0000
,  // measure 83
0010
0000
0001
0000
1000
0000
0010
0001
,  // measure 84
0001
0100
1000
0000
1002
0000
1003
0001
,  // measure 85
0010
0100
1000
0010
1000
0010
0100
0010
,  // measure 86
0100
0000
0100
0001
0100
0001
0010
0001
,  // measure 87
0100
1000
0100
0001
0010
0100
1000
0100
,  // measure 88
0002
0000
0203
0000
2300
0001
3000
2002
,  // measure 89
0000
3000
1003
0010
0100
0010
1000
0100
,  // measure 90
0010
0000
0000
0000
0101
0000
0000
0000
0000
0000
0110
0000
0000
0000
0000
1010
,  // measure 91
0000
2002
3000
1003
,  // measure 92
0100
0010
0100
1002
,  // measure 93
1003
0001
2000
0000
3000
1000
0100
0010
,  // measure 94
0100
1000
0001
0000
0001
0010
0100
0010
,  // measure 95
0001
0010
0100
1000
0010
0100
0010
1000
,  // measure 96
0100
0010
0001
0010
0100
1000
0010
0100
,  // measure 97
0001
0000
1001
1000
0100
0001
0100
1000
,  // measure 98
0100
0010
0100
1000
0100
1000
0100
0010
,  // measure 99
0001
1000
1001
0001
0100
1000
0100
0001
,  // measure 100
0100
0010
0100
0001
0100
0001
0100
0010
,  // measure 101
1000
0001
1001
0000
1010
0000
0101
0000
,  // measure 102
1001
0011
1100
0110
,  // measure 103
1001
1010
1001
0110
,  // measure 104
1001
0000
1000
0100
0010
0001
0010
0100
,  // measure 105
1000
0100
1000
0100
0010
0001
0010
0001
,  // measure 106
0010
0100
1000
0001
1000
0001
1000
0100
,  // measure 107
0010
0110
1001
0110
,  // measure 108
1001
0000
0110
0000
1001
0000
1000
0010
,  // measure 109
0001
0010
0001
0100
1000
0100
1000
0010
,  // measure 110
0001
0000
1000
0001
1001
0000
0110
0000
,  // measure 111
0001
1000
1001
0000
0110
0000
1000
0001
,  // measure 112
1000
0000
0000
0000
0000
0000
0000
0000
0110
0000
0000
0000
0000
0000
0000
0000
0000
0000
0000
0000
0000
0000
0000
0000
1001
0000
0000
0000
0000
0000
0000
0000
0000
0000
0000
0000
0000
0000
0000
0000
2002
0000
0000
0000
0000
0000
0000
0000
0000
0000
0000
0000
0000
0000
0000
0000
0000
3003
0000
0000
0000
0000
0000
0000
,  // measure 113
1000
0001
0010
1000
,  // measure 114
0001
0000
0100
0000
1001
0000
0000
0001
,  // measure 115
0000
0000
1000
0000
,  // measure 116
0000
0001
0100
0001
0010
0000
1000
0000
,  // measure 117
0100
0010
0001
0100
,  // measure 118
1001
0000
0000
1000
0000
0000
0000
0001
,  // measure 119
0000
0001
0000
0000
0010
0000
1000
0000
,  // measure 120
0100
0001
0000
0001
,  // measure 121
1001
0000
0000
1000
0000
0000
0000
0100
,  // measure 122
0000
0100
0010
0001
0011
0000
0101
0000
,  // measure 123
0110
1010
0000
0110
,  // measure 124
1001
0000
0000
0000
,  // measure 125
0000
0000
1001
0000
,  // measure 126
0000
1000
0000
0000
0000
0000
0000
0000
0000
0000
0000
0100
0000
0000
0000
0000
,  // measure 127
0000
0000
0000
0000
0000
0000
0000
0000
0000
0000
0000
0000
0000
0000
0000
0001
0000
0000
0000
0000
0000
0000
0000
0000
0000
0000
0000
0000
0000
0000
0000
0000
,  // measure 128
0000
0000
0000
0000
0000
0000
0000
0000
0000
0010
0000
0000
0000
0000
0000
0000
,  // measure 129
0000
0000
1000
0000
,  // measure 130
1000
0100
0001
0000
,  // measure 131
0000
0000
0000
1000
0000
0100
0001
0100
,  // measure 132
1000
0010
0100
0010
1000
0001
0010
0100
,  // measure 133
1010
0000
0010
0000
0100
0000
0101
0000
0010
0000
0100
0000
,  // measure 134
1000
0100
0010
0001
0010
0100
1000
0001
,  // measure 135
0100
0010
0100
0001
0010
0100
1000
0001
,  // measure 136
1000
0000
0100
0000
0001
0000
0100
1000
,  // measure 137
1000
0010
0100
0000
0100
0000
0001
0000
,  // measure 138
0010
0100
1000
1000
0010
0000
1000
0100
,  // measure 139
0001
0000
0010
0000
0100
1000
0100
1000
,  // measure 140
0010
1000
0100
1000
0010
0100
0001
0100
,  // measure 141
1000
0010
1000
0100
0001
0010
1000
0010
,  // measure 142
0001
0100
0001
0010
0100
1000
0001
0100
,  // measure 143
1000
0001
0010
1000
0010
0100
0010
1000
,  // measure 144
0100
0000
0000
0220
0000
0330
2002
0000
,  // measure 145
0000
0000
3003
0000
2002
0000
0000
3003
,  // measure 146
0000
0001
1000
0010
0100
0010
0001
0010
,  // measure 147
0100
0000
0000
0000
0000
0000
0000
0000
1000
0000
0000
0000
0000
0000
0000
0000
0010
0000
0000
0000
0000
0000
0000
0000
0100
0000
0000
0000
0000
0000
0000
0000
2002
3003
0000
0000
0000
0000
0000
0000
0000
0000
0000
0000
0000
0000
0000
0000
0000
0000
0000
0000
0000
0000
0000
0000
0000
0000
0000
0000
0000
0000
0000
0000
;
