#TITLE:L9;
#SUBTITLE:;
#ARTIST:PARAOKA;
#TITLETRANSLIT:;
#SUBTITLETRANSLIT:;
#ARTISTTRANSLIT:;
#CREDIT:;
#BANNER:L9.PNG;
#BACKGROUND:L9-bg.PNG;
#LYRICSPATH:;
#CDTITLE:cdtitle.png;
#MUSIC:L9.mp3;
#OFFSET:1.940;
#SAMPLESTART:55.680;
#SAMPLELENGTH:12.000;
#SELECTABLE:YES;
#BPMS:0.000=123.000;
#STOPS:97.000=0.610
,97.750=0.122
,98.000=0.122
,98.250=0.122
,98.500=0.854
,99.000=0.122
;
#BGCHANGES:;

//---------------dance-single - BASIC----------------
#NOTES:
     dance-single:
     BASIC:
     Easy:
     5:
     0.347,0.430,0.506,0.219,0.000: // measure 1
0000
0000
0000
0000
,  // measure 2
0000
0000
0000
0000
,  // measure 3
1000
0000
0000
0001
,  // measure 4
0000
1000
0000
0001
,  // measure 5
1000
0200
0000
0300
,  // measure 6
2000
3000
0010
0001
,  // measure 7
0020
0030
1000
0001
,  // measure 8
0020
0030
1000
0001
,  // measure 9
0200
0300
1000
0001
,  // measure 10
0200
0300
1000
0001
,  // measure 11
0020
0030
1000
0100
,  // measure 12
0020
0030
0001
0100
,  // measure 13
0020
0030
1000
0100
,  // measure 14
1000
0100
0010
0001
,  // measure 15
0010
0000
0000
0000
0100
0000
0000
0000
2002
0000
0000
0000
0000
3003
0000
0000
,  // measure 16
1000
0010
0100
0001
,  // measure 17
0100
0010
1000
0001
,  // measure 18
1000
0001
0100
0010
,  // measure 19
1000
0100
0010
1001
,  // measure 20
0100
1001
0010
1000
,  // measure 21
2002
3003
1000
0010
,  // measure 22
0100
0001
0100
2002
,  // measure 23
0000
3003
0000
0000
1000
0000
0000
0000
0001
0000
0000
0000
1000
0000
0000
0000
,  // measure 24
0010
0100
1001
0010
,  // measure 25
1001
2002
0000
0000
,  // measure 26
3003
1001
0110
1001
,  // measure 27
0110
1001
1000
0010
,  // measure 28
0100
0001
1000
0010
,  // measure 29
0100
0010
1001
1000
,  // measure 30
1001
0001
1001
0010
,  // measure 31
1001
0100
1001
0010
,  // measure 32
1001
1000
1001
0001
,  // measure 33
1001
1001
1000
1001
,  // measure 34
0001
1001
0010
0110
,  // measure 35
0100
0110
1000
1001
,  // measure 36
0001
1001
0100
1001
,  // measure 37
0010
1001
1001
1000
,  // measure 38
1001
0001
1001
0010
,  // measure 39
0110
0100
0110
1001
,  // measure 40
1001
1001
1001
0110
,  // measure 41
1001
1000
0001
0100
,  // measure 42
0010
1000
0100
0010
,  // measure 43
0001
0100
1000
0010
,  // measure 44
0001
0000
0000
0000
1001
0000
0000
0000
0110
0000
0000
0000
2002
0000
0000
3003
;

//---------------dance-single - ANOTHER----------------
#NOTES:
     dance-single:
     ANOTHER:
     Medium:
     8:
     0.677,0.708,0.978,0.311,0.155: // measure 1
0000
0000
0000
0000
,  // measure 2
0000
0000
0000
0000
,  // measure 3
1000
0100
0010
0001
0010
0100
1000
0100
,  // measure 4
0010
0001
1000
0100
1001
0110
1001
0110
,  // measure 5
1000
0001
0200
0000
0000
0000
0000
0300
,  // measure 6
2001
0000
0010
0000
3100
0000
0000
0110
0000
1001
0000
0000
1001
0000
0110
0000
,  // measure 7
2001
0000
0010
0000
3100
0000
0000
0110
0000
1001
0000
0000
0110
0000
1001
0000
,  // measure 8
1002
0000
0100
0000
0013
0000
0000
0110
0000
1001
0000
0000
0110
0000
1001
0000
,  // measure 9
1002
0100
0013
1000
0100
0001
0010
1000
,  // measure 10
2001
0000
0010
0000
3100
0000
0000
0110
0000
1001
0000
0000
1001
0000
0110
0000
,  // measure 11
2001
0000
0010
0000
3100
0000
0000
0110
0000
1001
0000
0000
0110
0000
1001
0000
,  // measure 12
1002
0000
0100
0000
0013
0000
0000
0110
0000
1001
0000
0000
0110
0000
1001
0000
,  // measure 13
1002
0100
0013
0001
0010
1000
0100
0001
,  // measure 14
1000
0010
0100
0010
1000
0001
0100
0010
,  // measure 15
0100
0000
0001
0000
1000
0000
0001
0000
1001
0000
1000
0010
0000
0100
0001
0000
,  // measure 16
0100
0010
0100
0010
1000
0001
0100
0010
,  // measure 17
0000
0110
0000
0000
1001
0000
0000
0110
0000
0000
1001
0000
0001
0000
0010
0000
,  // measure 18
1000
0001
0100
1000
0010
0001
1000
0100
,  // measure 19
0001
0000
1000
0000
0100
0000
0001
0000
0010
0000
1000
0000
1001
0000
0000
0110
,  // measure 20
0000
0000
1001
0000
0000
0110
0000
0000
1000
0000
0100
0000
0001
0000
0010
0000
,  // measure 21
2002
3003
1000
0010
0100
0010
1000
0001
,  // measure 22
0100
0000
0010
0000
0100
0000
0001
0000
1000
0000
0001
0000
1001
0000
1000
0010
,  // measure 23
0000
0100
0001
0000
1000
0000
0010
0000
0100
0000
0010
0000
1000
0000
0010
0000
,  // measure 24
0100
0000
0001
0000
0000
0110
0000
0000
1001
0000
0000
0110
0000
0000
2002
0000
,  // measure 25
3003
0000
0000
0000
0000
0000
0000
0000
0000
0000
0000
0000
2002
3003
0000
0000
0000
0000
0000
0000
0000
2000
3000
0000
0020
0030
0000
0200
0300
0000
0002
0003
0000
0000
0000
0000
2000
3000
0000
0002
0003
0000
0000
0000
0000
0000
0000
0000
,  // measure 26
0110
1001
0110
1001
,  // measure 27
0110
0000
1001
0000
1100
2002
3003
0000
,  // measure 28
0101
2002
3003
0000
0110
2002
3003
0000
,  // measure 29
0110
0000
1001
0000
0001
0010
1000
0100
,  // measure 30
0010
0001
0100
1000
0001
0100
0010
0001
,  // measure 31
1000
0100
0001
0010
1000
0001
0100
1000
,  // measure 32
1001
0001
0010
0001
1001
1000
0010
1000
,  // measure 33
1001
0000
1001
0000
0001
0010
1000
0100
,  // measure 34
0010
0001
0100
1000
0001
0100
0010
0001
,  // measure 35
1000
0100
0001
0010
1000
0001
0100
1000
,  // measure 36
1001
0001
0010
0001
1001
1000
0010
1000
,  // measure 37
1001
0000
1001
0000
1000
0100
0010
0001
,  // measure 38
0010
1000
0100
0001
0010
0100
1000
0100
,  // measure 39
0001
0010
1000
0010
0100
0001
0100
1000
,  // measure 40
0010
0001
0100
1000
0010
0001
0100
1000
,  // measure 41
1001
1000
0010
0100
0010
1000
0001
0100
,  // measure 42
0010
0100
0001
1000
0110
1001
0110
1001
,  // measure 43
0001
1000
0100
0001
0010
1000
0001
1000
,  // measure 44
0001
0000
0000
0000
0110
0000
0000
0000
1001
0000
0000
0000
0000
0000
0000
0000
1001
0000
0000
0000
0110
0000
0000
0000
0000
1001
0000
0000
0000
0000
1001
0000
;

//---------------dance-single - MANIAC----------------
#NOTES:
     dance-single:
     MANIAC:
     Hard:
     10:
     0.947,0.935,0.874,0.472,1.000: // measure 1
0000
0000
0000
0000
,  // measure 2
0000
0000
0000
0000
,  // measure 3
1000
0100
0010
0001
0010
0100
1000
0100
1000
0100
0010
0001
0010
0001
0010
0100
,  // measure 4
1000
0001
1000
0001
1000
0100
0010
0000
1001
0000
0110
0000
1001
0000
0110
0000
,  // measure 5
1000
0001
0200
0000
0000
0000
0000
0300
,  // measure 6
0001
1000
1001
0000
0110
0000
0000
0110
0000
1001
0000
0000
1000
0010
0100
0001
,  // measure 7
1000
0001
1001
0000
0110
0000
0000
0110
0000
1001
0000
0000
1000
0010
0100
0001
,  // measure 8
1000
0001
1001
0000
0110
0000
0000
0110
0000
1001
0000
0000
0001
0010
0100
1000
,  // measure 9
0001
1000
1001
0000
0110
0000
1000
0000
0100
0000
0001
0000
0010
0000
1000
0000
,  // measure 10
0001
1000
1001
0000
0110
0000
0000
0110
0000
1001
0000
0000
1000
0010
0100
0001
,  // measure 11
1000
0001
1001
0000
0110
0000
0000
0110
0000
1001
0000
0000
1000
0010
0100
0001
,  // measure 12
1000
0001
1001
0000
0110
0000
0000
0110
0000
1001
0000
0000
0001
0010
0100
1000
,  // measure 13
0001
1000
1001
0000
0110
0000
0001
0000
0010
0000
1000
0000
0100
0000
0001
0000
,  // measure 14
1000
0100
0010
0001
0010
0100
1000
0001
0010
0100
1000
0100
0010
0001
1000
0100
,  // measure 15
0010
0100
1000
0001
0010
0100
0010
0001
1001
0000
1000
0010
0000
0100
0001
0000
,  // measure 16
0001
0010
0100
1000
0100
0010
0001
1000
0100
0010
0001
0010
0100
1000
0001
1000
,  // measure 17
0000
0220
0000
0330
2002
0000
3003
0220
0000
0330
2002
3003
0001
0010
0100
1000
,  // measure 18
0100
0010
0001
1000
0100
0010
0001
0010
0100
1000
0001
1000
0001
1000
0001
0100
,  // measure 19
0010
0100
0010
0100
0001
1000
0010
0100
0010
1000
0001
0000
2002
0000
3003
0220
,  // measure 20
0000
0330
2002
0000
3003
0220
0000
0330
1000
0000
0100
0000
0001
0000
0010
0000
,  // measure 21
2002
0000
3003
0000
0001
0010
0100
1000
0100
0010
0001
1000
0100
0010
0001
0010
,  // measure 22
0100
1000
0001
0010
0100
0010
0001
1000
0100
0010
0100
1000
1001
0000
0001
0100
,  // measure 23
0000
0010
1000
0000
1000
0100
0010
0001
0010
0100
1000
0001
0010
0100
1000
0100
,  // measure 24
0010
0001
1000
0001
0000
0220
0000
0330
2002
0000
3003
0220
0000
0330
2002
0000
,  // measure 25
3003
0000
0000
0000
0000
0000
0000
0000
0000
0000
0000
0000
2002
3003
0000
0000
0000
0000
0000
0000
0000
2000
3000
0000
0020
0030
0000
0002
0003
0000
0200
0300
0000
0000
0000
0000
2000
3000
0000
0002
0003
0000
0000
0000
0000
0001
0000
0000
,  // measure 26
1000
0010
0000
0000
0001
0100
0000
0000
1000
0010
0000
0000
0001
0100
0000
0000
,  // measure 27
1000
0010
0000
0000
0001
0100
0000
0000
1010
0000
0202
0303
1000
0010
0100
0001
,  // measure 28
0011
0000
2200
3300
0001
0010
0100
1000
0110
0000
2002
3003
1000
0001
0100
0010
,  // measure 29
0100
0001
1000
0000
1001
0000
0000
0000
0001
0000
1000
0000
0001
0000
1000
0000
,  // measure 30
0010
0100
0010
1000
0001
0100
0010
0100
,  // measure 31
0001
0000
1000
0000
0001
1000
0010
1000
0001
1000
0001
0010
0001
1000
0010
0100
,  // measure 32
0010
1000
0001
0100
0010
0100
0001
1000
0100
0010
0100
1000
0001
0010
0100
0010
,  // measure 33
0001
1000
0001
0000
1001
0000
0000
0000
1000
0000
0001
0000
1000
0000
0001
0000
,  // measure 34
0100
0010
0100
0001
1000
0010
0100
0010
,  // measure 35
1000
0000
0001
0000
1000
0001
0100
0001
1000
0001
1000
0100
1000
0001
0100
0010
,  // measure 36
0100
0001
1000
0010
0100
0010
1000
0001
0010
0100
0010
0001
1000
0100
0010
0100
,  // measure 37
1000
0001
1000
0000
1001
0000
0000
0000
1000
0000
0100
0000
0010
0000
0001
0000
,  // measure 38
0010
1000
0100
0001
0010
0100
1000
0100
,  // measure 39
0001
0010
1000
0001
1100
0100
0101
0001
,  // measure 40
0011
0010
1010
1000
1100
0100
0101
1001
,  // measure 41
0001
1000
0010
0100
0010
1000
0001
1000
0001
0100
0010
0100
0001
1000
0100
0010
,  // measure 42
0001
0100
0010
1000
0001
1000
0001
1000
0110
0000
1001
0000
0110
0000
1001
0000
,  // measure 43
0110
0000
1001
0000
0100
0001
0100
0001
0010
1000
0010
1000
0100
0001
0010
0000
,  // measure 44
1000
0000
0001
0000
0110
0000
0000
0000
1001
0000
0000
0000
0001
0000
1000
0000
1001
0000
0000
0000
0110
0000
0000
0000
0000
1001
0000
0000
0000
0000
1001
0000
;

//---------------dance-single - SMANIAC----------------
#NOTES:
     dance-single:
     SMANIAC:
     Challenge:
     11:
     1.000,1.000,1.000,1.000,1.000: // measure 1
0000
0000
0000
0000
,  // measure 2
0000
0000
0000
0000
,  // measure 3
1000
0100
0010
0001
0010
0100
1000
0100
1000
0100
0010
0001
0010
0001
0010
0100
,  // measure 4
1000
0001
1000
0001
1000
0100
0010
0000
1001
0000
0110
0000
1001
0000
0110
0000
,  // measure 5
1001
0000
0110
0000
1000
0001
1000
0100
1000
0100
0001
0010
0001
0010
1000
0000
,  // measure 6
0001
1000
1001
0000
0220
0000
0330
0110
0000
2002
0000
3003
1000
0010
0100
0001
,  // measure 7
1000
0001
1001
0000
0220
0000
0330
0110
0000
2002
0000
3003
1000
0010
0100
0001
,  // measure 8
1000
0001
1001
0000
0220
0000
0330
0110
0000
2002
0000
3003
0001
0010
0100
1000
,  // measure 9
0001
1000
1001
0000
0110
0000
1000
0100
1000
0100
0001
0010
0001
0010
1000
0000
,  // measure 10
0001
1000
1001
0000
0220
0000
0330
0110
0000
2002
0000
3003
1000
0010
0100
0001
,  // measure 11
1000
0001
1001
0000
0220
0000
0330
0110
0000
2002
0000
3003
1000
0010
0100
0001
,  // measure 12
1000
0001
1001
0000
0220
0000
0330
0110
0000
2002
0000
3003
0001
0010
0100
1000
,  // measure 13
0001
1000
1001
0000
0110
0000
0001
0010
0001
0010
1000
0100
1000
0100
0001
0000
,  // measure 14
1000
0100
0010
0001
0010
0100
1000
0001
0010
0100
1000
0100
0010
0001
1000
0100
,  // measure 15
0010
0100
1000
0001
0010
0100
0010
0001
1001
0000
1000
1010
0000
0001
0101
0000
,  // measure 16
0001
0010
0100
1000
0100
0010
0001
1000
0100
0010
0001
0010
0100
1000
0001
1000
,  // measure 17
0000
0220
0330
0000
2002
3003
0000
0220
0330
0000
2002
3003
0000
0010
0100
1000
,  // measure 18
0100
0010
0001
1000
0100
0010
0001
0010
0100
1000
0001
1000
0001
1000
0001
0100
,  // measure 19
0010
0100
0010
0100
0001
1000
0010
0100
0010
1000
0001
0000
2002
0000
3003
0220
,  // measure 20
0000
0330
2002
0000
3003
0220
0000
0330
1000
0100
1000
0100
0001
0010
0001
0010
,  // measure 21
1000
0000
0001
0000
2002
3003
0000
0000
0001
0000
0010
0000
0100
0000
1000
0000
0100
0000
0010
0000
0001
0000
1000
0000
0100
0000
0010
0000
0001
0000
0010
0000
,  // measure 22
0100
1000
0001
0010
0100
0010
0001
1000
0100
0010
0100
1000
1001
0000
0101
0100
,  // measure 23
0000
0010
1010
0000
1000
0100
0010
0001
0010
0100
1000
0001
0010
0100
1000
0100
,  // measure 24
0010
0001
1000
0001
0000
0220
0000
0330
2002
0000
3003
0220
0000
0330
2002
3003
,  // measure 25
0001
0000
0000
0010
0000
0000
0100
0000
0000
2000
0000
0000
0002
3003
0000
0000
0000
0000
0000
0000
0000
2020
3030
0000
0022
0033
0000
0202
0303
0000
2200
3300
0000
0000
0000
0000
0220
0330
0000
2002
3003
0000
0000
0000
0000
1000
0000
0000
,  // measure 26
2020
3030
0022
0033
0202
0303
2200
3300
,  // measure 27
2020
0000
3030
0000
2002
0000
3003
0000
1010
0000
0202
0303
1000
0010
0100
0001
,  // measure 28
0011
0000
2200
3300
0001
0010
0100
1000
0110
0000
2002
3003
1000
0001
0100
0010
,  // measure 29
0100
0000
0000
0001
0000
0000
1000
0000
0000
0000
0000
0000
2002
3003
0000
0000
0000
0000
0001
0000
0000
0010
0000
0000
0100
0000
0000
1000
0000
0000
0100
0000
0000
0010
0000
0000
0001
0000
0000
1000
0000
0000
0100
0000
0000
0010
0000
0000
,  // measure 30
0001
0010
0100
1000
0001
0010
0100
0010
0001
1000
0100
0010
0100
1000
0001
0100
,  // measure 31
0010
1000
0010
0100
0001
1000
0010
1000
0001
1000
0001
0010
0001
1000
0010
0100
,  // measure 32
0010
1000
0001
0100
0010
0100
0001
1000
0100
0010
0100
1000
0001
0010
0100
0010
,  // measure 33
0001
1000
0001
0000
2002
0000
3003
0000
1000
0100
0010
0001
0010
0100
1000
0001
,  // measure 34
0010
0100
1000
0100
0010
0001
1000
0100
0010
0100
1000
0001
0010
0100
0010
0001
,  // measure 35
1000
0010
0100
0001
0100
0010
1000
0001
1000
0001
1000
0100
1000
0001
0100
0010
,  // measure 36
0100
0001
1000
0010
0100
0010
1000
0001
0010
0100
0010
0001
1000
0100
0010
0100
,  // measure 37
1000
0001
1000
0000
2002
0000
3003
0000
1000
0100
1000
0100
0001
0100
0001
0100
,  // measure 38
0001
0010
0001
0010
1000
0010
1000
0010
1000
0100
1000
0100
0001
1000
0001
0100
,  // measure 39
1000
0001
1000
0010
0001
0100
1000
0000
1100
0000
0100
0000
0101
0000
0001
0000
,  // measure 40
0011
0010
1010
1100
0101
0011
1010
1001
,  // measure 41
0001
1000
0010
0100
0010
1000
0001
1000
0001
0100
0010
0100
0001
1000
0100
0010
,  // measure 42
0001
0100
0010
1000
0001
1000
0001
1000
0110
0000
1001
0000
0110
0000
1001
0000
,  // measure 43
0110
0000
1001
0000
0100
0001
0100
0001
0010
1000
0010
1000
0100
0001
0010
0000
,  // measure 44
1000
0000
0001
0000
0110
0000
0000
0000
1001
0000
0000
0000
0001
0000
1000
0000
1001
0000
0000
0000
0220
0000
0330
0000
0000
1001
0000
0000
0000
0000
1001
0000
;

//---------------dance-double - ----------------
#NOTES:
     dance-double:
     :
     Hard:
     10:
     0.741,0.809,0.161,0.196,0.834:
00000000
00000000
00000000
00000000
,
00000000
00000000
00000000
00000000
,
10000000
01000000
00100000
00010000
00001000
00000100
00000001
00000100
00000010
00001000
00010000
01000000
10000000
00100000
01000000
00010000
,
00001000
00000010
00000001
00000010
00000100
00001000
00010000
00100000
01000000
10000000
01000000
10000000
00100000
00000000
01000000
00010000
,
01000000
00010000
00001000
00000000
00000100
00001000
00000100
00001000
00000001
00000010
00000001
00000010
00000001
00000010
00000100
00000000
,
00000000
00000000
00020000
00000000
00001000
00000000
00030000
00002000
00000000
00100000
00000000
00003000
01000000
10000000
01000000
10000000
,
00000000
00000000
20000000
00000000
00100000
00000000
30000000
02000000
00000000
00010000
00000000
03000000
00001000
00010000
00001000
00010000
,
00000000
00000000
00000020
00000000
00000100
00000000
00000030
00000002
00000000
00001000
00000000
00000003
00000100
00000010
00000100
00000010
,
00000000
00000000
00000002
00000000
00000100
00000000
00000013
00001000
00000010
00001000
00010000
00001000
00010000
00001000
00010000
01000000
,
00000000
00000000
00020000
00000000
00100000
00000000
00030000
00002000
00000000
00010000
00000000
00003000
00000010
00000100
00000010
00000100
,
00000000
00000000
00002000
00000000
00000001
00000000
00003000
00000200
00000000
00000010
00000000
00000300
00010000
00000100
00010000
00000100
,
00000000
00000000
00020000
00000000
00001000
00000000
00030000
00200000
00000000
01000000
00000000
00300000
10000000
00010000
10000000
00010000
,
00000000
00000000
00200000
00000000
01000000
00000000
00310000
00001000
00010000
00001000
00000010
00000100
00000001
00001000
00000100
00000010
,
00000001
00000100
00000010
00001000
00000100
00010000
00001000
00100000
00010000
00100000
01000000
10000000
00010000
00100000
01000000
00100000
,
00001000
00010000
00000010
00010000
00001000
00000100
00000001
00001000
00000100
00000000
00000010
00000001
00000000
00000100
00000010
00000000
,
00010000
00001000
00100000
00010000
10000000
01000000
00100000
00001000
00010000
00000010
00010000
00001000
00000100
00000010
00001000
00000001
,
00000000
00000110
00000000
00000000
00001100
00000000
00000000
00011000
00000000
00000000
00110000
00000000
00010000
01000000
00000000
00000000
,
10000000
01000000
00100000
00010000
00100000
00001000
00010000
00000010
00010000
00001000
00000100
00000001
00001000
00000100
00000010
00000001
,
00000100
00000010
00001000
00000100
00010000
00001000
00100000
00001000
00010000
01000000
10000000
01000000
00100000
00010000
00100000
00001000
,
00100000
00000000
00010000
01000000
00001000
00010000
00000010
00000000
00010000
00001000
00000100
00000010
00001000
00000001
00000010
00000100
,
00001000
00000001
00000010
00000000
00001000
00000100
00010000
00001000
00100000
00010000
10000000
01000000
00100000
00010000
00100000
00001000
,
00010000
00000010
00010000
00001000
00000100
00000001
00001000
00000100
00000010
00000001
00000100
00000010
00001000
00000000
00010000
00000100
,
00000000
00001000
00100000
00000000
00010000
10000000
01000000
00100000
00010000
00100000
00001000
00010000
00000010
00010000
00001000
00000100
,
00000001
00001000
00000100
00000010
00000000
00000101
00000000
00000000
00000110
00000000
00000000
00011000
00000000
00000000
00101000
00000000
,
00000000
10010000
00000000
00000000
11000000
00000000
00000000
00100000
10000000
01000000
00010000
00000000
00001000
00000100
00000000
00000001
,
00000010
00000000
00000000
00000010
00010000
00000000
00000000
00010000
00001000
00000000
00000000
00001000
00100000
00000000
00000000
00100000
,
01000000
00000000
00000000
01000000
10000000
00000000
00000000
10000000
00100000
00000000
00000000
00100000
01000000
00000000
01000000
00000000
,
00001000
00000000
00000000
00001000
00000010
00000000
00000010
00000000
00000100
00000000
00000000
00000100
00000001
00000000
00000001
00000000
,
00000010
00000000
00000000
00000010
00000100
00000000
00000100
00000000
00010000
00000000
00001000
00000000
00100000
00000000
00010000
00000000
,
10000000
00000000
01000000
00000000
00100000
00000000
00001000
00000000
00010000
00000000
00000010
00000000
00000100
00000000
00000001
00000010
,
00000100
00010000
00001000
00000100
00000010
00010000
00001000
01000000
,
00010000
00100000
01000000
10000000
00100000
01000000
00010000
00100000
,
00001000
00010000
00000010
00001000
00001002
00000000
00000103
00000000
,
00000210
00000000
00010300
00000000
00021000
00000000
01030000
00100000
,
00010000
00000000
10000000
01000000
00100000
00001000
00010000
00000010
,
00000100
00000001
00000010
00000100
00010000
00000010
00000100
00001000
,
00010000
01000000
10000000
00100000
00010000
00001000
00000100
00000001
,
00000010
00000100
00010000
00001000
00100000
00010000
10000000
01000000
,
00100000
00001000
00010000
00000010
00000100
00000001
00000010
00000100
,
00010000
00000010
00000100
00000001
00000010
00000100
00010000
00000010
,
00000100
00001000
00010000
01000000
10000000
01000000
00010000
00001000
,
00100000
00001000
00010000
01000000
10000000
00100000
00010000
00001000
,
00000100
00000010
00000001
00001000
00000010
00000100
00000001
00000010
,
00000000
00000000
00000100
00000000
00010000
00000000
00000000
00000000
00001000
00000000
01000000
00000000
00000000
00100000
00000000
01100000
;

//---------------dance-double - ----------------
#NOTES:
     dance-double:
     :
     Challenge:
     11:
     1.000,0.834,0.242,0.046,1.000:
00000000
00000000
00000000
00000000
,
00000000
00000000
00000000
00000000
,
00100000
10000000
01000000
00001000
00010000
00000010
00000001
00000100
00000010
00000001
00001000
00000100
00000010
00010000
00001000
00010000
,
00100000
00001000
00010000
01000000
10000000
00100000
00010000
00100000
00001000
00010000
00000010
00000100
00001000
00000100
00000001
00000010
,
00000100
00000010
00000001
00000100
00000010
00001000
00000001
00000010
00000100
00010000
00000010
00010000
00001000
00100000
00010000
00000000
,
10000000
01000000
00100000
00000000
01010000
00000000
00001000
00010000
00000000
00000010
00000000
00001000
00000001
00000010
00001000
00000001
,
00000100
00001000
00000010
00000000
00010100
00000000
00001000
00100000
00000000
00010000
00000000
10000000
00100000
00001000
00010000
00000010
,
00000100
00000001
00001000
00000000
00000110
00000000
00000001
00000100
00000000
00000010
00000000
00001000
00010000
00001000
00100000
00010000
,
10000000
00100000
01000000
00000000
00110000
00000000
00001000
00010000
00000010
00001000
00000100
00000010
00000001
00000100
00000010
00001000
,
00000100
00010000
00001000
00000000
00110000
00000000
10000000
01000000
00000000
00100000
00000000
00001000
00010000
00000010
00000100
00000001
,
00001000
00000100
00000010
00000000
00000101
00000000
00000010
00001000
00000000
00000100
00000000
00010000
00001000
00100000
00010000
10000000
,
01000000
00100000
00010000
00000000
01001000
00000000
00000010
00010000
00000000
00001000
00000000
00000100
00000001
00001000
00000100
00000010
,
00000001
00000100
00000010
00000000
00001100
00000000
00010000
00001000
00100000
00010000
10000000
01000000
00100000
00001000
00010000
00000010
,
00010000
00001000
00000100
00000001
00000010
00000100
00010000
00000010
00000100
00001000
00100000
00010000
10000000
01000000
00100000
00001000
,
00010000
00000010
00000100
00000001
00001000
00000100
00000010
00000001
00001000
00000000
00000010
00000100
00000000
00010000
00001000
00000000
,
00100000
01000000
10000000
00010000
10000000
01000000
00100000
00001000
00100000
00010000
00000010
00001000
00010000
00000010
00000100
00000001
,
00000000
00000110
00000000
00000000
00000011
00000000
00000000
00000101
00000000
00000000
00001100
00000000
00000000
00011000
00000000
00000000
,
00100000
00010000
10000000
01000000
00100000
00001000
00010000
00000010
00010000
00001000
00000100
00000001
00000010
00000100
00001000
00000001
,
00000100
00000010
00010000
00000100
00010000
00001000
00100000
00010000
10000000
01000000
00100000
00010000
00100000
00001000
00100000
00000010
,
00010000
00001000
00010000
00000010
00000100
00000001
00001000
00000100
00000010
00000001
00000100
00000010
00001000
00000100
00010000
00001000
,
00100000
00001000
00100000
00010000
10000000
01000000
00100000
00010000
00100000
00001000
00100000
00001000
00000010
00010000
01000000
00010000
,
01000000
00001000
00010000
00000010
00010000
00001000
00010000
00000010
00000100
00000001
00001000
00000100
00000010
00000000
00000001
00000100
,
00000000
00000010
00001000
00000000
00000100
00010000
00001000
00100000
00010000
10000000
01000000
00100000
00010000
00100000
00001000
00010000
,
00000010
00010000
00001000
00000100
00000000
00000110
00000000
00000000
00001001
00000000
00000000
00000110
00000000
00000000
00001010
00000000
,
00000000
00010100
00000000
00000000
00002000
00000000
00000000
00023000
00100000
20030000
01000000
30000000
00020000
00000100
00030000
00000001
,
00000010
00001000
00000010
00001000
00010000
00001000
00010000
00001000
00010000
01000000
00010000
01000000
00100000
01000000
00100000
01000000
,
10000000
01000000
10000000
01000000
10000000
00010000
10000000
00010000
01000000
00010000
01000000
00010000
01000000
00001000
01000000
00001000
,
00010000
00001000
00010000
00001000
00010000
00000010
00010000
00000010
00000100
00000010
00000100
00000010
00001000
00000001
00001000
00000001
,
00000010
00000100
00000010
00000100
00001000
00000100
00001000
00000001
00000010
00000000
00000100
00010000
00000010
00000000
00010000
00001000
,
00100000
00000000
00010000
10000000
01000000
00000000
00100000
00001000
00010000
00000000
00000010
00010000
00001000
00000100
00000001
00000010
,
00000100
00000000
00001000
00000001
00000100
00000010
00001000
00000100
00010000
00001000
00100000
00010000
10000000
01000000
00100000
00010000
,
00100000
01000000
00001000
00010000
00000010
00010000
00001000
00000100
00000001
00001000
00000100
00000010
00000001
00000100
00000010
00001000
,
00000100
00010000
00001000
00100000
00010000
10000000
01000000
00100000
00010000
00000000
00001000
01000000
00010000
00000000
00100000
00001000
,
00010000
00000000
00000010
00001000
00000001
00000000
00000010
00000100
00001000
00000000
00000001
00000100
00000010
00001000
00000100
00010000
,
00001000
00000000
00100000
00010000
10000000
01000000
00100000
00010000
00100000
01000000
00100000
00001000
00010000
00000010
00010000
00001000
,
00000100
00000010
00001000
00000001
00000010
00000100
00000010
00000001
00001000
00000010
00000100
00000001
00001000
00000100
00010000
00001000
,
00100000
00010000
01000000
00100000
10000000
00010000
10000000
01000000
00100000
00010000
00100000
00001000
00010000
00000010
00010000
00001000
,
00000100
00000001
00001000
00000100
00000010
00000001
00000100
00000010
00001000
00000100
00010000
00001000
00100000
00010000
10000000
01000000
,
00100000
00010000
00100000
00001000
00010000
00000010
00010000
00001000
00000100
00000001
00001000
00000100
00000010
00000000
00000001
00000100
,
00000010
00001000
00000100
00000000
00010000
00001000
00100000
00010000
10000000
00000000
01000000
00100000
00010000
00100000
01000000
00000000
,
00100000
00001000
00010000
00000010
00010000
00001000
00010000
00000010
00000100
00000001
00001000
00000100
00000010
00000001
00000100
00000010
,
00010000
00000100
00010000
00001000
00100000
00010000
10000000
01000000
00100000
00001000
00100000
00010000
00100000
01000000
00010000
00001000
,
00010000
00000010
00010000
00001000
00000100
00000010
00001000
00000001
00000010
00000100
00001000
00000001
00000100
00000010
00001000
00000000
,
00000100
00010000
00001000
00000000
00110000
00000000
10000000
01000000
00100000
00000000
00011000
00000000
00000010
00000100
00000000
00000110
;

//---------------dance-double - ----------------
#NOTES:
     dance-double:
     :
     Medium:
     8:
     0.513,0.430,0.150,0.230,0.075:
00000000
00000000
00000000
00000000
,
00000000
00000000
00000000
00000000
,
00100000
10000000
00010000
01000000
00001000
00010000
00000010
00000100
,
00000001
00000010
00000100
00010000
00000010
00000100
00001000
00010000
,
01000000
00100000
00010000
10000000
01000000
00100000
00001000
00010000
,
00000000
00000010
00020000
00000000
00031000
00000200
00000000
00000301
,
00000000
00000010
00000200
00000000
00010300
00000020
00000000
00000130
,
00000000
00001000
00020000
00000000
01030000
00200000
00000000
00310000
,
00000000
10000000
02000000
00000000
03100000
00001000
00010000
00000100
,
00000000
00000010
00000002
00000000
00000103
00000020
00000000
00010030
,
00000000
00001000
00200000
00000000
00310000
20000000
00000000
31000000
,
00000000
00100000
00002000
00000000
00013000
00000020
00000000
00000130
,
00000000
00000001
00000020
00000000
00000130
00010000
00001000
00100000
,
00010000
00100000
00001000
00100000
01000000
10000000
01000000
00100000
,
00001000
00000000
00010000
00000000
00000010
00000000
00000100
00000000
00000001
00000000
00000000
00000010
00000000
00000000
00000100
00000000
,
00010000
00001000
00000100
00000010
00000100
00000010
00010000
00000010
,
00000000
00000110
00000000
00000000
00010000
00000000
00000000
00011000
00000000
00000000
00100000
00000000
00000000
01100000
00000000
00000000
,
01000000
10000000
01000000
00100000
00010000
00001000
00010000
00000010
,
00000100
00000001
00000010
00000100
00010000
00000010
00000100
00001000
,
00010000
01000000
00100000
00001000
00010000
01000000
10000000
00100000
,
00010000
00001000
00000100
00000010
00010000
00001000
00000010
00000001
,
00001000
00000000
00000010
00000000
00000001
00000000
00000100
00000000
00000010
00000000
00000001
00000000
00000100
00000000
00000000
00000010
,
00000000
00010000
00001000
00100000
01000000
10000000
00010000
00100000
,
00001000
00000000
00010000
00000000
00000000
00000100
00000000
00000000
00001100
00000000
00000000
00000010
00000000
00000000
00000011
00000000
,
00000000
00000100
00000000
00000000
00010000
00000000
00000000
00001000
00000010
00000001
00000100
00000000
00010000
00001000
00000000
00000000
,
00100000
01100000
10000000
10100000
,
00010000
00011000
00000100
00000110
,
00000001
00001001
00000010
00000110
,
00010000
00011000
00200000
00301000
,
00020000
00000000
10030000
00000000
02000000
00000000
03100000
00001000
,
00010000
00000000
00000010
00000100
00000001
00000010
00000100
00010000
,
00000010
00000100
00000001
00001000
00000100
00010000
00000010
00000100
,
00001000
00010000
01000000
00100000
00002000
00000000
00013000
00000000
,
00000020
00000000
00000130
00000000
00000002
00000000
00000013
00000100
,
00010000
00000000
00001000
00100000
00010000
10000000
01000000
00100000
,
00001000
00010000
00100000
01000000
00100000
00001000
00010000
01000000
,
10000000
00100000
01000000
00010000
00001000
00000100
00000010
00001000
,
00000001
00000010
00000001
00000100
00000010
00010000
00000010
00000100
,
00001000
00010000
00001000
00000100
00000001
00000010
00001000
00000001
,
00000010
00001000
00000001
00000010
00001000
00010000
00001000
00100000
,
00010000
10000000
01000000
00100000
00001000
00010000
00000010
00000100
,
00001000
00000100
00000001
00000010
00000100
00010000
00000010
00000100
,
00000001
00000010
00001000
00000100
00010000
00001000
00100000
01000000
,
00000000
00000000
10000000
00000000
00100000
00000000
00000000
00000000
00010000
00000000
00001000
00000000
00000000
00000010
00000000
00000110
;

//---------------dance-double - ----------------
#NOTES:
     dance-double:
     :
     Easy:
     5:
     0.275,0.328,0.012,0.046,0.058:
00000000
00000000
00000000
00000000
,
00000000
00000000
00000000
00000000
,
00100000
00000000
00000000
10000000
00000000
00000000
01000000
00000000
,
00000000
00010000
00000000
00000000
00001000
00000000
00000100
00000010
,
00000000
00000001
00001000
00000000
00000010
00000100
00000000
00000000
,
00000000
00010000
00001000
00000000
00100000
00000000
00100000
00000000
,
00000000
01000000
10000000
00000000
00010000
00000000
00010000
00000000
,
00000000
01000000
00100000
00000000
00001000
00000000
00001000
00000000
,
00000000
00010000
00000100
00000000
00000010
00000000
00000010
00000000
,
00000000
00000001
00000100
00000000
00000010
00000000
00000010
00000000
,
00000000
00010000
00001000
00000000
00100000
00000000
00100000
00000000
,
00000000
01000000
10000000
00000000
00010000
00000000
00010000
00000000
,
00000000
00100000
01000000
00000000
00001000
00000000
00001000
00000000
,
00010000
00000100
00000010
00000001
,
00000010
00000000
00000100
00000000
00010000
00000000
00001000
00001000
,
00000000
00100000
00000000
01000000
00000000
10000000
00000000
00100000
,
00000000
00001000
00000000
00000000
00001000
00000000
00000000
00001000
00000000
00000000
00001000
00000000
00000000
00001000
00000000
00000000
,
00000010
00000000
00000001
00000000
00000100
00000000
00010000
00001000
,
00000000
00100000
00000000
01000000
00000000
10000000
00100000
00000000
,
00001000
00010000
00000010
00000100
,
00000001
00000010
00000100
00000000
00001000
00000000
00000010
00000000
,
00010000
00001000
00000000
01000000
00000000
00100000
00010000
00000000
,
10000000
01000000
00100000
00001000
,
00010000
00000000
00000000
00000000
00000000
00000010
00000000
00000000
00000010
00000000
00000000
00000010
00000000
00000000
00000010
00000000
,
00000000
00000010
00000000
00000000
00000100
00000000
00000000
00010000
00010000
00010000
00010000
00000000
00001000
00001000
00000000
00000000
,
00100000
01000000
10000000
01000000
,
00100000
01000000
00010000
00000000
,
00001000
00000000
00000100
00000010
,
00000100
00000010
00000002
00000003
,
00002000
00003000
00000010
00000100
,
00010000
00000000
00001000
00010000
,
00100000
01000000
10000000
00100000
,
00001000
00010000
00000200
00000300
,
00000020
00000030
00000001
00001000
,
00000010
00000000
00010000
00000100
,
00000010
00000100
00010000
00001000
,
00100000
01000000
00010000
00001000
,
00100000
00001000
01000000
10000000
,
01000000
00000000
00010000
00000000
00001000
00000000
00000000
00000100
,
00000000
00000000
00000010
00000000
00000000
00000001
00000000
00000000
,
00000100
00000000
00000000
00001000
00000000
00000000
00010000
00000000
,
00000000
00100000
00000000
00000000
10000000
00000000
00000000
01000000
,
00000000
00000000
00001000
00000000
00000000
00010000
00000000
00000000
,
00000000
00000000
00000010
00000000
00000000
00000000
00000000
00000000
00000010
00000000
00000000
00000000
00000000
00000110
00000000
00000000
;

//---------------dance-single - ----------------
#NOTES:
     dance-single:
     :
     Beginner:
     1:
     0.104,0.151,0.012,0.000,0.150: // measure 1
0000
0000
0000
0000
,  // measure 2
0000
0000
0000
0000
,  // measure 3
0010
0000
0000
0001
,  // measure 4
0000
0000
1000
0000
,  // measure 5
0000
0100
0000
0000
,  // measure 6
0000
0010
0000
0000
,  // measure 7
0000
0010
0000
0000
,  // measure 8
0000
0010
0000
0000
,  // measure 9
0000
1000
1000
1000
,  // measure 10
0000
0010
0000
0000
,  // measure 11
0000
0010
0000
0000
,  // measure 12
0000
0010
0000
0000
,  // measure 13
0000
0001
0001
0001
,  // measure 14
0001
0000
0010
0000
,  // measure 15
1000
0000
0100
0100
,  // measure 16
0100
0000
1000
0000
,  // measure 17
0000
0010
0000
0000
,  // measure 18
0010
0000
0000
0001
,  // measure 19
0000
0000
0000
0100
,  // measure 20
0000
0000
1000
0000
,  // measure 21
0000
0010
0000
0000
,  // measure 22
0000
1000
0000
0100
,  // measure 23
0100
0100
0000
0000
,  // measure 24
0000
0000
0001
0000
,  // measure 25
0000
0000
0000
0000
0001
0000
0000
0000
0000
0000
0000
0000
0000
0000
0000
0010
,  // measure 26
0000
0000
0000
0000
0000
0000
0000
0000
0000
0000
0000
0000
0000
0000
0000
0100
,  // measure 27
0000
0000
0000
0000
0000
0000
0000
0000
0000
0000
0000
0000
0000
0000
0000
0010
,  // measure 28
0000
0000
0000
0000
0000
0000
0000
0100
0000
0000
0000
0000
0000
0000
0000
0000
,  // measure 29
0000
0000
0000
0000
0000
0000
0000
0001
0000
0000
0000
0000
0000
0000
0000
0000
,  // measure 30
0000
0000
0000
0000
0000
0000
0000
1000
0000
0000
0000
0000
0000
0000
0000
0010
,  // measure 31
0000
0000
0000
0000
0000
0000
0000
0100
0000
0000
0000
0000
0000
0000
0000
0000
,  // measure 32
0000
0000
0000
0000
0000
0000
0000
0001
0000
0000
0000
0000
0000
0000
0000
0000
,  // measure 33
0000
0000
0000
0000
0000
0000
0000
0010
0000
0000
0000
0000
0000
0000
0000
0000
,  // measure 34
0000
0000
0000
0000
0000
0000
0000
0100
0000
0000
0000
0000
0000
0000
0000
1000
,  // measure 35
0000
0000
0000
0000
0000
0000
0000
0001
0000
0000
0000
0000
0000
0000
0000
0000
,  // measure 36
0000
0000
0000
0000
0000
0000
0000
0100
0000
0000
0000
0000
0000
0000
0000
0000
,  // measure 37
0000
0000
0000
0000
0000
0000
0000
0010
0000
0000
0000
0000
0000
0000
0000
0001
,  // measure 38
0000
0000
0000
0000
0000
0000
0000
1000
0000
0000
0000
0000
0000
0000
0000
0100
,  // measure 39
0000
0000
0000
0000
0000
0000
0000
0010
0000
0000
0000
0000
0000
0000
0000
0000
,  // measure 40
0000
0000
0000
1000
0000
0000
0000
0000
0000
0000
0000
0000
0000
0000
0000
0001
,  // measure 41
0000
0000
0000
0000
0000
0000
0000
0000
0000
0000
0000
0100
0000
0000
0000
0000
,  // measure 42
0000
0000
0000
0000
0000
0000
0000
0010
0000
0000
0000
0000
0000
0000
0000
0000
,  // measure 43
0000
0000
0000
0100
0000
0000
0000
0000
0000
0000
0000
0000
0000
0000
0000
0000
,  // measure 44
0000
0010
0000
0000
0000
0000
0000
0010
0000
0000
0000
0000
0110
0000
0000
0000
;
