#TITLE:Frozen Bond;
#SUBTITLE:;
#ARTIST:paraoka;
#TITLETRANSLIT:;
#SUBTITLETRANSLIT:;
#ARTISTTRANSLIT:;
#CREDIT:;
#BANNER:Frozen Bond.png;
#BACKGROUND:Frozen Bond-bg.png;
#LYRICSPATH:;
#CDTITLE:cdtitle.png;
#MUSIC:Frozen Bond.mp3;
#OFFSET:-2.250;
#SAMPLESTART:20.400;
#SAMPLELENGTH:12.000;
#SELECTABLE:YES;
#BPMS:0.000=106.000,77.000=90.000,78.000=80.000,80.000=106.000,168.500=101.000,169.000=82.000,169.500=66.000,170.000=35.000,171.000=15.500,172.000=106.000;
#STOPS:156.000=1.740
;
#BGCHANGES:;

//---------------dance-single - BASIC----------------
#NOTES:
     dance-single:
     BASIC:
     Easy:
     2:
     0.162,0.180,0.075,0.000,0.000:
0000
0000
0000
0000
,
0000
0000
0000
0000
,
0000
0000
0000
0000
,
0000
0000
0000
0000
,
1000
0000
0001
0000
,
0100
0000
0010
0000
,
1000
0100
0001
0010
,
1000
0001
1001
0000
,
0001
0000
1000
0000
,
0100
0000
0010
0000
,
0001
0100
1000
0010
,
0001
1000
1001
0000
,
1000
0000
0001
0000
,
0010
0100
1000
0000
,
0001
0000
1000
0000
,
0010
0100
0001
0000
,
1000
0000
0001
0000
,
0010
0100
1000
0000
,
0001
1000
0010
0100
,
0001
0010
1000
0100
,
0001
0000
1000
0000
,
0010
0000
0100
0000
,
0001
0010
1000
0100
,
0001
1000
1001
0000
,
1000
0000
0001
0000
,
0100
0000
0010
0000
,
1000
0100
0001
0010
,
1000
0001
1001
0000
,
1000
0100
1000
0010
,
0100
0010
0100
0001
,
1000
0100
0001
0010
,
1000
0001
1001
0000
,
0001
0100
0001
0100
,
0010
0100
0010
1000
,
0001
0100
1000
0010
,
0001
1000
1001
0000
,
1000
0000
1000
0000
,
0001
0000
1001
0000
,
0001
0000
0001
0000
,
1000
0000
1000
0000
,
0001
0000
0001
1001
,
0000
1000
0000
1000
,
0000
0001
1000
0001
;

//---------------dance-single - TRICK----------------
#NOTES:
     dance-single:
     TRICK:
     Medium:
     3:
     0.240,0.261,0.262,0.093,0.000:
0000
0000
0000
0000
,
0000
0000
0000
0000
,
0000
0000
0000
0000
,
0000
0000
0000
0000
,
1000
0100
0001
0010
,
0200
0000
0310
0000
,
1100
0100
0101
0010
,
1000
0001
1001
0110
,
0001
0100
1000
0010
,
0200
0000
0310
0000
,
0101
0100
1100
0010
,
0001
1000
1001
0110
,
1000
0000
0100
0100
0001
0000
0010
0000
,
0010
0100
2000
0000
,
3001
0100
1000
0100
,
0010
0000
0002
0000
,
1003
0000
0001
0010
,
0001
0100
2000
0000
,
3001
1000
0010
0100
,
0011
1010
1100
0101
,
1000
0010
0001
0100
,
0020
0000
0130
0000
,
0110
1000
0101
0001
,
0010
1000
1001
0110
,
0001
0010
1000
0100
,
0020
0000
0130
0000
,
0110
0001
1100
1000
,
0010
0001
1001
0110
,
1000
0100
0010
0100
,
1000
0020
0001
0031
,
1000
0100
0001
0010
,
1000
0001
1001
0110
,
0001
0100
0010
0100
,
0001
0020
1000
1030
,
0001
0100
1000
0010
,
0001
1000
1001
0110
,
1000
0100
1000
0000
,
0001
0100
1001
0000
,
0001
0100
1000
0010
,
1001
1000
1000
0100
,
0001
0010
0001
1001
,
0001
1000
0010
1000
,
0001
0010
1000
1002
,
0003
0000
0000
0000
;

//---------------dance-single - HEAVY----------------
#NOTES:
     dance-single:
     HEAVY:
     Hard:
     7:
     0.379,0.382,0.262,0.206,0.019:
0000
0000
0000
0000
,
0000
0000
0000
0000
,
0000
0000
0000
0000
,
0000
0000
0000
0000
,
1000
0100
0001
0010
0001
0000
0010
0000
,
0100
1000
0100
0000
0010
0100
0001
0000
,
1100
0100
0010
0000
0001
0010
1000
0000
,
1000
0100
0001
0010
1001
0000
0110
0000
,
0001
0100
1000
0010
1000
0000
0010
0000
,
0100
0001
0100
0000
0010
0100
1000
0000
,
0101
0100
0010
0000
1000
0010
0001
0000
,
0001
0100
1000
0010
1001
0000
0110
0000
,
1000
0000
0000
0000
0000
0000
0000
0000
0100
0000
0000
0000
0000
0000
0000
0000
0001
0010
0000
0000
0000
0000
0000
0000
0010
0100
0000
0000
0000
0000
0000
0000
,
0010
1000
0100
0001
2000
0000
3100
0000
,
1001
1100
1010
0101
,
0020
0000
0000
1030
0002
0000
0103
0000
,
1001
0000
0000
0000
0000
0000
0000
0000
0100
0000
0000
0000
0000
0000
0000
0000
0001
0010
0000
0000
0000
0000
0000
0000
0010
0100
0000
0000
0000
0000
0000
0000
,
1000
0100
0001
0010
2000
0000
3100
0000
,
1001
0100
1000
0010
0100
0010
1000
0100
,
0001
1000
0100
0001
,
1000
0100
0001
0010
1000
0000
0100
0000
,
0010
0100
1000
0000
0002
0000
1003
0000
,
0110
0100
1000
0000
1000
0100
0001
0000
,
0001
0010
1000
0100
1001
0000
0110
0000
,
0001
0100
1000
0010
0001
0000
0100
0000
,
0010
0100
0001
0000
2000
0000
3001
0000
,
0110
0100
0001
0000
0001
0100
1000
0000
,
1000
0010
0001
0100
1001
0000
0110
0000
,
2000
0100
3100
0010
0001
0200
1000
0000
,
1300
0020
0001
0000
0031
0100
1000
0000
,
2100
0100
3020
0000
0031
0200
1000
0000
,
1300
0010
0001
0100
1001
0000
0110
0000
,
0002
0100
0103
0010
1000
0200
0001
0000
,
0301
0020
1000
0000
1030
0100
0001
0000
,
0102
0100
0023
0000
1030
0200
0001
0000
,
0301
0010
1000
0100
1001
0000
0110
0000
,
1000
1000
0100
0100
0010
0010
0001
0001
,
0010
0010
0100
0100
1002
0000
1003
0000
,
1000
1000
0010
0010
0100
0100
0001
1000
,
1001
0000
1000
0100
1000
0010
0001
0000
,
0010
1000
0100
0010
0001
0000
2001
0000
,
3001
0000
1000
0010
0001
0100
1000
0000
,
0001
0100
1000
0010
0001
0000
2002
0000
,
3003
0000
0000
0000
;

//---------------dance-single - ONI----------------
#NOTES:
     dance-single:
     ONI:
     Challenge:
     8:
     0.491,0.462,0.430,0.430,0.136: // measure 1
0000
0000
0000
0000
,  // measure 2
0000
0000
0000
0000
,  // measure 3
0000
0000
0000
0000
,  // measure 4
0000
0000
0000
0000
,  // measure 5
2100
0100
3100
0010
0102
0000
0023
0000
,  // measure 6
0130
2000
0100
0000
3020
0100
0001
0030
,  // measure 7
1010
1000
0200
0000
0301
0020
1000
0000
,  // measure 8
1030
0000
0100
0000
0001
0000
0010
0000
1001
0000
1000
0100
1000
0000
0001
0000
,  // measure 9
0102
0100
0103
0010
2100
0000
3020
0000
,  // measure 10
0130
0002
0100
0000
0023
0100
1000
0030
,  // measure 11
0101
0001
0200
0000
1300
0020
0001
0000
,  // measure 12
0031
0000
0100
0000
1000
0000
0010
0000
1001
0000
1000
0100
1000
0000
0001
0000
,  // measure 13
1000
0000
0000
0000
0000
0000
0000
0000
0100
0000
0000
0000
0100
0000
0000
0000
0001
0010
0000
0000
0000
0000
0000
0000
0010
0100
0000
0000
0000
0000
0000
0000
,  // measure 14
0010
0000
1000
0100
0001
0000
0100
0000
1100
0000
1000
0000
0100
0000
0100
0000
,  // measure 15
1001
1100
1010
0101
,  // measure 16
0020
0100
0000
0000
0000
0000
0000
0000
0000
0000
0000
0000
1030
0000
0100
0000
0002
0000
0000
0000
0000
0000
0000
0000
0103
0000
0000
0000
0000
0000
0000
0000
,  // measure 17
1001
0000
0000
0000
0000
0000
0000
0000
0100
0000
0000
0000
0000
0000
0000
0000
0001
0010
0000
0000
0000
0000
0000
0000
0010
0100
0000
0000
0000
0000
0000
0000
,  // measure 18
1000
0000
1000
0100
0001
0000
0010
0000
1100
0000
1000
0000
0100
0000
0100
0000
,  // measure 19
1001
0000
1000
0100
1000
0000
0010
0000
0100
0000
0010
0000
1000
0000
0100
0000
,  // measure 20
0001
0100
0000
0000
0000
0000
0000
0000
0100
1000
0000
0000
0000
0000
0000
0000
1000
0010
0000
0000
0000
0000
0000
0000
0001
0100
0000
0000
0000
0000
0000
0000
,  // measure 21
1100
0100
0001
0010
2000
0000
3100
0100
,  // measure 22
0010
0100
1000
0100
0002
1000
1003
0100
,  // measure 23
0110
0100
1000
1000
1000
0200
0001
0000
,  // measure 24
0301
0000
0010
0000
1000
0000
0100
0000
1001
0000
1000
0100
1000
0000
0001
0000
,  // measure 25
0010
0100
1000
0010
0002
0000
0103
0000
,  // measure 26
0010
0100
0001
0001
2000
0100
3100
0010
,  // measure 27
0110
0200
0001
0000
0301
0200
1000
0000
,  // measure 28
1300
0000
0010
0000
0001
0000
0100
0000
1001
0000
0001
0100
0001
0000
1000
0000
,  // measure 29
1000
0100
0210
0010
0301
0100
1200
0000
,  // measure 30
1300
0010
0021
0000
0031
0100
1100
0000
,  // measure 31
1100
0100
0021
0000
0031
0100
1000
0000
,  // measure 32
1100
0000
0100
0000
1001
0000
0001
0000
1001
0000
1000
0100
1000
0000
0001
0000
,  // measure 33
0001
0100
0101
0020
1000
0130
0101
0200
,  // measure 34
0001
1300
1200
0000
1300
0100
0101
0000
,  // measure 35
0101
0100
1020
0000
1030
0100
0101
0000
,  // measure 36
0101
0000
0100
0000
1100
0000
1000
0000
1001
0000
0001
0100
0001
0000
1000
0000
,  // measure 37
1000
0100
0000
0000
0000
0000
0000
0000
0100
0010
0000
0000
0000
0000
0000
0000
0010
0001
0000
0000
0000
0000
0000
0000
0001
0010
0000
0000
0000
0000
0000
0000
,  // measure 38
0010
0100
0000
0000
0000
0000
0000
0000
0100
1000
0000
0000
0000
0000
0000
0000
1002
0000
0000
0000
0000
0000
0000
0000
1003
0000
0000
0000
0000
0000
0000
0000
,  // measure 39
1000
0010
0000
0000
0000
0000
0000
0000
0010
0100
0000
0000
0000
0000
0000
0000
0100
0001
0000
0000
0000
0000
0000
0000
0001
1000
0000
0000
1000
0000
0000
0000
,  // measure 40
2002
3003
0000
0000
0000
0000
0000
0000
0000
0000
0000
0000
0000
0000
0000
0000
1000
0000
0000
0000
0000
0000
0000
0000
0200
0000
0000
0000
0000
0000
0000
0000
1000
0000
0000
0000
0000
0000
0000
0000
0310
0000
0000
0000
0000
0000
0000
0000
0002
0000
0000
0000
0000
0000
0000
0000
0000
0000
0000
0000
0000
0000
0000
0000
,  // measure 41
0013
1000
1100
0010
0101
0000
2001
0000
,  // measure 42
3002
0000
1003
0020
0001
0130
1000
0000
,  // measure 43
0002
0000
0020
0003
2000
0030
0200
3000
0002
0000
0303
0000
2002
0000
0000
0000
,  // measure 44
3003
0000
0000
0000
;

//---------------dance-single - Beginner----------------
#NOTES:
     dance-single:
     Beginner:
     Beginner:
     1:
     0.123,0.140,0.131,0.000,0.000:
0000
0000
0000
0000
,
0000
0000
0000
0000
,
0000
0000
0000
0000
,
0000
0000
0000
0000
,
1000
0000
0001
0000
,
0100
0000
0010
0000
,
1001
0000
0001
0000
,
1000
0000
1001
0000
,
0001
0000
1000
0000
,
0100
0000
0010
0000
,
1001
0000
1000
0000
,
0001
0000
1001
0000
,
1000
0000
0001
0000
,
0010
0000
1000
0000
,
0001
0000
1000
0000
,
1001
0000
0001
0000
,
1000
0000
0001
0000
,
0010
0000
1000
0000
,
0001
0000
0010
0000
,
0001
0000
1000
0000
,
0001
0000
1000
0000
,
0010
0000
0100
0000
,
1001
0000
1000
0000
,
0001
0000
1001
0000
,
1000
0000
0001
0000
,
0100
0000
0010
0000
,
1001
0000
0001
0000
,
1000
0000
1001
0000
,
0010
0000
0010
0000
,
0010
0000
0010
0000
,
1000
0000
0001
0000
,
1000
0000
1001
0000
,
0010
0000
0010
0000
,
0010
0000
0010
0000
,
1000
0000
0001
0000
,
1000
0000
1001
0000
,
1000
0000
1000
0000
,
0001
0000
1001
0000
,
0001
0000
0001
0000
,
1000
0000
1000
0000
,
0000
0001
0000
1001
,
0000
1000
0000
1000
,
0000
0001
0000
1001
;
