#TITLE:Free Hand zero;
#SUBTITLE:;
#ARTIST:菊田研究所/lactate;
#TITLETRANSLIT:;
#SUBTITLETRANSLIT:;
#ARTISTTRANSLIT:;
#CREDIT:;
#BANNER:Free Hand zero.png;
#BACKGROUND:Free Hand zero-bg.png;
#LYRICSPATH:;
#CDTITLE:cdtitle.png;
#MUSIC:Free Hand zero.mp3;
#OFFSET:-0.950;
#SAMPLESTART:81.460;
#SAMPLELENGTH:12.000;
#SELECTABLE:YES;
#BPMS:0.000=260.001;
#STOPS:;
#BGCHANGES:-4.000=Free Hand zero.avi=1.000=1=1=0,
599.000=Free Hand zero-bg.png=1.000=1=0=1,
99999=-nosongbg-=1.000=0=0=0 // don't automatically add -songbackground-
;

//---------------dance-single - BASIC----------------
#NOTES:
     dance-single:
     BASIC:
     Easy:
     5:
     0.438,0.471,0.154,0.035,0.003: // measure 1
0000
0000
0000
0000
,  // measure 2
0000
0000
0000
0000
,  // measure 3
0000
0000
0000
0000
,  // measure 4
0000
0000
0000
0000
,  // measure 5
0000
0000
0000
0000
,  // measure 6
0000
0000
0000
0000
,  // measure 7
0000
0000
0000
0000
,  // measure 8
0000
0000
0000
0000
,  // measure 9
0001
0000
1000
0000
,  // measure 10
1000
0010
0100
0001
,  // measure 11
1000
0000
0001
0000
,  // measure 12
0001
0010
0100
1000
,  // measure 13
0001
0000
1000
0000
,  // measure 14
1000
0010
0100
0001
,  // measure 15
1000
0000
0001
0000
,  // measure 16
0001
0010
0100
1000
,  // measure 17
0001
0000
1000
0000
,  // measure 18
1000
0010
0100
0001
,  // measure 19
1000
0000
0001
0000
,  // measure 20
0001
0010
0100
1000
,  // measure 21
0001
0000
1000
0000
,  // measure 22
1000
0010
0100
0001
,  // measure 23
1000
0000
0001
0000
,  // measure 24
0001
0010
0100
1000
,  // measure 25
0001
0000
0110
0000
,  // measure 26
1001
0000
1000
0000
,  // measure 27
0010
0000
0000
0100
0000
0000
0002
0000
,  // measure 28
0000
0000
0000
0000
,  // measure 29
1003
0010
0100
0001
,  // measure 30
0100
0010
1000
0100
,  // measure 31
0010
0001
0010
0100
,  // measure 32
1000
0001
1000
0001
,  // measure 33
1000
0010
0100
0010
,  // measure 34
0100
0010
1000
0100
,  // measure 35
1000
0010
0100
0010
,  // measure 36
1000
0100
1000
0001
,  // measure 37
0100
0001
1000
0010
,  // measure 38
0100
0010
1000
0001
,  // measure 39
0100
0010
0100
0001
,  // measure 40
0010
0100
1000
0100
,  // measure 41
0010
0001
0010
1000
,  // measure 42
0100
0001
0010
1000
,  // measure 43
0100
0001
0010
0100
,  // measure 44
1000
0100
0010
0100
,  // measure 45
1000
0000
0110
0000
,  // measure 46
1001
0000
0001
0000
,  // measure 47
0100
0000
0000
0010
0000
0000
1000
0000
,  // measure 48
0002
0000
0000
0003
,  // measure 49
1001
0000
1000
0000
,  // measure 50
1000
0000
1000
0000
,  // measure 51
1000
1000
1000
1000
,  // measure 52
1000
0010
0001
0100
,  // measure 53
1000
0010
0001
0100
,  // measure 54
1000
0010
0001
0010
,  // measure 55
1000
0010
0001
0100
,  // measure 56
1000
0010
0001
0100
,  // measure 57
1000
0000
1001
0000
,  // measure 58
0001
0001
0001
0001
,  // measure 59
0001
0001
0001
0001
,  // measure 60
0001
0001
0001
0001
,  // measure 61
0001
0100
1000
0100
,  // measure 62
0001
0010
0100
1000
,  // measure 63
0100
0010
0001
1000
,  // measure 64
0010
0100
0001
1000
,  // measure 65
0010
0000
1001
0000
,  // measure 66
0100
0000
0001
0000
,  // measure 67
1000
0000
0000
0001
0000
0000
0100
0000
,  // measure 68
0000
0020
0000
0000
,  // measure 69
0030
0000
1000
0000
,  // measure 70
0100
0000
0010
0000
,  // measure 71
0001
0000
0100
0000
,  // measure 72
0010
0000
0010
0000
,  // measure 73
0100
0000
0100
0000
,  // measure 74
1000
0000
0001
0000
,  // measure 75
0010
0000
0010
0000
,  // measure 76
1000
0000
0100
0000
,  // measure 77
0001
0000
0010
0000
,  // measure 78
0010
0000
1000
0000
,  // measure 79
0010
0000
0001
0000
,  // measure 80
0100
0000
1000
0000
,  // measure 81
0100
0000
0001
0000
,  // measure 82
0010
0000
0100
0000
,  // measure 83
1000
0000
0001
0000
,  // measure 84
0010
0000
0100
0000
,  // measure 85
1000
0000
0001
0000
,  // measure 86
1001
0000
0010
0000
,  // measure 87
1000
0000
0000
0100
0000
0000
0010
0000
,  // measure 88
0000
0001
0000
0000
,  // measure 89
1001
0000
1000
0000
,  // measure 90
0010
0010
0000
0000
,  // measure 91
1000
0000
0001
0000
,  // measure 92
0010
0010
0000
0010
,  // measure 93
1000
0100
0010
0001
,  // measure 94
0100
0010
1000
0100
,  // measure 95
0010
0001
0100
0010
,  // measure 96
1000
0100
0010
0001
,  // measure 97
0010
0100
1000
0010
,  // measure 98
1000
0100
0100
1000
,  // measure 99
0100
0010
0001
1000
,  // measure 100
0001
0100
0100
0010
,  // measure 101
1000
0001
0100
1000
,  // measure 102
0100
0001
0010
0100
,  // measure 103
0010
0001
0010
0100
,  // measure 104
1000
0100
0010
0100
,  // measure 105
1000
0000
1001
0000
,  // measure 106
0110
0000
0001
0000
,  // measure 107
1000
0000
0000
0001
0000
0000
0010
0000
,  // measure 108
0000
0110
0000
0000
,  // measure 109
1000
0000
1000
0000
,  // measure 110
0100
0000
0100
0000
,  // measure 111
1000
0000
1000
0000
,  // measure 112
0100
0000
0100
0000
,  // measure 113
1000
0000
0100
0000
,  // measure 114
1000
0000
0100
0000
,  // measure 115
1000
0000
1000
0000
,  // measure 116
1000
0000
0000
0001
0000
0000
0000
0001
0000
0000
0000
0000
,  // measure 117
0010
0000
0010
0000
,  // measure 118
0100
0000
0100
0000
,  // measure 119
1000
0000
1000
0000
,  // measure 120
0010
0000
0010
0000
,  // measure 121
1000
0000
1000
0000
,  // measure 122
0001
0000
0001
0000
,  // measure 123
0010
0000
0010
0000
,  // measure 124
0100
0200
0300
0000
,  // measure 125
1001
0000
0110
0000
,  // measure 126
1001
0000
0000
0000
,  // measure 127
0001
0100
0010
1000
,  // measure 128
0001
1000
0100
0010
,  // measure 129
0100
1000
0001
0100
,  // measure 130
0010
0100
0001
1000
,  // measure 131
0010
1000
0001
0100
,  // measure 132
0010
0001
0010
0100
,  // measure 133
0001
1000
0100
0010
,  // measure 134
0100
1000
0001
1000
,  // measure 135
0010
0100
0010
1000
,  // measure 136
0001
1000
0100
0010
,  // measure 137
0001
0100
0010
1000
,  // measure 138
0100
0010
0001
1000
,  // measure 139
0001
1000
0100
0010
,  // measure 140
0100
0010
0100
1000
,  // measure 141
0001
0100
0010
0100
,  // measure 142
0001
1000
0100
0010
,  // measure 143
0001
0000
0110
0000
,  // measure 144
1001
0000
1000
0000
,  // measure 145
1001
0000
0110
0000
,  // measure 146
0002
0000
0000
0000
,  // measure 147
1003
0000
0110
0000
,  // measure 148
1001
0000
0000
0000
,  // measure 149
1001
0000
0000
0010
0000
0000
0100
0000
,  // measure 150
0000
0000
0000
0100
;

//---------------dance-single - TRICK----------------
#NOTES:
     dance-single:
     TRICK:
     Medium:
     8:
     0.654,0.942,1.000,0.035,0.052: // measure 1
0000
0000
0000
0000
,  // measure 2
0000
0000
0000
0000
,  // measure 3
0000
0000
0000
0000
,  // measure 4
0000
0000
0000
0000
,  // measure 5
0000
0000
0000
0000
,  // measure 6
0000
0000
0000
0000
,  // measure 7
0000
0000
0000
0000
,  // measure 8
0000
0000
0000
0000
,  // measure 9
0001
0000
0000
0100
0010
0000
0000
0000
,  // measure 10
1010
0101
1010
0101
,  // measure 11
1000
0000
0000
0100
0010
0000
0000
0000
,  // measure 12
0011
1100
0011
1100
,  // measure 13
0001
0000
0000
0000
0100
0010
0000
0000
,  // measure 14
1010
0101
1010
0101
,  // measure 15
1000
0000
0000
0100
0010
0000
0000
0000
,  // measure 16
0011
1100
0011
1100
,  // measure 17
0001
0000
0000
1000
0010
0000
0000
0000
,  // measure 18
1001
0110
1001
0110
,  // measure 19
1000
0000
0000
0001
0010
0000
0000
0000
,  // measure 20
1001
0110
1001
0110
,  // measure 21
0001
0000
0000
1000
0001
0000
0000
0000
,  // measure 22
1010
0101
0101
1010
,  // measure 23
0001
0000
0000
0001
1000
0000
0000
0000
,  // measure 24
0011
1100
1100
0011
,  // measure 25
0001
0100
0010
0010
,  // measure 26
1010
0000
1000
0000
,  // measure 27
1010
0000
0000
0110
0000
0000
0102
0000
,  // measure 28
0000
0000
0000
0000
,  // measure 29
1003
1000
0010
0100
,  // measure 30
0001
0100
1000
0100
,  // measure 31
0011
1000
0011
0010
,  // measure 32
1100
0001
1100
0010
,  // measure 33
1000
1000
0100
0010
,  // measure 34
0100
1000
1000
0100
,  // measure 35
1010
0100
1010
0001
,  // measure 36
1010
0100
1010
0100
,  // measure 37
0001
1000
1000
0001
,  // measure 38
0100
0100
0010
1000
,  // measure 39
1100
1100
1010
1010
,  // measure 40
0011
0011
0101
0101
,  // measure 41
1100
1100
1000
0010
,  // measure 42
0001
0100
1000
1100
,  // measure 43
0101
0011
1010
1100
,  // measure 44
1000
0010
0001
0100
,  // measure 45
1000
0100
0100
0010
,  // measure 46
1001
0000
0001
0000
,  // measure 47
0101
0000
0000
0110
0000
0000
1010
0000
,  // measure 48
2000
0000
0000
3000
,  // measure 49
1001
0000
1001
0000
,  // measure 50
1001
0000
1001
0000
,  // measure 51
1001
1001
1001
1001
,  // measure 52
1001
1010
1010
1001
,  // measure 53
1001
0101
0101
1100
,  // measure 54
1100
1010
1001
1010
,  // measure 55
1001
1010
1001
1010
,  // measure 56
1001
0001
0100
1000
,  // measure 57
0010
0000
1001
0000
,  // measure 58
1001
0010
1001
0010
,  // measure 59
1001
0010
1001
0010
,  // measure 60
1001
0010
1001
0010
,  // measure 61
1001
0100
0100
1000
,  // measure 62
1000
0001
0100
1000
,  // measure 63
0100
0001
0010
1000
,  // measure 64
0010
0100
0001
1000
,  // measure 65
0010
0001
0001
0100
,  // measure 66
1001
0000
0001
0000
,  // measure 67
1001
0000
0000
0101
0000
0000
1010
0000
,  // measure 68
0000
0020
0000
0000
,  // measure 69
0130
0000
0000
0000
0000
1000
0000
0000
0000
0000
0100
0000
,  // measure 70
0000
0000
0000
0001
0000
0000
0000
0000
0010
0000
0000
0000
,  // measure 71
0000
0100
0000
0000
0000
0000
1000
0000
0000
0010
0000
0000
,  // measure 72
0010
0100
0100
0001
,  // measure 73
0100
0001
0100
0010
,  // measure 74
1000
0100
0001
0100
,  // measure 75
1000
0010
0010
0000
,  // measure 76
1000
0100
0001
0010
,  // measure 77
0100
0000
0000
0000
0000
0110
0000
0000
0000
0010
0000
0000
,  // measure 78
0000
0000
0011
0000
0000
0000
0001
0000
0000
0000
0000
1001
,  // measure 79
0000
0000
0000
1000
0000
0000
0000
0000
1100
0000
0000
0000
,  // measure 80
0100
0100
0001
0001
,  // measure 81
0100
1000
0100
0001
,  // measure 82
0100
1000
0100
0010
,  // measure 83
0001
0100
1000
0100
,  // measure 84
0001
0100
1000
0100
,  // measure 85
0001
0010
0100
0100
,  // measure 86
1001
0000
0010
0000
,  // measure 87
1001
0000
0000
0110
0000
0000
1001
0000
,  // measure 88
0000
0002
0000
0003
,  // measure 89
1001
0000
1010
0000
,  // measure 90
0010
0000
0100
0000
0000
0100
0000
0000
0000
0000
0000
0000
,  // measure 91
1000
0000
0001
0000
,  // measure 92
0010
0000
0000
0000
0100
0000
0000
0000
0000
0000
0100
0000
0000
0000
0000
0000
0000
0000
1000
0000
0000
0100
0000
0000
,  // measure 93
1000
0100
0010
0001
0010
0001
1000
0100
,  // measure 94
1000
0100
0010
0001
0010
0001
1000
0100
,  // measure 95
1000
0100
0010
0001
0010
0001
1000
0100
,  // measure 96
1000
0100
0000
0000
0000
0000
0001
0000
,  // measure 97
0010
0100
1000
0010
,  // measure 98
1000
0101
0101
1000
,  // measure 99
0010
0100
0001
0010
,  // measure 100
0001
1100
1100
0001
,  // measure 101
0010
0010
0100
1000
,  // measure 102
1000
0100
0010
0100
,  // measure 103
1000
0010
0001
0100
,  // measure 104
1000
0100
0001
0100
,  // measure 105
1000
0010
0100
0100
,  // measure 106
0110
0000
0001
0000
,  // measure 107
1001
0000
0000
0011
0000
0000
1100
0000
,  // measure 108
0000
0110
0000
0000
,  // measure 109
1000
0000
1000
0000
,  // measure 110
0100
0000
0100
0000
,  // measure 111
0010
0000
0010
0000
,  // measure 112
0001
0000
0001
0000
,  // measure 113
1100
0000
1100
0000
,  // measure 114
1100
0000
1100
0000
,  // measure 115
0001
0000
0001
0000
,  // measure 116
0010
0000
0000
0001
0000
0000
0000
0001
0000
0000
0000
0000
,  // measure 117
0010
0010
0100
0100
,  // measure 118
1000
1000
0100
0100
,  // measure 119
1000
1000
0100
0100
,  // measure 120
0010
0010
0001
0001
,  // measure 121
1000
1000
0001
0001
,  // measure 122
0010
0010
0100
0100
,  // measure 123
1000
1000
0010
0010
,  // measure 124
0100
0000
0000
0000
0000
1000
0000
0000
0000
0000
0000
1000
0000
0000
0000
0000
0000
0000
0000
0000
0000
0000
0000
0000
,  // measure 125
1001
0010
0110
0100
,  // measure 126
1001
0000
0000
0000
,  // measure 127
0001
0000
0000
1000
0010
0000
1000
0000
,  // measure 128
1001
1010
1001
1010
,  // measure 129
1000
0000
0000
0001
0010
0000
0001
0000
,  // measure 130
1001
0101
1001
0101
,  // measure 131
0001
0000
0000
1000
0100
0000
1000
0000
,  // measure 132
1001
1100
1001
1100
,  // measure 133
1000
0000
0000
0001
0100
0000
0001
0000
,  // measure 134
1001
0011
1001
0011
,  // measure 135
0001
0000
0000
0100
0010
0000
1000
0000
,  // measure 136
1100
0011
1100
0011
,  // measure 137
1000
0000
0000
0100
0010
0000
0001
0000
,  // measure 138
0101
1010
0101
1010
,  // measure 139
0001
0000
0000
0010
0100
0000
1000
0000
,  // measure 140
1001
0110
1001
0110
,  // measure 141
1000
0000
0000
0010
0100
0000
0001
0000
,  // measure 142
1001
0110
1001
0110
,  // measure 143
0001
1000
0100
0100
,  // measure 144
1001
0000
1000
0000
,  // measure 145
1000
0001
0010
0010
,  // measure 146
1001
0000
0000
0000
,  // measure 147
1000
0010
0100
0100
,  // measure 148
1001
0000
0000
0000
,  // measure 149
0010
0000
0000
0010
0000
0000
0200
0000
,  // measure 150
0000
0000
0000
0300
;

//---------------dance-single - HEAVY----------------
#NOTES:
     dance-single:
     HEAVY:
     Hard:
     11:
     0.770,0.903,0.280,0.042,0.867: // measure 1
0000
0000
0000
0000
,  // measure 2
0000
0000
0000
0000
,  // measure 3
0000
0000
0000
0000
,  // measure 4
0000
0000
0000
0000
,  // measure 5
0000
0000
0000
0000
,  // measure 6
0000
0000
0000
0000
,  // measure 7
0000
0000
0000
0000
,  // measure 8
0000
0000
0000
0000
,  // measure 9
0001
0000
0000
0000
0000
1001
0000
0000
0000
0000
0000
0000
,  // measure 10
1000
0010
0000
1000
0010
0000
0100
0001
0000
0100
0001
0000
,  // measure 11
1000
0000
0000
0000
0000
1001
0000
0000
0000
0000
0000
0000
,  // measure 12
0001
0010
0000
0001
0010
0000
0100
1000
0000
0100
1000
0000
,  // measure 13
0001
0000
0000
0000
0000
1001
0000
0000
0000
0000
0000
0000
,  // measure 14
1000
0010
0000
1000
0010
0000
1000
0010
0000
1000
0010
0000
,  // measure 15
1000
0000
0000
0000
0000
1001
0000
0000
0000
0000
0000
0000
,  // measure 16
0001
0010
0000
0001
0010
0000
0001
0010
0000
0001
0010
0000
,  // measure 17
0001
0000
0000
0000
0000
1001
0000
0000
0000
0000
0000
0000
,  // measure 18
1000
0001
0000
1000
0010
0000
1000
0001
0000
1000
0010
0000
,  // measure 19
1000
0000
0000
0000
0000
1001
0000
0000
0000
0000
0000
0000
,  // measure 20
0001
0010
0000
0001
1000
0000
0001
0010
0000
0001
1000
0000
,  // measure 21
0001
0000
0000
0000
0000
1001
0000
0000
0000
0000
0000
0000
,  // measure 22
1000
0010
0000
0100
0001
0000
1000
0010
0000
0100
0001
0000
,  // measure 23
0001
0000
0000
0000
0000
1001
0000
0000
0000
0000
0000
0000
,  // measure 24
0001
0010
0000
0100
1000
0000
0001
0010
0000
0100
1000
0000
,  // measure 25
0001
0000
0100
0000
0100
0000
0010
0000
0010
0000
1000
0000
,  // measure 26
1010
0000
0000
0000
,  // measure 27
1000
0000
0010
0000
0000
0000
0000
0000
0000
0010
0000
0100
0000
0000
0000
0000
0000
0000
0100
0000
0002
0000
0000
0000
,  // measure 28
0000
0000
0000
0000
,  // measure 29
1003
0010
1000
0000
0010
0000
0100
0000
,  // measure 30
0001
0100
0001
0000
1000
0000
0100
0000
,  // measure 31
0010
0001
0000
0010
0001
0000
0010
0000
0000
0010
0000
0000
,  // measure 32
0100
1000
0000
0100
1000
0000
0100
0000
0000
0010
0000
0000
,  // measure 33
0001
0100
0010
0000
0100
0000
0010
0000
,  // measure 34
1000
0000
0000
0100
0000
0000
0010
0000
0000
0000
0000
0000
0001
0000
0000
0000
0000
0000
0001
0000
1000
0000
0000
0000
,  // measure 35
0001
0100
0000
0001
1000
0000
0001
0100
0000
0001
0000
0000
,  // measure 36
1000
0010
0000
1000
0001
0000
1000
0010
0000
1000
0001
0000
,  // measure 37
1000
0000
1000
0100
1000
0000
0001
0000
,  // measure 38
0100
0000
0010
0100
0010
0000
1000
0000
,  // measure 39
1000
0100
1000
0100
0010
0001
0010
0001
,  // measure 40
1000
0100
1000
0100
0010
0001
0010
0001
,  // measure 41
0100
0010
0100
0010
1000
0100
1000
0100
,  // measure 42
0010
0001
0010
0001
1000
0001
1000
0000
,  // measure 43
0010
0000
0100
0010
0100
0000
0001
0000
,  // measure 44
0100
0000
0010
0100
0010
0000
1000
0000
,  // measure 45
1000
0000
1000
0000
0100
0000
0100
0000
0010
0000
0010
0000
,  // measure 46
1001
0000
0000
0000
,  // measure 47
0001
0000
0100
0000
0000
0000
0000
0000
0000
0100
0000
0010
0000
0000
0000
0000
0000
0000
0010
0000
1000
0000
0000
0000
,  // measure 48
2000
0000
0000
3000
,  // measure 49
0001
0010
0000
0000
0000
0000
0001
0010
0000
0000
0000
0000
,  // measure 50
0001
0010
0000
0000
0000
0000
0001
0010
0000
0000
0000
0000
,  // measure 51
0001
0010
0000
0001
0010
0000
0001
0010
0000
0001
0010
0000
,  // measure 52
0001
1000
0000
0001
1000
0000
0100
1000
0000
0100
1000
0000
,  // measure 53
0001
1000
0000
0001
1000
0000
0001
0010
0000
0001
0010
0000
,  // measure 54
0100
1000
0000
0100
1000
0000
0001
1000
0000
0001
0010
0000
,  // measure 55
0001
1000
0000
0001
0100
0000
0001
1000
0000
0001
0010
0000
,  // measure 56
0001
1000
0000
0001
0000
0000
0100
0000
0000
1000
0000
0000
,  // measure 57
0010
0000
1001
0000
,  // measure 58
0010
0100
0000
0010
0100
0000
0010
0100
0000
0010
0100
0000
,  // measure 59
0010
0100
0000
0010
0100
0000
0010
0100
0000
0010
0100
0000
,  // measure 60
0010
0100
0000
0010
0100
0000
0010
0100
0000
0010
0100
0000
,  // measure 61
0010
0000
0100
0001
0100
0000
0010
0000
,  // measure 62
1000
0000
0001
0100
0010
0000
1000
0000
,  // measure 63
0100
0000
0010
0001
0010
0000
0100
0000
,  // measure 64
1000
0000
0100
0010
0001
0000
0010
0100
,  // measure 65
1000
0000
1000
0000
0001
0000
0001
0000
0100
0000
0100
0000
,  // measure 66
1001
0000
0000
0000
,  // measure 67
1000
0000
0001
0000
0000
0000
0000
0000
0000
0001
0000
0100
0000
0000
0000
0000
0000
0000
0100
0000
0010
0000
0000
0000
,  // measure 68
0000
0020
0000
0000
,  // measure 69
0130
0000
0000
0000
0000
1100
0000
0000
0000
0000
0100
0000
,  // measure 70
0000
0000
0000
0101
0000
0000
0000
0000
0001
0000
0000
0000
,  // measure 71
0000
0000
0011
0000
0000
0000
0000
0000
0000
0000
0000
0000
0010
0000
0000
0001
0000
0000
0010
0000
0000
0000
0000
0000
,  // measure 72
0010
0000
0100
0000
0100
1000
0100
0000
,  // measure 73
0010
0100
0010
0000
0100
1000
0100
0000
,  // measure 74
1000
0100
0001
0100
,  // measure 75
1000
0020
0030
0100
,  // measure 76
1000
0100
1000
0100
0001
0100
0001
0000
,  // measure 77
1000
0000
0100
0000
0000
0110
0000
0000
0000
0010
0000
0001
,  // measure 78
0000
0000
0011
0000
0000
0000
0001
0000
1000
0000
0000
1001
,  // measure 79
0000
0000
0000
1000
0000
0001
0000
0000
1001
0000
0000
0000
,  // measure 80
1000
0100
1000
0000
0001
0000
0001
0000
,  // measure 81
0100
1000
0100
0000
0001
0000
0001
0000
,  // measure 82
0010
0100
0010
0000
0100
0000
0010
0000
,  // measure 83
0001
0100
0010
0000
1000
0010
0100
0000
,  // measure 84
0001
1000
0100
0000
1000
0001
0100
0000
,  // measure 85
0001
0000
1000
0000
0001
0000
1000
0000
0001
0000
1000
0000
,  // measure 86
1001
0000
0000
0000
,  // measure 87
1000
0000
0001
0000
0000
0000
0000
0000
0000
0100
0000
0010
0000
0000
0000
0000
0000
0000
1000
0000
0001
0000
0000
0000
,  // measure 88
0000
0002
0000
0003
,  // measure 89
1000
0010
0000
1000
0001
0000
1000
0100
0000
1000
0010
0000
,  // measure 90
1000
0000
0000
0000
0000
0100
0000
0000
0000
0000
0100
0000
0000
0000
0000
0000
0000
0000
0000
0000
0000
0000
0000
0000
,  // measure 91
0001
0010
0000
0001
1000
0000
0001
0100
0000
0001
0010
0000
,  // measure 92
0001
0000
0000
0000
0000
0100
0000
0000
0000
0000
0100
0000
0000
0000
0000
0000
0000
0000
1000
0000
0000
0010
0000
0000
,  // measure 93
0100
0001
1000
0010
0100
0001
1000
0010
,  // measure 94
0100
0001
1000
0010
0100
0001
1000
0100
,  // measure 95
0010
0001
1000
0010
0100
0001
1000
0100
,  // measure 96
0010
0001
0000
0000
0000
0000
0001
0000
,  // measure 97
0010
0100
1000
1000
,  // measure 98
1000
0000
0000
0000
0000
0000
0101
0000
0000
0000
0000
0101
0000
0000
0000
0000
0000
0000
1000
0000
0000
0000
0000
0000
,  // measure 99
0010
0100
0001
0001
,  // measure 100
0001
0000
0000
0000
0000
0000
1100
0000
0000
0000
0000
1100
0000
0000
0000
0000
0000
0000
0001
0000
0000
0010
0000
0000
,  // measure 101
0001
0000
1000
0000
0010
0000
0100
0001
,  // measure 102
0100
0000
0001
0010
0100
0000
1000
0100
,  // measure 103
1000
0000
0010
0100
0001
0000
0100
0010
,  // measure 104
0100
0000
0001
0010
0100
0000
1000
0100
,  // measure 105
1000
0000
1000
0000
0010
0000
0010
0000
0100
0000
0100
0000
,  // measure 106
0101
0000
0000
0000
,  // measure 107
0001
0000
0010
0000
0000
0000
0000
0000
0000
1000
0000
0100
0000
0000
0000
0000
0000
0000
0001
0000
0010
0000
0000
0000
,  // measure 108
0000
1001
0000
0000
,  // measure 109
1000
1000
0100
0100
,  // measure 110
0010
0010
0001
0001
,  // measure 111
0100
0100
0010
0010
,  // measure 112
1000
1000
0100
0100
,  // measure 113
1000
0100
0000
0100
1000
0000
1000
0100
0000
0100
1000
0000
,  // measure 114
1000
0100
0000
0100
1000
0000
1000
0100
0000
0100
1000
0000
,  // measure 115
1000
1000
0100
0100
,  // measure 116
0010
0000
0000
0011
0000
0000
0000
0011
0000
0000
0000
0000
,  // measure 117
0001
0010
0000
0010
0100
0000
0100
1000
0000
1000
0001
0000
,  // measure 118
0001
1000
0000
1000
0010
0000
0010
0100
0000
0100
0001
0000
,  // measure 119
0001
1000
0000
1000
0001
0000
0001
0010
0000
0010
0100
0000
,  // measure 120
0100
1000
0000
1000
0100
0000
0100
1000
0000
1000
0010
0000
,  // measure 121
0010
0100
0000
0100
0001
0000
0001
1000
0000
1000
0001
0000
,  // measure 122
0001
0010
0000
0010
0001
0000
0001
1000
0000
1000
0100
0000
,  // measure 123
0100
1000
0000
1000
0100
0000
0100
0010
0000
0010
0100
0000
,  // measure 124
0100
0000
0000
0000
0000
1000
0000
0000
0000
0000
0000
1000
0000
0000
0000
0000
0000
0000
0000
0000
0000
0000
0000
0000
,  // measure 125
0010
0000
0001
0000
0100
0000
0010
0000
1000
0000
0100
0000
,  // measure 126
1001
0000
0000
0000
,  // measure 127
1000
0000
0000
0000
0000
1001
0000
0000
0000
0000
0000
0000
,  // measure 128
0001
0010
0000
0001
0010
0000
0100
1000
0000
0100
1000
0000
,  // measure 129
0001
0000
0000
0000
0000
1001
0000
0000
0000
0000
0000
0000
,  // measure 130
1000
0010
0000
1000
0010
0000
0100
0001
0000
0100
0001
0000
,  // measure 131
1000
0000
0000
0000
0000
1001
0000
0000
0000
0000
0000
0000
,  // measure 132
0001
0010
0000
0001
0010
0000
0001
0010
0000
0001
0010
0000
,  // measure 133
0001
0000
0000
0000
0000
1001
0000
0000
0000
0000
0000
0000
,  // measure 134
1000
0010
0000
1000
0010
0000
1000
0010
0000
1000
0010
0000
,  // measure 135
1000
0000
0000
0000
0000
1001
0000
0000
0000
0000
0000
0000
,  // measure 136
0001
1000
0000
0001
0010
0000
0001
1000
0000
0001
0010
0000
,  // measure 137
0001
0000
0000
0000
0000
1001
0000
0000
0000
0000
0000
0000
,  // measure 138
1000
0010
0000
1000
0001
0000
1000
0010
0000
1000
0001
0000
,  // measure 139
1000
0000
0000
0000
0000
1001
0000
0000
0000
0000
0000
0000
,  // measure 140
0001
0010
0000
0100
1000
0000
0001
0010
0000
0100
1000
0000
,  // measure 141
1000
0000
0000
0000
0000
1001
0000
0000
0000
0000
0000
0000
,  // measure 142
1000
0010
0000
0100
0001
0000
1000
0010
0000
0100
0001
0000
,  // measure 143
1000
0000
0010
0000
0100
0000
0001
0000
0100
0000
0010
0000
,  // measure 144
1001
0000
0000
0000
,  // measure 145
0001
0000
0010
0000
0100
0000
1000
0000
0100
0000
0010
0000
,  // measure 146
1001
0000
0000
0000
,  // measure 147
1000
0000
0010
0000
0001
0000
0100
0000
1000
0000
0010
0000
,  // measure 148
1001
0000
0000
0000
,  // measure 149
0010
0000
0001
0000
0000
0000
0000
0000
0000
0100
0000
1000
0000
0000
0000
0000
0000
0000
0010
0000
0001
0000
0000
0000
,  // measure 150
0000
0000
0000
0002
,  // measure 151
0000
0000
0000
0000
,  // measure 152
0000
0000
0000
0000
,  // measure 153
0003
0000
0000
0000
;

//---------------dance-single - ONI----------------
#NOTES:
     dance-single:
     ONI:
     Challenge:
     12:
     0.934,0.903,0.482,0.070,1.000: // measure 1
0000
0000
0000
0000
,  // measure 2
0000
0000
0000
0000
,  // measure 3
0000
0000
0000
0000
,  // measure 4
0000
0000
0000
0000
,  // measure 5
0000
0000
0000
0000
,  // measure 6
0000
0000
0000
0000
,  // measure 7
0000
0000
0000
0000
,  // measure 8
0000
0000
0000
0000
,  // measure 9
0001
0000
0100
0000
0000
1001
0000
0000
0000
0000
0000
0000
,  // measure 10
1000
0001
0000
0100
0010
0000
1000
0001
0000
0100
0010
0000
,  // measure 11
1000
0000
0010
0000
0000
1001
0000
0000
0000
0000
0000
0000
,  // measure 12
0001
0010
0000
0100
1000
0000
0001
0010
0000
0100
1000
0000
,  // measure 13
0001
0000
0100
0000
0000
1001
0000
0000
0000
0000
0000
0000
,  // measure 14
0001
1000
0000
0010
0100
0000
0001
1000
0000
0010
0100
0000
,  // measure 15
0001
0000
0100
0000
0000
1001
0000
0000
0000
0000
0000
0000
,  // measure 16
1000
0010
0000
0100
0001
0000
1000
0010
0000
0100
0001
0000
,  // measure 17
1000
0000
0010
0000
0000
1001
0000
0000
0000
0000
0000
0000
,  // measure 18
1000
0010
0000
0100
0010
0000
1000
0010
0000
0100
0010
0000
,  // measure 19
1000
0000
0100
0000
0000
1001
0000
0000
0000
0000
0000
0000
,  // measure 20
0001
0010
0000
0100
0010
0000
0001
0010
0000
0100
0010
0000
,  // measure 21
0001
0000
0100
0000
0000
1001
0000
0000
0000
0000
0000
0000
,  // measure 22
1000
0010
0000
0010
1000
0000
1000
0010
0000
0010
1000
0000
,  // measure 23
0001
0000
0100
0000
0000
1001
0000
0000
0000
0000
0000
0000
,  // measure 24
0001
0010
0000
0010
0001
0000
0001
0010
0000
0010
0001
0000
,  // measure 25
0001
0000
0100
0000
0100
0000
0010
0000
0010
0000
1000
0000
,  // measure 26
1010
0000
1001
0000
,  // measure 27
1000
0000
0010
0000
0000
0000
0000
0000
0000
0010
0000
0100
0000
0000
0000
0000
0000
0000
0100
0000
0001
0000
0000
0000
,  // measure 28
0000
0000
0000
0001
0010
0000
0010
0100
0000
0100
1000
0000
,  // measure 29
1000
0010
0000
1000
0001
0000
1000
0100
0000
0100
0010
0000
,  // measure 30
0010
0001
0000
0001
0000
0000
1000
0000
0000
0110
0000
0000
,  // measure 31
0010
0001
0000
0010
0001
0000
0010
0000
0000
0110
0000
0000
,  // measure 32
0100
1000
0000
0100
1000
0000
0100
0000
0000
0010
0000
0000
,  // measure 33
0011
0000
0000
0010
0100
0000
1000
0100
0000
0010
0001
0000
,  // measure 34
0010
0100
0000
0010
0001
0000
0001
0000
0000
0001
1000
0000
,  // measure 35
0001
0100
0000
0001
1000
0000
0001
0100
0000
0001
0000
0000
,  // measure 36
1000
0010
0000
1000
0001
0000
1000
0010
0000
1000
0001
0000
,  // measure 37
1000
0000
0000
1000
0001
0000
1000
0001
0000
0001
1000
0000
,  // measure 38
0001
1000
0000
0010
0000
0000
0100
0000
0000
1000
0000
0000
,  // measure 39
1000
0100
1000
0100
0010
0001
0010
0001
,  // measure 40
1000
0100
1000
0100
0010
0001
0010
0001
,  // measure 41
0100
0010
0100
0010
1000
0100
1000
0100
,  // measure 42
0010
0001
0010
0001
1000
0001
1000
0000
,  // measure 43
0010
0100
0000
0100
0010
0000
0010
1000
0000
1000
0001
0000
,  // measure 44
0001
0000
0100
0000
0000
0000
0100
0000
0010
0000
0000
0000
0010
0000
0000
0100
0000
0000
1000
0000
0000
0000
0000
0000
,  // measure 45
1000
0000
1000
0000
0100
0000
0100
0000
0010
0000
0010
0000
,  // measure 46
1001
0000
0110
0000
,  // measure 47
0001
0000
0100
0000
0000
0000
0000
0000
0000
0100
0000
0010
0000
0000
0000
0000
0000
0000
0010
0000
1000
0000
0000
0000
,  // measure 48
2000
0000
0000
3000
,  // measure 49
0001
0010
0000
0100
1000
0000
0001
0010
0000
0100
1000
0000
,  // measure 50
0001
0010
0000
0100
1000
0000
0001
0010
0000
0100
1000
0000
,  // measure 51
0001
0010
0000
0001
0010
0000
0001
0010
0000
0001
0010
0000
,  // measure 52
0001
1000
0000
0001
1000
0000
0100
1000
0000
0100
1000
0000
,  // measure 53
0001
1000
0000
0001
1000
0000
0001
0010
0000
0001
0010
0000
,  // measure 54
0100
1000
0000
0100
1000
0000
0001
1000
0000
0001
0010
0000
,  // measure 55
0001
1000
0000
0001
0100
0000
0001
1000
0000
0001
0010
0000
,  // measure 56
0001
1000
0000
0001
0100
0000
0100
1000
0000
1000
0100
0000
,  // measure 57
0100
0001
0000
0010
0000
0000
1001
0000
0000
0000
0000
0000
,  // measure 58
0010
0100
0000
0010
0100
0000
0010
0100
0000
0010
0100
0000
,  // measure 59
0010
0100
0000
0010
0100
0000
0010
0100
0000
0010
0100
0000
,  // measure 60
0010
0100
0000
0010
0100
0000
0010
0100
0000
0010
0100
0000
,  // measure 61
0010
0000
0000
0010
1000
0000
0100
0000
0000
0010
0001
0000
,  // measure 62
0100
0000
0000
0001
0010
0000
0100
0000
0000
1000
0010
0000
,  // measure 63
0100
0000
0000
0001
0010
0000
0010
0100
0000
0100
1000
0000
,  // measure 64
1000
0000
0100
0000
0000
0000
0100
0000
0010
0000
0000
0000
0010
0000
0001
0000
0000
0000
0001
0000
0000
0100
0000
0000
,  // measure 65
0010
0000
0010
0000
1000
0000
1000
0000
0100
0000
0100
0000
,  // measure 66
1001
0000
0110
0000
,  // measure 67
1000
0000
0001
0000
0000
0000
0000
0000
0000
0001
0000
0100
0000
0000
0000
0000
0000
0000
0100
0000
0010
0000
0000
0000
,  // measure 68
0000
0220
0000
0300
,  // measure 69
0130
0000
0000
0000
0000
1100
0000
0000
0000
0000
0100
0000
,  // measure 70
0000
0000
0000
0101
0000
0000
0000
0000
0001
0000
0000
0000
,  // measure 71
0000
0011
0000
0000
0000
0000
0010
0001
0000
0010
0001
0000
,  // measure 72
0010
0100
0000
0100
0010
0000
0100
1000
0000
0100
1000
0000
,  // measure 73
0010
0100
0000
0010
0100
0000
0100
0001
0000
0100
0001
0000
,  // measure 74
1000
0100
0000
0100
1000
0000
0001
0100
0000
0100
0001
0000
,  // measure 75
1000
0010
1001
0100
,  // measure 76
2002
0000
0000
3003
,  // measure 77
1100
0000
0100
0000
0000
0110
0000
0000
0000
0011
0000
0001
,  // measure 78
0000
0000
0011
0000
0000
0000
1001
0000
1000
0000
0000
1001
,  // measure 79
0000
0000
0000
1001
0000
0001
0000
0000
1001
0000
0000
0000
,  // measure 80
1000
0100
1000
0000
0001
0100
0001
0000
,  // measure 81
0100
1000
0100
0000
0001
0010
0001
0000
,  // measure 82
0010
0100
0010
0000
1000
0100
0010
0000
,  // measure 83
0001
0100
0010
0000
1000
0010
0100
0000
,  // measure 84
0001
1000
0100
0000
1000
0001
0100
0000
,  // measure 85
0001
0000
1000
0000
0001
0000
1000
0000
0001
0000
1000
0000
,  // measure 86
1001
0000
0110
0000
,  // measure 87
1000
0000
0001
0000
0000
0000
0000
0000
0000
0100
0000
0010
0000
0000
0000
0000
0000
0000
1000
0000
0001
0000
0000
0000
,  // measure 88
0000
2002
0000
3003
,  // measure 89
1000
0010
0000
1000
0001
0000
1000
0100
0000
1000
0010
0000
,  // measure 90
0010
0000
0000
0000
0000
0100
0000
0000
0000
0000
0100
0000
0000
0000
0000
0000
0000
0000
0100
0000
0001
0000
0000
0000
,  // measure 91
0001
0010
0000
0001
1000
0000
0001
0100
0000
0001
0010
0000
,  // measure 92
0010
0000
0000
0000
0000
0100
0000
0000
0000
0000
0100
0000
0000
0000
0000
0000
0000
0000
1000
0000
0000
0010
0000
0000
,  // measure 93
0001
0100
1000
0010
0001
0100
1000
0010
,  // measure 94
0001
0100
1000
0010
0001
0100
1000
0100
,  // measure 95
0001
0010
1000
0100
0001
0010
1000
0100
,  // measure 96
0010
0000
0000
0001
0000
0000
0010
0000
0000
0100
0000
0000
1000
0000
0000
0000
0000
0000
0001
0000
0010
0000
0000
0000
,  // measure 97
0010
0100
0000
0100
1000
0000
1000
0100
0000
1000
0100
0000
,  // measure 98
1000
0000
0000
0000
0000
0000
0101
0000
0000
0000
0000
0101
0000
0000
0000
0000
0000
0000
1000
0000
0010
0000
0000
0000
,  // measure 99
0010
0100
0000
0100
0001
0000
0001
0100
0000
0001
0100
0000
,  // measure 100
0001
0000
0000
0000
0000
0000
1100
0000
0000
0000
0000
1100
0000
0000
0000
0000
0000
0000
0001
0000
0000
0010
0000
0000
,  // measure 101
0100
0000
1000
0010
0100
0000
0001
0100
,  // measure 102
0010
0000
1000
0010
0100
0000
0001
0010
,  // measure 103
0100
1000
0100
0010
0001
0010
0100
1000
,  // measure 104
0010
0100
0001
0010
0100
1000
0100
0010
,  // measure 105
0001
0000
0001
0000
0010
0000
0010
0000
0100
0000
0100
0000
,  // measure 106
1100
0000
1001
0000
,  // measure 107
0001
0000
0010
0000
0000
0000
0000
0000
0000
0010
0000
0100
0000
0000
0000
0000
0000
0000
0100
0000
1000
0000
0000
0000
,  // measure 108
0000
0000
0000
0001
0010
0000
0010
0100
0000
0100
1000
0000
,  // measure 109
1000
0100
0000
1000
0100
0000
0100
0010
0000
0100
0010
0000
,  // measure 110
0010
0001
0000
0010
0001
0000
0001
1000
0000
0001
1000
0000
,  // measure 111
1000
0001
0000
1000
0001
0000
0100
0010
0000
0100
0010
0000
,  // measure 112
0010
0100
0000
0010
0100
0000
0010
1000
0000
1000
0100
0000
,  // measure 113
1000
0100
0000
1000
0001
0000
1000
0100
0000
1000
0001
0000
,  // measure 114
1000
0100
0000
1000
0001
0000
1000
0100
0000
1000
0001
0000
,  // measure 115
1000
0100
0000
0100
1000
0000
1000
0001
0000
0001
0010
0000
,  // measure 116
0010
0000
0000
0011
0000
0000
0000
0011
0000
0000
0000
0000
,  // measure 117
0001
0010
0000
0010
0100
0000
0100
1000
0000
1000
0001
0000
,  // measure 118
0001
1000
0000
1000
0010
0000
0010
0100
0000
0100
0001
0000
,  // measure 119
0001
1000
0000
1000
0001
0000
0001
0010
0000
0010
0100
0000
,  // measure 120
0100
1000
0000
1000
0100
0000
0100
1000
0000
1000
0010
0000
,  // measure 121
0010
0100
0000
0100
0001
0000
0001
1000
0000
1000
0001
0000
,  // measure 122
0001
0010
0000
0010
0001
0000
0001
1000
0000
1000
0100
0000
,  // measure 123
0100
1000
0000
1000
0100
0000
0100
0010
0000
0010
0100
0000
,  // measure 124
0100
0000
0000
0000
0000
1001
0000
0000
0000
0000
0000
1001
0000
0000
0000
0000
0000
0000
0000
0000
0000
0000
0000
0000
,  // measure 125
0010
0000
0001
0000
0100
0000
0010
0000
1000
0000
0100
0000
,  // measure 126
2002
0000
0000
3003
,  // measure 127
1001
0000
0100
0000
0000
1001
0000
0000
0000
0000
0000
0000
,  // measure 128
0001
0010
0000
0100
1000
0000
0001
0010
0000
0100
1000
0000
,  // measure 129
1001
0000
0010
0000
0000
1001
0000
0000
0000
0000
0000
0000
,  // measure 130
1000
0010
0000
1000
0010
0000
0100
0001
0000
0100
0001
0000
,  // measure 131
1001
0000
0100
0000
0000
1001
0000
0000
0000
0000
0000
0000
,  // measure 132
0001
0010
0000
0001
1000
0000
0001
0010
0000
0001
1000
0000
,  // measure 133
1001
0000
0010
0000
0000
1001
0000
0000
0000
0000
0000
0000
,  // measure 134
1000
0010
0000
1000
0001
0000
1000
0010
0000
1000
0001
0000
,  // measure 135
1001
0000
0110
0000
0000
1001
0000
0000
0000
0000
0000
0000
,  // measure 136
0001
1000
0000
0001
0010
0000
0001
1000
0000
0001
0010
0000
,  // measure 137
1001
0000
0110
0000
0000
1001
0000
0000
0000
0000
0000
0000
,  // measure 138
1000
0010
0000
1000
0001
0000
1000
0010
0000
1000
0001
0000
,  // measure 139
1001
0000
0110
0000
0000
1001
0000
0000
0000
0000
0000
0000
,  // measure 140
0001
0010
0000
0100
1000
0000
0001
0010
0000
0100
1000
0000
,  // measure 141
1001
0000
0110
0000
0000
1001
0000
0000
0000
0000
0000
0000
,  // measure 142
1000
0010
0000
0100
0001
0000
1000
0010
0000
0100
0001
0000
,  // measure 143
1000
0000
0010
0000
0001
0000
0100
0000
1000
0000
0001
0000
,  // measure 144
1001
0000
0001
0001
,  // measure 145
0001
0000
0010
0000
0100
0000
1000
0000
0100
0000
0010
0000
,  // measure 146
1001
0000
0000
1000
0001
1000
0001
1000
0001
1000
0001
0000
,  // measure 147
1000
0000
0010
0000
0001
0000
0100
0000
1000
0000
0010
0000
,  // measure 148
1001
0000
0000
0001
0010
0001
0010
0100
1000
0100
1000
0000
,  // measure 149
1000
0000
0100
0000
0000
0000
0000
0000
0000
0100
0000
0010
0000
0000
0000
0000
0000
0000
0010
0000
0001
0000
0000
0000
,  // measure 150
0000
0001
0000
0000
0000
0000
0000
0000
0000
0002
0000
0000
,  // measure 151
0000
0000
0000
0000
,  // measure 152
0000
0000
0000
0000
,  // measure 153
0003
0000
0000
0000
;
