#TITLE:FREEDOM DiVE↓;
#SUBTITLE:;
#ARTIST:xi;
#TITLETRANSLIT:;
#SUBTITLETRANSLIT:;
#ARTISTTRANSLIT:;
#CREDIT:;
#BANNER:FREEDOM DiVE↓.png;
#BACKGROUND:FREEDOM DiVE↓-bg.png;
#LYRICSPATH:;
#CDTITLE:cdtitle.png;
#MUSIC:FREEDOM DiVE↓.mp3;
#OFFSET:-1.050;
#SAMPLESTART:100.000;
#SAMPLELENGTH:12.000;
#SELECTABLE:YES;
#BPMS:0.000=222.220;
#STOPS:;
#BGCHANGES:;

//---------------dance-single - BASIc----------------
#NOTES:
     dance-single:
     BASIc:
     Easy:
     4:
     0.267,0.429,0.054,0.014,0.000:
0000
0000
0000
0000
,
0000
0000
0000
0000
,
0000
0000
0000
0000
,
0000
0000
0000
0000
,
0000
0000
0000
0000
,
0000
0000
0000
0000
,
0000
0000
0000
0000
,
0000
0000
0000
0000
,
0000
1000
0000
1000
,
0000
1000
0000
1000
,
0000
0001
0000
0001
,
0000
0001
0000
0001
,
0000
1000
0000
1000
,
0000
1000
0000
1000
,
0000
0001
0000
0001
,
0000
0001
0000
0001
,
1000
0100
1000
0100
,
1000
0100
1000
0100
,
1000
0001
1000
0100
,
1000
0001
1000
0001
,
0100
0010
1000
0100
,
0010
0001
0010
0100
,
1000
1000
0100
0100
,
0010
0010
0001
0001
,
1001
0000
0000
0000
,
0000
0000
0000
0000
,
1000
0000
0000
0000
,
0000
0000
0000
0000
,
0001
0000
0000
0000
,
0000
0000
0000
0000
,
0010
0000
0000
0000
,
0000
0000
0000
0000
,
0100
0000
1000
0000
,
0100
0000
0010
0000
,
0001
0000
0100
0000
,
0010
0000
1000
0000
,
0100
0000
0000
0000
,
0100
0000
0010
0000
,
0001
0000
1000
0000
,
0001
0010
0100
1000
,
1001
0000
0110
0000
,
1001
0000
0010
0000
,
1001
0000
1000
0000
,
0010
0000
0100
0000
,
0100
0000
0001
0000
,
1000
0001
1000
0001
,
0010
0000
0100
0000
,
1000
0000
0001
0000
,
1000
0000
0010
0000
,
0100
0001
1000
0001
,
1000
0000
0001
0000
,
0010
0000
0100
0000
,
1000
0000
0001
0000
,
1000
1000
0001
0001
,
0010
0000
0100
0000
,
1000
0000
0010
0000
,
0100
0100
0001
0001
,
0010
0010
0100
0100
,
1000
0000
1000
0000
,
0100
0000
0100
0000
,
0010
0000
0010
0000
,
0001
0000
0001
1000
,
0001
0000
0010
0000
,
0100
0000
1000
0000
,
0001
1000
0001
1000
,
0010
0000
0100
0000
,
0001
0000
0010
0000
,
0100
1000
1000
1000
,
1000
0000
0010
0000
,
0100
0001
0001
0001
,
0001
0000
1000
0000
,
0010
0000
0100
0000
,
0001
0000
0010
0000
,
0100
1000
0001
0010
,
1001
0000
0000
0000
,
1000
0000
0000
0000
,
0010
0000
0000
0000
,
0100
0000
0000
0000
,
0001
0000
0000
0000
,
1000
0000
0000
0000
,
0001
0000
0000
0000
,
0010
0000
0010
0000
,
0100
0000
0100
0000
,
1000
0000
1000
0000
,
0010
0000
0010
0000
,
0100
0000
0100
0000
,
0001
0000
0001
0000
,
1000
0000
1000
0000
,
0001
0000
1000
0000
,
2002
0000
0000
3003
,
1000
0000
0010
0000
,
0100
0000
0001
0000
,
0010
0000
0100
0000
,
1000
0001
1000
0001
,
1000
0000
0010
0000
,
0100
0000
0100
0000
,
0001
0001
0001
0001
,
0001
0000
0001
0000
,
0010
0000
0010
0000
,
0100
0000
0100
0000
,
1000
0000
0010
0000
,
0100
0000
0001
0000
,
1000
0000
0010
0000
,
1000
0000
0001
0000
,
0010
0000
0100
0000
,
1000
1000
1000
1000
,
0001
0000
0010
0000
,
0100
0000
1000
0000
,
0010
0000
0100
0000
,
0001
1000
0001
1000
,
0001
0000
0010
0000
,
0100
0000
0100
0000
,
1000
1000
1000
1000
,
1000
0000
1000
0000
,
0010
0000
0010
0000
,
0100
0000
0100
0000
,
0001
0000
0010
0000
,
0100
0000
1000
0000
,
0001
0000
0010
0000
,
0001
0000
1000
0000
,
0010
0000
0100
0000
,
0001
0001
0001
0001
,
1000
0000
0100
0000
,
0010
0000
0001
0000
,
1000
0000
0010
0000
,
0100
0000
0001
0000
,
1001
0000
0000
0000
;

//---------------dance-single - TRICK----------------
#NOTES:
     dance-single:
     TRICK:
     Medium:
     7:
     0.512,0.772,0.367,0.041,0.000:
0000
0000
0000
0000
,
0000
0000
0000
0000
,
0000
0000
0000
0000
,
0000
0000
0000
0000
,
0000
0000
0000
0000
,
0000
0000
0000
0000
,
0000
0000
0000
0000
,
0000
0000
0000
0000
,
1000
0001
1000
0001
,
0100
0010
0100
0010
,
0001
1000
0001
1000
,
0010
0100
0010
0100
,
1000
0001
1000
0001
,
0100
0010
0100
0010
,
0001
1000
0001
1000
,
0010
0100
0010
0100
,
1000
0100
1000
0100
,
0010
0001
0100
0010
,
1000
0001
1000
0100
,
0010
0000
0001
0000
0100
0000
0001
1000
,
0100
0010
0001
0100
,
0010
1000
0010
0100
,
1001
1001
0110
0110
,
0011
0011
1100
1100
,
1001
0000
1000
0000
,
0010
0000
0100
0000
,
0100
0000
0001
0000
,
0001
0000
0010
0000
,
0100
0000
1000
0000
,
0001
0000
1000
0000
,
0010
0100
0100
0100
,
0001
0000
1000
0000
,
1001
0001
1000
0010
,
0100
1000
0100
0001
,
0011
0100
1000
1000
,
0001
0010
0100
1000
,
0001
0000
0100
0010
,
1000
0000
0001
0000
,
0100
0000
1000
0001
,
1001
0110
1001
0110
,
1000
0100
0010
0001
,
0001
0100
0010
1000
,
1001
0001
1000
0010
,
0100
0000
0100
0000
0001
1000
0100
0000
,
0100
0100
0010
0010
,
0001
1000
0001
1000
,
0010
0010
0100
0100
,
0001
1000
0001
0000
1000
0000
1000
0000
,
0010
0010
1000
0001
,
0100
1000
0010
0100
,
0001
0010
0001
0100
,
0010
0000
1000
0000
0100
0010
0001
0000
,
1000
0010
1000
0001
,
0100
0010
0100
0001
,
1000
0000
0010
0000
0100
0001
1000
0000
,
0100
0010
0100
1000
,
1100
0011
1100
0011
,
1001
1010
0101
0011
,
1001
0001
1000
0010
,
0100
1000
0100
0001
,
0010
0100
1000
0010
,
0100
0001
0010
1100
,
1001
1000
0010
0100
,
0100
0001
1000
0001
,
1000
1000
0100
0100
,
0020
0001
1000
0001
,
1030
0001
0010
0100
,
1000
0000
1000
0001
1000
0001
1000
0001
,
1000
1000
0010
0100
,
0001
0000
0001
1000
0001
1000
0001
1000
,
0001
0010
0100
1000
,
0010
0100
0001
1000
,
0001
0100
0010
1000
,
1100
0011
1010
0110
,
1001
0000
0001
0000
,
1000
0000
0100
0000
,
0010
0000
0100
0000
,
1000
0000
0001
0000
,
0001
0000
0100
0000
,
0010
0000
0100
0000
,
0001
0000
1000
0000
,
0001
0001
0010
0010
,
0100
0100
1000
1000
,
0001
0001
0100
0100
,
0010
0010
1000
1000
,
0001
0001
1000
1000
,
0010
0010
0100
0100
,
0001
0001
0100
0100
,
1000
1000
0010
0001
,
2002
0000
0000
3003
,
1001
1000
0001
0010
,
0100
0001
0100
1000
,
0010
0100
0001
0010
,
0100
1000
0010
0101
,
1001
0001
0010
0100
,
0100
1000
0001
1000
,
0001
0001
0100
0100
,
0020
1000
0001
1000
,
0031
1000
0010
0100
,
0001
0000
0001
1000
0001
1000
0001
1000
,
0001
0001
0010
0100
,
1000
0000
1000
0001
1000
0001
1000
0001
,
1000
0010
0100
0001
,
0010
0100
1000
0001
,
1000
0100
0010
0001
,
0101
1010
0011
0110
,
1001
1000
0001
0100
,
0010
0100
0001
0100
,
1000
0001
0010
0100
,
1000
0000
0100
0000
0001
0010
0100
1000
,
0001
0001
1000
1000
,
0010
0100
0001
1000
,
0020
0100
0032
1000
,
0013
0011
0110
1100
,
0001
1000
0010
0010
,
0100
0010
0100
0000
0110
0000
1001
0000
,
0001
1000
0010
0100
,
0001
1000
0001
0000
1001
0000
0110
0000
,
0100
0010
1000
0100
,
0001
0100
1000
0010
,
0100
0001
0010
0100
,
1100
0101
1010
0110
,
1001
1000
0100
0100
,
0010
0010
0001
0001
,
1000
1000
0100
0100
0010
0010
0001
0001
,
1000
0100
0010
0001
1000
0100
0010
0001
,
1001
0000
0000
0000
;

//---------------dance-single - ONI----------------
#NOTES:
     dance-single:
     ONI:
     Challenge:
     14:
     1.000,1.000,0.721,0.000,1.000: // measure 1
1000
0100
0010
0001
0010
0100
1000
0100
0010
0100
1000
0100
0010
0001
0010
0100
,  // measure 2
1000
0100
0010
0001
0010
0100
1000
0100
0010
0001
0010
0100
1000
0001
0100
0010
,  // measure 3
1000
0100
0010
0001
0010
0100
1000
0100
0010
0100
1000
0100
0010
0001
0010
0100
,  // measure 4
1000
0010
0100
0010
1000
0100
0010
0001
0010
0100
1000
0001
0100
0010
0100
0001
,  // measure 5
1000
0100
0010
0001
0010
0100
1000
0001
0010
0001
1000
0100
0010
0001
0010
0100
,  // measure 6
1000
0100
0010
0001
0010
0100
1000
0100
0010
0001
0010
0100
1000
0001
0100
0010
,  // measure 7
1000
0100
0010
0001
0010
0100
1000
0001
0010
0001
1000
0100
0010
0001
0010
0100
,  // measure 8
1000
0010
0100
0010
1000
0100
0010
0001
0010
0100
1000
0001
0100
0010
0100
0001
,  // measure 9
1000
0100
0010
0100
1000
0100
0010
0100
1000
0001
0010
0100
0010
0001
0010
0100
,  // measure 10
0010
0001
1000
0100
0010
0100
1000
0001
1000
0100
1000
0001
0010
0100
1000
0100
,  // measure 11
0010
0001
1000
0010
0100
0001
0100
0010
1000
0100
0010
0001
0010
0100
1000
0001
,  // measure 12
0010
0100
0010
0001
0010
0100
0010
0001
1000
0010
0100
0001
1000
0100
0010
0001
,  // measure 13
1000
0010
0100
0001
1000
0010
0100
0001
0010
0100
1000
0001
0010
0100
1000
0001
,  // measure 14
1000
0010
0100
0001
0100
0010
1000
0100
0010
0100
1000
0001
0010
0001
1000
0100
,  // measure 15
1000
0001
0100
0001
1000
0100
1000
0001
0100
0001
0010
0100
1000
0100
0010
0001
,  // measure 16
1000
0100
1000
0001
0010
0001
1000
0100
1000
0001
0010
0001
1000
0100
0010
0001
,  // measure 17
1000
0010
0100
0001
1000
0010
0100
0001
1000
0100
0010
0001
1000
0100
0010
0001
,  // measure 18
1000
0010
0100
0001
1000
0010
0100
0001
1000
0100
0010
0001
1000
0100
0010
0001
,  // measure 19
0100
0010
1000
0001
0010
0100
1000
0001
0100
0010
1000
0001
0010
0100
1000
0001
,  // measure 20
0100
0010
0100
0001
1000
0100
1000
0001
0010
0001
1000
0100
0010
0001
0010
0100
,  // measure 21
1000
0001
0100
0010
0100
0001
1000
0100
1000
0001
0100
0010
1000
0001
0010
0001
,  // measure 22
1000
0100
0010
0001
1000
0010
0100
0001
1000
0100
0010
0001
0010
0100
1000
0001
,  // measure 23
1000
0100
0010
0000
0010
0100
1000
0000
1000
0100
0001
0000
0001
0100
1000
0000
,  // measure 24
1000
0100
0010
0000
0010
0100
1000
0000
1000
0100
0010
0000
0010
0100
1000
0001
,  // measure 25
0100
0010
1000
0100
0010
0100
1000
0010
0100
0001
1000
0100
0010
0001
0010
0100
,  // measure 26
0010
0001
0010
0100
1000
0100
0010
0100
1000
0001
0010
0100
1000
0001
0100
0010
,  // measure 27
0100
0001
0100
0010
1000
0100
0010
0100
1000
0001
0010
0100
1000
0100
0010
0100
,  // measure 28
1000
0010
0100
0001
0010
0100
1000
0100
0010
0100
1000
0100
0001
0100
1000
0100
,  // measure 29
0010
0100
1000
0001
0010
0100
1000
0100
0010
0100
1000
0010
0100
0001
0010
0100
,  // measure 30
0010
0001
1000
0100
0010
0100
1000
0001
0100
0010
1000
0001
0010
0100
1000
0001
,  // measure 31
1000
0010
1000
0010
0100
0010
0100
0001
0100
0001
0100
0010
0100
0010
0100
0001
,  // measure 32
1000
0100
1000
0100
1000
0100
1000
0001
0010
0001
0010
0001
0010
0001
0010
0100
,  // measure 33
1000
0010
0100
0001
1000
0100
0010
0100
1000
0001
0100
0010
1000
0100
0010
0001
,  // measure 34
1000
0010
0100
0001
1000
0100
0010
0100
1000
0100
0010
0100
1000
0010
0100
0001
,  // measure 35
1000
0100
0010
0100
1000
0001
0100
0001
0010
0100
1000
0100
0010
0001
0100
0001
,  // measure 36
1000
0100
1000
0100
0010
0100
0010
0001
0010
0001
1000
0100
1000
0100
0010
0001
,  // measure 37
1000
0001
1000
0001
1000
0001
1000
0001
1000
0100
0010
0001
1000
0100
0010
0001
,  // measure 38
1000
0001
1000
0001
0100
0010
0100
0010
0100
0001
1000
0100
1000
0010
0100
0001
,  // measure 39
1000
0100
1000
0010
0100
0001
0100
0010
1000
0100
1000
0010
0100
0010
1000
0001
,  // measure 40
1000
0100
0010
0001
1000
0100
0010
0001
1000
0100
0010
0001
1000
0100
0010
0001
,  // measure 41
1000
0100
1000
0100
0010
0100
0010
0001
0100
0001
0100
0010
1000
0010
1000
0001
,  // measure 42
0100
0001
0100
0010
1000
0010
1000
0100
0010
0100
0010
0001
0010
0100
0010
0001
,  // measure 43
1000
0010
0100
0010
0101
0001
0010
0100
,  // measure 44
1001
0001
1000
0100
1001
0010
0100
1000
,  // measure 45
0101
0001
0010
0100
1010
1000
0001
0100
,  // measure 46
1001
0001
1001
1000
1001
0001
1001
1000
,  // measure 47
1001
0010
0100
0001
1001
1000
0100
1000
,  // measure 48
1010
0010
1000
0001
0110
0100
0010
1000
,  // measure 49
1001
0010
0100
0010
0011
0001
0010
0100
,  // measure 50
1001
1000
1010
1000
1001
0001
0011
0001
,  // measure 51
1001
0010
0100
0010
1100
1000
0010
0100
,  // measure 52
1001
1000
0001
0100
1001
0010
0100
0001
,  // measure 53
1010
1000
0010
0100
0101
0001
1000
0100
,  // measure 54
1001
1000
0101
0001
1100
1000
0101
0001
,  // measure 55
1001
0010
0100
1000
1001
0001
0100
0001
,  // measure 56
0011
0010
0001
1000
0110
0100
0010
0001
,  // measure 57
1001
1000
1100
0100
0110
0010
0011
0001
,  // measure 58
0101
0100
0110
0010
1010
1000
1001
0001
,  // measure 59
1000
0100
0010
0100
1000
0100
0010
0100
1000
0001
0100
0010
1000
0001
0100
0010
,  // measure 60
1000
0010
0100
0010
1000
0010
0100
0010
1000
0100
0010
0001
1000
0100
0010
0001
,  // measure 61
1000
0001
0100
0001
1000
0001
0100
0001
1000
0010
0100
0001
1000
0100
0010
0001
,  // measure 62
1000
0010
0100
0010
1000
0100
0010
0100
0001
0100
1000
0100
0001
0100
0010
0100
,  // measure 63
1000
0001
0100
0001
1000
0010
0100
0010
1000
0001
0010
0001
1000
0100
0010
0100
,  // measure 64
1000
0100
1000
0100
0010
0001
0010
0001
0100
0010
0100
0010
1000
0100
1000
0100
,  // measure 65
1000
0001
1000
0001
0100
0010
0100
0010
1000
0001
1000
0001
0010
0100
0010
0100
,  // measure 66
1000
0100
1000
0100
1000
0100
1000
0001
0010
0001
0010
0001
0010
0001
0010
0100
,  // measure 67
1000
0001
0100
0001
1000
0100
0010
0100
1000
0001
0010
0001
1000
0010
0100
0010
,  // measure 68
1000
0100
0010
0001
1000
0100
1000
0100
0010
0001
0010
0001
1000
0010
0100
0001
,  // measure 69
1000
0010
0100
0010
1000
0001
0100
0001
1000
0100
0010
0100
1000
0001
0010
0001
,  // measure 70
1000
0010
0100
0001
1000
0010
1000
0010
0100
0001
0100
0001
1000
0010
0100
0001
,  // measure 71
1000
0001
1000
0001
1000
0001
1000
0001
0010
0100
1000
0100
0010
0001
0010
0100
,  // measure 72
1000
0001
1000
0001
0100
0010
0100
0010
1000
0001
1000
0001
0010
0100
0010
0001
,  // measure 73
1000
0100
1000
0100
1000
0100
1000
0100
0010
0001
0010
0001
1000
0001
0100
0010
,  // measure 74
1000
0100
0010
0001
1000
0100
0010
0001
1000
0100
0010
0001
1000
0100
0010
0001
,  // measure 75
1000
0010
0100
0001
0010
0100
1000
0100
,  // measure 76
0001
0100
0010
0001
0100
1000
0100
0001
,  // measure 77
0010
0100
1000
0100
0010
0001
0100
0010
,  // measure 78
1000
0100
1000
0010
0100
0001
0010
0001
,  // measure 79
0100
0010
1000
0100
1000
0001
0100
0010
,  // measure 80
1000
0100
0001
0100
1000
0010
0100
0001
,  // measure 81
0010
1000
0010
0001
0100
0010
1000
0001
,  // measure 82
1001
1000
1001
0001
1001
1000
1001
0001
,  // measure 83
1001
1000
1100
0100
1100
1000
1100
0100
,  // measure 84
0110
0010
0110
0100
0110
0010
0110
0100
,  // measure 85
0110
0010
0011
0001
0011
0010
0011
0001
,  // measure 86
0011
0010
0110
0100
1100
1000
1001
0001
,  // measure 87
1001
1000
1010
0010
0110
0100
0101
0001
,  // measure 88
1001
1000
1100
0100
0110
0010
0011
0001
,  // measure 89
0101
0100
0110
0010
1010
1000
1001
0110
,  // measure 90
1001
0110
0110
1001
,  // measure 91
0001
0100
0010
0100
0001
0100
0010
0100
0001
1000
0100
0010
0001
1000
0100
0010
,  // measure 92
0001
0010
0100
0010
0001
0010
0100
0010
0001
0100
0010
1000
0001
0100
0010
1000
,  // measure 93
0001
1000
0100
1000
0001
1000
0100
1000
0001
0010
0100
1000
0001
0100
0010
1000
,  // measure 94
0001
0010
0100
0010
0001
0100
0010
0100
1000
0100
0001
0100
1000
0100
0010
0100
,  // measure 95
0001
1000
0100
1000
0001
0010
0100
0010
0001
1000
0010
1000
0001
0100
0010
0100
,  // measure 96
0001
0100
0001
0100
0010
1000
0010
1000
0100
0010
0100
0010
0001
0100
0001
0100
,  // measure 97
0001
1000
0001
1000
0100
0010
0100
0010
0001
1000
0001
1000
0010
0100
0010
0100
,  // measure 98
0001
0100
0001
0100
0001
0100
0001
1000
0010
1000
0010
1000
0010
1000
0010
0100
,  // measure 99
0001
1000
0100
1000
0001
0100
0010
0100
0001
1000
0010
1000
0001
0010
0100
0010
,  // measure 100
0001
0100
0010
1000
0001
0100
0001
0100
0010
1000
0010
1000
0001
0010
0100
1000
,  // measure 101
0001
0010
0100
0010
0001
1000
0100
1000
0001
0100
0010
0100
0001
1000
0010
1000
,  // measure 102
0001
0010
0100
1000
0001
0010
0001
0010
0100
1000
0100
1000
0001
0010
0100
1000
,  // measure 103
0001
1000
0001
1000
0001
1000
0001
1000
0010
0100
0001
0100
0010
1000
0010
0100
,  // measure 104
0001
1000
0001
1000
0100
0010
0100
0010
0001
1000
0001
1000
0010
0100
0010
1000
,  // measure 105
0001
0100
0001
0100
0001
0100
0001
0100
0010
1000
0010
1000
0001
1000
0100
0010
,  // measure 106
0001
0100
0010
1000
0001
0100
0010
1000
0001
0100
0010
1000
0001
0100
0010
1000
,  // measure 107
0001
0010
0100
0010
0001
0010
0100
0010
0001
1000
0010
0100
0001
1000
0010
0100
,  // measure 108
0001
0100
0010
0100
0001
0100
0010
0100
0001
0010
0100
1000
0001
0010
0100
1000
,  // measure 109
0001
1000
0010
1000
0001
1000
0010
1000
0001
0100
0010
1000
0001
0010
0100
1000
,  // measure 110
0001
0100
0010
0100
0001
0010
0100
0010
1000
0010
0001
0010
1000
0010
0100
0010
,  // measure 111
0001
1000
0010
1000
0001
0100
0010
0100
0001
1000
0100
1000
0001
0010
0100
0010
,  // measure 112
0001
0010
0001
0010
0100
1000
0100
1000
0010
0100
0010
0100
0001
0010
0001
0010
,  // measure 113
0001
1000
0001
1000
0010
0100
0010
0100
0001
1000
0001
1000
0100
0010
0100
0010
,  // measure 114
0001
0010
0001
0010
0001
0010
0001
1000
0100
1000
0100
1000
0100
1000
0100
0010
,  // measure 115
0001
1000
0010
1000
0001
0010
0100
0010
0001
1000
0100
1000
0001
0100
0010
0100
,  // measure 116
0001
0010
0100
1000
0001
0010
0001
0010
0100
1000
0100
1000
0001
0100
0010
1000
,  // measure 117
0001
0100
0010
0100
0001
1000
0010
1000
0001
0010
0100
0010
0001
1000
0100
1000
,  // measure 118
0001
0100
0010
1000
0001
0100
0001
0100
0010
1000
0010
1000
0001
0100
0010
1000
,  // measure 119
0001
1000
0001
1000
0001
1000
0001
1000
0100
0010
0001
0010
0100
1000
0100
0010
,  // measure 120
0001
1000
0001
1000
0010
0100
0010
0100
0001
1000
0001
1000
0100
0010
0100
1000
,  // measure 121
0001
0010
0001
0010
0001
0010
0001
0010
0100
1000
0100
1000
0001
1000
0010
0100
,  // measure 122
0001
0010
0100
1000
0001
0010
0100
1000
0001
0010
0100
1000
0001
0010
0100
1000
,  // measure 123
0001
1010
1001
0000
1001
0011
1001
0000
,  // measure 124
1100
1001
1100
0000
0101
1001
0101
0000
,  // measure 125
1001
0011
1001
1010
1001
1100
1001
0101
,  // measure 126
1001
1100
0110
0011
1001
0011
0110
1100
,  // measure 127
1001
0000
0000
0000
;

//---------------dance-single - HEAVY----------------
#NOTES:
     dance-single:
     HEAVY:
     Hard:
     10:
     0.846,1.000,0.538,0.102,0.037:
0000
0000
0000
0000
,
0000
0000
0000
0000
,
0000
0000
0000
0000
,
0000
0000
0000
0000
,
0000
0000
0000
0000
,
0000
0000
0000
0000
,
0000
0000
0000
0000
,
0000
0000
0000
0000
,
1000
0100
0010
0000
0001
0100
1000
0000
,
0100
0010
0001
0000
1000
0100
0001
0000
,
0001
0010
0100
0000
0001
0100
1000
0000
,
1000
0000
0100
0000
0010
0000
0000
0000
0001
0000
0000
0010
0000
0000
0100
0000
,
1000
0001
0100
0000
1000
0100
0001
0000
,
0001
0010
0100
0000
1000
0010
0100
0000
,
0001
1000
0010
0000
1000
0100
0010
0000
,
0001
1000
0100
0010
0001
0100
0010
1000
,
0001
1000
0100
0000
0100
0010
0001
0000
,
0001
1000
0010
0000
0010
1000
0100
0000
,
0100
1000
0001
0000
0001
1000
0010
0000
,
0010
0000
1000
0000
0001
0000
0000
0000
0100
0000
0000
0001
0000
0000
1000
0000
,
0100
0000
0010
0001
0100
0000
0010
1000
,
0100
0000
0100
1000
0010
0000
0100
0000
,
0001
0010
0001
0010
0100
0010
0100
1000
,
0100
1000
0100
0010
0100
0010
0001
0010
,
1001
0000
0000
1000
0000
0000
1000
0000
1000
0000
0000
0010
0000
0000
0010
0000
,
0010
0000
0000
0100
0000
0000
0100
0000
0100
0000
0000
0001
0000
0000
0001
0000
,
0001
0000
0000
0010
0000
0000
0100
0000
0100
0000
0000
0100
0000
0000
1000
0000
,
0001
0000
0000
0010
0000
0000
1000
0000
0010
0000
0001
0000
1000
0000
0001
0000
,
0200
0000
0302
0023
,
0230
2300
3020
0032
,
0203
2300
3020
0032
,
0203
0000
2300
3000
,
1001
0110
1000
0010
,
0100
1000
0001
1000
0000
0000
0100
0000
0000
0001
0000
0000
,
0011
1001
1000
1100
,
0011
0000
0010
0100
0010
0000
1000
0000
,
1001
0000
0001
0100
0010
0000
0010
0000
,
1001
0000
1000
0100
0010
0000
0001
0000
,
1001
0010
0110
1001
,
1000
0100
0010
0001
1000
0100
0010
0001
,
1001
1100
0110
0011
,
1001
1100
0110
0011
,
1001
1000
0001
0010
1000
0010
0001
0100
,
0010
1000
0100
0001
0100
1000
0100
0010
,
0001
0100
0010
1000
0001
0100
0010
1000
,
0001
0010
0100
1000
0010
0100
0001
1000
,
0100
0010
0001
1000
0001
0100
0010
1000
,
0001
1000
0001
0100
0010
0100
0010
1000
,
0100
0010
0001
0010
0100
1000
0001
0000
,
1001
0110
1001
0110
,
1000
0010
0100
0001
1000
0100
0010
0100
,
0001
0100
1000
0010
0100
0010
0001
1000
,
0100
0001
0010
0100
1000
0010
0001
1000
,
0100
0001
1000
0010
0100
0001
0100
1000
,
0100
0001
0010
0100
1000
0100
0010
0001
,
0100
0001
0010
0100
1000
0001
1000
0001
,
1001
1000
0001
1000
1001
1000
0100
0010
,
1001
1010
0101
0011
,
1001
1000
0001
1000
0010
0100
0010
1000
,
0100
0010
0100
1000
0010
0100
0001
0010
,
1000
0010
0001
0100
0001
0100
0010
1000
,
0010
1000
0001
0010
0100
1000
0100
0010
,
0001
0010
0100
1000
0010
0100
0001
0000
,
1001
0000
0110
0000
0001
0010
1000
0000
,
1001
0000
0110
0000
1000
0100
1000
0100
,
0010
1001
0110
1001
,
1000
0010
0100
0001
0010
0100
1000
0010
,
0100
0001
1000
0001
1000
0001
1000
0001
,
1000
0100
0010
0001
0100
0010
1000
0100
,
0010
0001
1000
0001
1000
0001
1000
0001
,
1000
0010
0100
1000
0100
0001
0010
0100
,
0001
0100
1000
0010
0100
0001
1000
0010
,
0100
0001
0100
1000
0100
0010
1000
0001
,
1001
0110
1001
0110
,
1001
1000
0001
0010
,
1000
0010
0001
0100
,
0010
1000
0100
0010
,
0001
0010
0100
1000
,
0001
0100
0010
1000
,
0010
1000
0100
0010
,
0001
1000
0010
0100
,
0001
0010
0001
0010
0001
1000
0010
0100
,
0001
1000
0010
1000
0010
0100
0010
0001
,
1000
0100
1000
0100
0001
0010
0100
1000
,
0001
0100
0001
0100
0010
1000
0001
1000
,
0010
0100
0010
0100
1000
0100
0001
0010
,
0100
1000
0100
1000
0010
0100
0001
1000
,
0001
0010
0001
0010
0100
1000
0100
0010
,
0001
0100
1000
0010
0001
0010
0100
1000
,
2002
0000
3003
0110
,
1001
0001
1000
0001
0010
0100
0010
0001
,
0100
0010
0100
0001
0010
0100
1000
0010
,
0001
0010
1000
0100
1000
0100
0010
0001
,
0010
0001
1000
0010
0100
0001
0100
0010
,
1000
0010
0100
0001
0010
0100
1000
0000
,
1001
0000
0110
0000
1000
0010
0001
0000
,
1001
0000
0110
0000
0001
0100
0001
0100
,
0010
1001
0110
1001
,
0001
0010
0100
1000
0010
0100
0001
0010
,
0100
1000
0001
1000
0001
1000
0001
1000
,
0001
0100
0010
1000
0100
0010
0001
0100
,
0010
1000
0001
1000
0001
1000
0001
1000
,
0001
0010
0100
0001
0100
1000
0010
0100
,
1000
0100
0001
0010
0100
1000
0001
0010
,
0100
1000
0100
0001
0100
0010
0001
1000
,
1001
0110
1001
0110
,
1001
0001
1000
0100
0001
0100
1000
0010
,
0100
1000
0100
0001
0010
0100
0010
0001
,
1000
0010
0100
1000
0100
0001
0010
0100
,
1000
0010
0100
0001
1000
0010
0100
1000
,
0001
1000
0100
0001
0010
0100
1000
0100
,
0010
0001
0010
0001
1000
0100
1000
0100
,
0010
0001
1000
0010
0100
0001
1000
0010
,
0100
1001
0110
1001
,
0001
0010
0100
1000
0010
0100
0001
0100
,
1000
0001
0100
0010
1000
0100
0001
0100
,
0010
1000
0100
0010
0001
1000
0010
0100
,
0001
0010
0100
1000
0010
1000
0100
0010
,
0001
1000
0100
1000
0010
0100
0001
0010
,
0001
0100
0010
1000
0100
1000
0010
0100
,
0001
0010
0100
1000
0010
0100
0001
1000
,
1000
0100
0010
0001
1000
0010
0100
0001
,
1001
1010
0101
0110
,
1001
1010
0101
0110
,
1001
1000
1010
0000
0101
0001
1001
0000
,
1001
1000
1010
1000
1001
0001
0011
0001
,
1001
0000
0000
0000
;
