#TITLE:Ena;
#SUBTITLE:;
#ARTIST:-45;
#TITLETRANSLIT:;
#SUBTITLETRANSLIT:;
#ARTISTTRANSLIT:;
#CREDIT:;
#BANNER:Ena.png;
#BACKGROUND:Ena-bg.png;
#LYRICSPATH:;
#CDTITLE:cdtitle.png;
#MUSIC:Ena.mp3;
#OFFSET:-1.600;
#SAMPLESTART:124.840;
#SAMPLELENGTH:12.000;
#SELECTABLE:YES;
#BPMS:0.000=150.000;
#STOPS:;
#BGCHANGES:;

//---------------dance-single - BASIC----------------
#NOTES:
     dance-single:
     BASIC:
     Easy:
     3:
     0.225,0.278,0.189,0.000,0.000:
0000
0000
0000
0000
,
0000
0000
0000
0000
,
0000
0000
0000
0000
,
0000
0000
0000
0000
,
0000
0000
0000
0000
,
0000
0000
0000
0000
,
0000
0000
0000
0000
,
0000
0000
0000
0000
,
1000
0000
1000
0000
,
1000
0000
1000
0000
,
1000
0000
1000
0000
,
1000
0000
1000
0000
,
0001
0000
0001
0000
,
0001
0000
0001
0000
,
0001
0000
0001
0000
,
0001
0000
0001
0000
,
1000
0000
0010
0001
,
0001
0000
0010
1000
,
1000
0000
0010
0001
,
0001
0000
0010
1000
,
1000
0000
0100
0001
,
0001
0000
0100
1000
,
1000
0000
0100
0001
,
0001
0000
0010
1000
,
0001
0100
0010
0100
,
0001
0000
1000
0000
,
1000
0010
0100
0010
,
1000
0000
0001
0000
,
1000
0001
1000
0010
,
1000
0000
0001
0000
,
0001
1000
0001
0010
,
0001
0000
1000
0000
,
1001
0000
0100
0000
,
1001
0000
0010
0000
,
1001
0000
1000
0000
,
1001
0000
0001
0000
,
1001
0000
0010
0000
,
0110
0000
0100
0000
,
0110
0000
0010
0000
,
1001
0000
1000
0000
,
1000
0010
0100
0001
,
0100
0010
1000
0010
,
1000
0001
0010
0001
,
0100
0010
0100
0001
,
0010
0001
0010
0001
,
1000
0010
1000
0100
,
0010
0001
0010
0100
,
1000
0001
1000
0001
,
1001
0000
1001
0000
,
0110
0000
1001
0000
,
1001
0000
0110
0000
,
0110
0000
1001
0000
,
1001
0000
0110
0000
,
0110
0000
1001
0000
,
1001
0000
1001
0000
,
0110
0000
1001
0000
,
1001
0000
0010
0000
,
0110
0000
0100
0000
,
1001
0000
0100
0000
,
1001
0000
0010
0000
,
1001
0000
0100
0000
,
1001
0000
0100
0000
,
1001
0000
0010
0000
,
1001
0000
0010
0000
,
1001
0000
0000
0000
,
1000
0000
0001
0000
,
1000
0000
0001
0000
,
0100
0000
0010
0000
,
0100
0000
0010
0000
,
1000
0000
0010
0000
,
1000
0000
0010
0000
,
1000
0000
0001
0000
,
0100
0000
0001
0000
,
0100
0000
0010
0000
,
1000
0000
0001
0000
,
0100
0000
0010
0000
,
0010
0000
1000
0000
,
0001
0000
0100
0000
,
0100
0000
0010
0000
,
0010
0000
1000
0000
,
0001
0000
1000
0000
,
1000
0001
0100
0010
,
1000
0100
1000
0010
,
0100
0010
0100
0001
,
0010
0001
0010
0100
,
1000
0100
1000
0010
,
1000
0100
0010
0001
,
0100
0010
1000
0100
,
1000
0010
0100
0001
,
0010
0100
1000
0100
,
1000
0010
0100
0001
,
1000
0001
0010
0100
,
1000
0100
1000
0100
,
1000
0010
0100
0001
,
0010
0001
0010
0001
,
0100
0010
1000
0100
,
0001
0010
1000
0001
,
1000
0000
0000
0000
;

//---------------dance-single - TRICK----------------
#NOTES:
     dance-single:
     TRICK:
     Medium:
     7:
     0.395,0.444,0.223,0.263,0.000:
0000
0000
0000
0000
,
0000
0000
0000
0000
,
0000
0000
0000
0000
,
0000
0000
0000
0000
,
0000
0000
0000
0000
,
0000
0000
0000
0000
,
0000
0000
0000
0000
,
0000
0000
0000
0000
,
1000
0010
1200
0301
,
1000
0100
1000
0010
,
1000
0100
0102
1003
,
0010
1000
0100
1000
,
0001
0100
0201
1300
,
0001
0100
0001
0010
,
1200
1300
0010
0100
,
0001
1000
0001
0001
,
1000
0100
1000
0000
0010
0000
0110
0000
,
0001
0010
0001
0000
0010
0000
0011
0000
,
1000
0010
1000
0000
0010
0000
1010
0000
,
1000
0010
1000
0000
0010
0000
1100
0000
,
1000
0010
0100
0010
1000
0000
0001
0000
,
0001
0100
0010
0100
0001
0000
1000
0000
,
1000
0010
0100
0010
0100
0000
0001
0000
,
0001
0010
0100
0010
0100
0000
1000
0000
,
0001
0100
0010
0100
,
0001
0100
1000
0100
,
1000
0010
0100
0001
,
0100
0010
0010
1000
,
0100
0100
0001
0010
,
0010
1000
0001
0100
,
0001
1000
0001
0010
,
0001
0100
1000
0010
,
1002
0010
0010
0103
,
2001
0010
0010
3100
,
0120
0100
0100
1030
,
0120
0100
0100
0031
,
2010
0010
0001
3010
,
0012
0010
1000
0013
,
0210
0010
0001
1300
,
0210
0010
1000
0301
,
1000
0010
0001
0011
,
0010
0100
1000
1010
,
1000
0010
0100
0011
,
0100
0001
0100
0110
,
0010
1000
0001
1001
,
1000
0100
0010
0101
,
0010
1000
0001
1001
,
1000
0100
0010
0001
,
2000
0000
3200
0000
,
0302
0000
0023
0000
,
0230
0000
2300
0000
,
3020
0000
2030
0000
,
3200
0000
0302
0000
,
0023
0000
2030
0000
,
3002
0000
2003
0000
,
3200
0000
0302
0000
,
0023
0100
0230
0001
,
0302
0010
0023
1000
,
2030
0001
3002
0100
,
0203
1000
2300
0010
,
3002
0010
0203
0010
,
2300
0001
3020
0100
,
2030
0001
3020
0001
,
2030
0100
3020
0001
,
0230
1000
0320
0001
,
1030
1000
1000
0000
0001
0000
0001
0000
,
0100
0100
0100
0000
0010
0000
0010
0000
,
0001
0001
0001
0000
1000
0000
1000
0000
,
0010
0010
0010
0000
0100
0000
0100
0000
,
1000
0100
0001
0000
0010
0000
0100
0000
,
1000
0010
0001
0000
0100
0000
0010
0000
,
1000
0010
0001
0000
0100
0000
0010
0000
,
1000
0001
0100
0000
1000
0000
0010
0000
,
0100
0001
1000
0000
0010
0100
0001
0000
,
1000
0100
0010
0000
0001
0100
0010
0000
,
1000
0100
0001
0000
0010
0100
1000
0000
,
0010
0001
0100
0000
1000
0010
0100
0000
,
0001
0100
1000
0000
1000
0000
1010
0000
,
1000
0010
0001
0000
0001
0000
1001
0000
,
0001
0100
1000
0000
1000
0000
1010
0000
,
1000
0010
0001
0000
1001
0000
1001
0000
,
1000
0000
0101
0000
0100
0010
0100
0000
,
0101
0001
0010
0100
,
1000
0100
1000
0010
1000
0100
1000
0001
,
1000
1000
0010
0100
,
0001
0000
1100
0000
0100
0010
0100
0000
,
1100
1000
0010
0100
,
0001
0100
0001
0010
0001
0100
0001
1000
,
0001
0010
0100
1000
,
0010
0000
0100
0000
0101
0000
0100
0010
,
1000
1010
0010
1100
,
1000
0100
0001
0100
1000
0010
0100
0010
,
1000
0000
0010
0000
0110
0000
0100
0001
,
0100
0010
0101
0001
,
0110
0000
0100
0010
0001
0000
1001
0000
,
1000
0010
0100
0001
0100
0010
1000
0100
,
1000
0010
0100
0001
0010
1000
0100
0001
,
1000
0000
0000
0000
;

//---------------dance-single - HEAVY----------------
#NOTES:
     dance-single:
     HEAVY:
     Hard:
     9:
     0.536,0.611,0.212,0.200,0.143:
0000
0000
0000
0000
,
0000
0000
0000
0000
,
0000
0000
0000
0000
,
0000
0000
0000
0000
,
0000
0000
0000
0000
,
0000
0000
0000
0000
,
0000
0000
0000
0000
,
0000
0000
0000
0000
,
1000
0000
0010
0100
1000
0010
0001
0000
,
1100
0100
0100
0010
,
1002
0000
0103
0000
0200
0000
1300
0100
,
0010
0001
0100
1000
0100
0001
0100
1000
,
0001
0000
0100
0010
0001
0100
1000
0000
,
0101
0100
0100
0010
,
2001
0000
3100
0000
0200
0000
0301
0100
,
0010
1000
0100
0001
0100
1000
0001
0000
,
1000
0100
1000
0000
1000
0000
0000
0000
0010
0000
0100
0000
0100
0000
0000
0000
,
0001
0010
0001
0000
0001
0000
0000
0000
0010
0000
0100
0000
0100
0000
0000
0000
,
1000
0100
1000
0000
0100
0000
0000
0000
0010
0000
1000
0000
1000
0000
0000
0000
,
0001
0010
0001
0000
0010
0000
0000
0000
0010
0000
0001
0000
0001
0000
0000
0000
,
1000
0010
1000
0000
0100
0000
0001
0000
1000
0000
0100
0000
0001
0000
0000
0000
,
0001
0010
0001
0000
0100
0000
1000
0000
0001
0000
0100
0000
1000
0000
0000
0000
,
1000
0100
1000
0000
0010
0000
0001
0000
0100
0000
1000
0000
0001
0000
0000
0000
,
0001
0100
0001
0000
0010
0000
1000
0000
0100
0000
0001
0000
1000
0000
0000
0000
,
0001
0201
0310
0010
,
1010
1000
1200
0310
,
1000
1020
0130
0100
,
0201
0310
0001
1000
,
1200
0310
0001
0201
,
0310
1100
1000
0010
,
1001
0010
0010
0011
,
1010
0010
0010
0010
,
1001
0000
0010
0100
0010
0000
0010
0000
0010
0000
0010
0000
0100
0000
0010
0000
,
1001
0000
0010
0100
0010
0000
0010
0000
0010
0000
0010
0000
0100
0000
0010
0000
,
1001
0000
0100
0010
0100
0000
0100
0000
0001
0000
0100
0000
1000
0000
0100
0000
,
1001
0000
0010
0100
0010
0000
0100
0000
1000
0000
0100
0000
0001
0000
0100
0000
,
1001
0000
0010
0100
0010
0000
0100
0000
0001
0000
0010
0000
1000
0000
0100
0000
,
1001
0000
0010
0100
0010
0000
0100
0000
1000
0000
0010
0000
0001
0000
0100
0000
,
1001
0000
0100
0010
0100
0000
0010
0000
0001
0000
0100
0000
1000
0000
0010
0000
,
1001
0000
0100
0010
0100
0000
0010
0000
1000
0000
0100
0000
0001
0000
0010
0000
,
0100
1000
0000
0100
0000
0001
0000
0020
,
0000
0130
0000
0110
0000
2100
0000
3100
,
0000
0001
0000
0010
0000
0100
0000
0010
,
0000
0012
0000
0103
0000
1000
0000
0010
,
0000
0001
0000
0100
0000
1000
0000
0100
,
0000
0120
0000
0031
0000
0100
0000
1000
,
0000
0100
0000
0110
0000
0001
0000
0100
,
0000
2010
0000
3001
0000
0100
0000
0010
,
2000
0000
0000
0100
0000
0000
0100
0000
3200
0000
0000
0001
0000
0000
0001
0000
,
0302
0000
0000
0010
0000
0000
0010
0000
0023
0000
0000
0100
0000
0000
0100
0000
,
0230
0000
0000
1000
0000
0000
1000
0000
2300
0000
0000
0010
0000
0000
0010
0000
,
3020
0000
0000
1000
0000
0000
1000
0000
2030
0000
0000
0100
0000
0000
0100
0000
,
3200
0000
0000
0001
0000
0000
0001
0000
0302
0000
0000
0010
0000
0000
0010
0000
,
0023
0000
0000
1000
0000
0000
1000
0000
2030
0000
0000
0001
0000
0000
0001
0000
,
3002
0000
0000
1000
0000
0000
1000
0000
2003
0000
0000
0100
0000
0000
0100
0000
,
3200
0000
0000
0001
0000
0000
0001
0000
0302
0000
0000
0010
0000
0000
0010
0000
,
0013
0000
0000
0001
0000
0000
0100
0000
0010
0000
0000
1000
0000
0000
0100
0000
,
1000
0000
0000
0010
0000
0000
0100
0000
0001
0000
0000
0010
0000
0000
1000
0000
,
0100
0000
0000
0010
0000
0000
0100
0000
1000
0000
0000
0001
0000
0000
0100
0000
,
0010
0000
0000
0100
0000
0000
0001
0000
0100
0000
0000
1000
0000
0000
0100
0000
,
0001
0000
0000
0010
0000
0000
0100
0000
1000
0000
0000
0100
0000
0000
0001
0000
,
1000
0000
0000
0010
0000
0000
0100
0000
0001
0000
0000
0100
0000
0000
0010
0000
,
1000
0000
0000
0100
0000
0000
1000
0000
0010
0000
0000
0100
0000
0000
0010
0000
,
0100
0000
0000
0001
0000
0000
0100
0000
0010
0000
0000
1000
0000
0000
0010
0000
,
0100
0000
0000
0001
0000
0000
0100
0000
1000
0000
0000
0010
0000
0000
0001
0000
,
1000
0100
1000
0010
0001
0001
0001
0000
,
0001
0100
0001
0100
0010
0010
0010
0000
,
0001
0100
0001
0010
1000
1000
1000
0000
,
1000
0100
1000
0100
0010
0010
0010
0000
,
1000
0010
0001
0010
1000
1000
1000
0000
,
0010
1000
0010
0001
0100
0100
0100
0000
,
0001
0010
1000
0010
0001
0001
0001
0000
,
0010
0001
0010
1000
0100
0100
0100
0000
,
0010
0000
2010
0000
3100
0010
0001
0100
,
1000
0000
1020
0000
0031
0100
0010
1000
,
0100
0000
2100
0000
3010
0100
1000
0010
,
0001
0000
0201
0000
1300
0010
0100
0000
,
1001
1000
0001
0100
0010
1000
0100
1000
,
1001
0001
1000
0100
0010
0001
0100
0001
,
1001
1000
0010
1000
0010
0100
1000
0001
,
0100
1000
0010
0001
0100
0010
1001
0000
,
1000
0010
0100
0001
0100
0010
1000
0100
,
0001
0100
1000
0010
0001
0010
1000
0100
,
0001
0010
1000
0100
0001
0010
1000
0100
,
0010
0001
0010
1000
0010
0001
0100
1000
,
0100
0001
0010
0001
0100
0010
0100
0001
,
0010
1000
0010
0001
0100
1000
0100
0001
,
0010
1000
0100
0001
0010
1000
0100
0001
,
0010
1000
0001
1000
0100
0001
0100
1000
,
0010
1000
0100
0010
0001
0100
1000
0100
,
0001
1000
0010
0001
0010
1000
0100
0010
,
0001
0010
1000
0100
0001
0010
1000
0100
,
0001
0100
0010
1000
0010
0001
0010
1000
,
0100
0010
0001
1000
0010
0001
0010
1000
,
0100
0001
0100
1000
0010
0100
0001
0010
,
1000
0010
0001
0100
1000
0010
0001
0100
,
1000
0100
0001
0100
1000
0010
0001
0100
,
1000
0000
0000
0000
;

//---------------dance-single - ONI----------------
#NOTES:
     dance-single:
     ONI:
     Challenge:
     10:
     0.906,1.000,0.372,0.298,0.828: // measure 1
0000
0000
0000
0000
,  // measure 2
0000
0000
0000
0000
,  // measure 3
0000
0000
0000
0000
,  // measure 4
0000
0000
0000
0000
,  // measure 5
0000
0000
0000
0000
,  // measure 6
0000
0000
0000
0000
,  // measure 7
0000
0000
0000
0000
,  // measure 8
0000
0000
0000
0000
,  // measure 9
1000
0100
0010
0100
1000
0010
0001
0100
,  // measure 10
1000
0010
0100
0010
0100
1000
0100
0001
,  // measure 11
0010
0100
0010
0100
1000
0100
1000
0100
,  // measure 12
0010
0000
0000
0000
0001
1000
0000
1000
0100
0010
0100
0001
0100
0000
1000
0000
,  // measure 13
0001
0010
0100
0010
0001
0100
1000
0100
,  // measure 14
0001
0010
0100
0010
0100
0010
1000
0100
,  // measure 15
1000
0010
0100
0010
0100
0001
0010
0100
,  // measure 16
0010
0000
0000
0000
0100
0001
0000
0001
0100
1000
0100
0010
0100
0001
0100
0000
,  // measure 17
0001
0100
0001
0010
0001
0000
0100
0000
0000
0000
0001
0000
0100
0000
0100
0000
,  // measure 18
1000
0100
1000
0010
1000
0000
0100
0000
0000
0000
1000
0000
0100
0000
0100
0000
,  // measure 19
0001
0100
0001
0010
0001
0000
0100
0000
0000
0000
0001
0000
0010
0000
0010
0000
,  // measure 20
1000
0010
1000
0100
1000
0000
0100
0000
0000
0000
1000
0000
0010
0000
0010
0000
,  // measure 21
0001
0010
0001
0100
0001
0000
0100
0000
1000
0000
0100
0000
0001
0000
1000
0000
,  // measure 22
0001
0010
0001
0100
0001
0000
0010
0000
0001
0000
0100
0000
0100
0000
1000
0000
,  // measure 23
1000
0010
1000
0100
1000
0000
0100
0000
0001
0000
0100
0000
1000
0000
0001
0000
,  // measure 24
1000
0010
1000
0100
1000
0000
0010
0000
1000
0000
0100
0000
0100
0000
0001
0000
,  // measure 25
1001
0010
1000
0010
0001
0010
0100
0010
,  // measure 26
1000
0010
0100
0010
0001
0010
0100
0010
,  // measure 27
1000
0010
0100
0010
0100
0010
0001
0010
,  // measure 28
1000
0010
0001
0010
0100
0010
1000
0010
,  // measure 29
1000
0010
0100
0001
0100
0001
1000
0010
,  // measure 30
0100
0010
0001
1000
0100
1000
0001
0010
,  // measure 31
1000
0010
0100
0010
0001
0010
1000
0001
,  // measure 32
1000
0010
0100
0010
0001
0010
1000
0000
,  // measure 33
1001
0000
0010
0100
0010
0000
0110
0000
1001
0000
0110
0000
0100
0000
0010
0000
,  // measure 34
1001
0000
0010
0100
0010
0000
0110
0000
1001
0000
0110
0000
0100
0000
0010
0000
,  // measure 35
1001
0000
0100
0010
0100
0000
0100
0000
0001
0000
0100
0000
1000
0000
0010
0000
,  // measure 36
1001
0000
0010
0100
0010
0000
0100
0000
1000
0000
0100
0000
0001
0000
0010
0000
,  // measure 37
1001
0000
0010
0100
0010
0000
0100
0000
0001
0000
0010
0000
1000
0000
0100
0000
,  // measure 38
1001
0000
0010
0100
0010
0000
0100
0000
1000
0000
0010
0000
0001
0000
0100
0000
,  // measure 39
1001
0000
0100
0010
0100
0000
0010
0000
0011
0000
0100
0000
1100
0000
0010
0000
,  // measure 40
1001
0000
0100
0010
0100
0000
0010
0000
1100
0000
0100
0000
0101
0000
0100
0000
,  // measure 41
1001
1000
0010
0100
0201
0001
0310
1000
,  // measure 42
1100
0020
0100
0130
0001
0100
0010
0100
,  // measure 43
0001
0201
0010
0310
1000
0100
1100
1000
,  // measure 44
1001
0001
0100
0120
0100
1030
0100
0002
,  // measure 45
0100
0103
1000
0020
0100
0130
0001
0100
,  // measure 46
0102
0100
0013
0001
0010
0100
1100
1000
,  // measure 47
0110
0010
0110
0100
0110
0001
0100
1000
,  // measure 48
1001
1000
0010
0001
1001
0100
0010
1000
,  // measure 49
1000
0000
0100
0000
1000
0100
1000
0100
1000
0000
0001
0000
0010
0001
0010
0001
,  // measure 50
0010
0000
0001
0000
0100
0010
0100
0010
0100
0000
0001
0000
0100
0010
0100
0010
,  // measure 51
0100
0000
0001
0000
0100
1000
0100
1000
0100
0000
0001
0000
0100
0010
0100
0010
,  // measure 52
0100
0000
0001
0000
1000
0100
1000
0100
1000
0000
0001
0000
0100
0010
0100
0010
,  // measure 53
0100
0000
1000
0000
0010
0100
0010
0100
0010
0000
1000
0000
0100
0001
0100
0001
,  // measure 54
0100
0000
1000
0000
0010
0100
0010
0100
0010
0000
1000
0000
0001
0100
0001
0100
,  // measure 55
0001
0000
1000
0000
0010
0100
0010
0100
0010
0000
1000
0000
0100
1000
0100
1000
,  // measure 56
0100
0000
1000
0000
0001
0010
0001
0010
0001
0000
0100
0000
0010
0100
0010
0100
,  // measure 57
0010
1000
0010
1000
0010
1000
0010
1000
0100
1000
0100
1000
0100
1000
0100
1000
,  // measure 58
0001
1000
0001
1000
0001
1000
0001
1000
0010
1000
0010
1000
0010
1000
0010
0100
,  // measure 59
0010
0100
0010
0100
0010
0100
0010
0100
0001
0100
0001
0100
0001
0100
0001
1000
,  // measure 60
0001
1000
0001
1000
0001
1000
0001
1000
0010
1000
0010
1000
0010
1000
0010
1000
,  // measure 61
0001
0100
0001
0100
0001
0100
0001
0100
1000
0100
1000
0100
1000
0100
1000
0100
,  // measure 62
0001
0010
0001
0010
0001
0010
0001
0010
0001
0100
0010
0100
0010
0100
0010
0100
,  // measure 63
0010
1000
0100
1000
0100
1000
0100
1000
0010
0100
0010
0100
0010
0100
0010
1000
,  // measure 64
0001
1000
0001
1000
0001
1000
0001
0010
0001
0100
0010
1000
0100
1000
0010
0100
,  // measure 65
0010
1000
0100
0001
0100
1000
0010
0100
0010
0100
0001
0100
1000
0100
0001
1000
,  // measure 66
0001
0000
0100
0010
0100
0000
0010
0000
0110
0000
1000
0000
1100
0000
1000
0000
,  // measure 67
0001
0000
0010
0100
0010
0000
0100
0000
0110
0000
0100
0000
0101
0000
0100
0000
,  // measure 68
1000
0000
0010
0100
0010
0000
1000
0000
1010
0000
0010
0000
0110
0000
0100
0000
,  // measure 69
0001
0000
0100
0010
1000
0000
0100
0000
0110
0000
0010
0000
0011
0000
0001
0000
,  // measure 70
0100
0000
0010
1000
0010
0000
0100
0000
0101
0000
0001
0000
1001
0000
1000
0000
,  // measure 71
0010
0000
1000
0100
1000
0000
0001
0000
0101
0000
0100
0000
0110
0000
0010
0000
,  // measure 72
0100
0000
0010
0100
0010
0000
1000
0000
1100
0000
0100
0000
0101
0000
0001
0000
,  // measure 73
0010
0000
0001
0010
0001
0000
0010
0000
1010
0000
1000
0000
1100
0000
0100
0000
,  // measure 74
0010
0000
0100
0010
0100
0000
0110
0000
0010
0100
0000
0100
0001
0000
0100
0000
,  // measure 75
1100
0000
1000
0010
1000
0000
1000
0000
1001
0000
1100
0000
1001
0000
1100
0000
,  // measure 76
1000
0000
0010
0100
0010
0000
0110
0000
0010
0100
0000
0100
1000
0000
0100
0000
,  // measure 77
0101
0000
0001
0100
0001
0000
0001
0000
1001
0000
0101
0000
1001
0000
0101
0000
,  // measure 78
0001
0000
1000
0020
2000
0030
3200
0000
0010
0000
0320
0000
0100
0000
0130
0000
,  // measure 79
1200
0000
1300
0002
0100
0003
0200
0000
0010
0000
0320
0000
0100
0000
0130
0000
,  // measure 80
0201
0000
0301
2000
0200
3000
0320
0000
0100
0000
0230
0000
1000
0000
0301
0000
,  // measure 81
0101
0000
0100
0010
0100
0010
0100
0001
1000
0001
1000
0001
1001
0000
0000
0000
,  // measure 82
1000
0010
0100
0010
1000
0100
1000
0001
0100
0001
0100
0010
1000
0010
1000
0100
,  // measure 83
1000
0100
1000
0001
0100
0001
0100
0010
1000
0010
1000
0010
1000
0200
0010
0302
,  // measure 84
0010
0203
0010
0302
0010
0203
0010
0302
0010
0203
0010
0302
0100
0013
0100
0010
,  // measure 85
1000
0010
1000
0100
1000
0100
1000
0001
1000
0001
1000
0010
1000
0010
1000
0001
,  // measure 86
0100
0001
0100
0001
0100
0010
0100
0010
1000
0100
1000
0100
1000
0010
0100
0010
,  // measure 87
0100
0001
0100
0001
0100
0001
1000
0001
1000
0001
0010
0100
1000
0100
2000
0100
,  // measure 88
3020
0100
2030
0100
3020
0100
2030
0100
3020
0100
2030
0100
3020
0100
1030
0100
,  // measure 89
1000
0010
1000
0010
1000
0001
0100
0001
0100
0001
1000
0001
1000
0010
1000
0010
,  // measure 90
1000
0100
1000
0100
1000
0010
0100
0010
0100
0001
1000
0001
1000
0010
0100
0010
,  // measure 91
0100
0010
1000
0010
1000
0100
1000
0100
1000
0001
0100
0001
0100
0010
0100
0020
,  // measure 92
0100
0032
0100
0023
0100
0032
0100
0023
0100
0032
0100
0023
0100
0032
0100
0013
,  // measure 93
0100
0001
0010
0001
0010
0001
0100
0010
0100
0010
1000
0100
1000
0100
1000
0010
,  // measure 94
0100
0010
0100
0001
0100
0001
0100
0010
0100
0010
1000
0100
1000
0100
1000
0010
,  // measure 95
0100
0001
0100
0010
1000
0100
0010
0001
0010
0001
0100
0010
0100
0010
2000
0010
,  // measure 96
3200
0010
2300
0010
3200
0010
2300
0010
3200
0010
2300
0010
3200
0010
1300
0010
,  // measure 97
1000
0100
0010
0001
0100
0010
0100
0001
0010
0100
1000
0100
0001
0100
1000
0010
,  // measure 98
0001
0000
0000
0000
;
