#TITLE:EUROPEAN AVIATION;
#SUBTITLE:;
#ARTIST:naotyu-;
#TITLETRANSLIT:;
#SUBTITLETRANSLIT:;
#ARTISTTRANSLIT:;
#CREDIT:;
#BANNER:EUROPEAN AVIATION.png;
#BACKGROUND:EUROPEAN AVIATION-bg.png;
#LYRICSPATH:;
#CDTITLE:cdtitle.png;
#MUSIC:EUROPEAN AVIATION.mp3;
#OFFSET:-2.200;
#SAMPLESTART:28.800;
#SAMPLELENGTH:12.000;
#SELECTABLE:YES;
#BPMS:0.000=135.000,224.000=67.500,240.000=135.000;
#STOPS:;
#BGCHANGES:;

//---------------dance-single - BASIC----------------
#NOTES:
     dance-single:
     BASIC:
     Easy:
     3:
     0.207,0.292,0.057,0.043,0.000:
0000
0000
0000
0000
,
0000
0000
0000
0000
,
0000
0000
0000
0000
,
0000
0000
0000
0000
,
0000
0000
0000
0000
,
0000
0000
0000
0000
,
0000
0000
0000
0000
,
0000
0000
0000
0000
,
1000
0000
1000
0000
,
1000
0000
1000
0000
,
0001
0000
0001
0000
,
0001
0000
0001
0000
,
1000
0000
1000
0000
,
1000
0000
1000
0000
,
0001
0000
0001
0000
,
0001
0000
0001
0000
,
1000
1000
0010
1000
,
0010
0010
0001
0010
,
1000
1000
0001
1000
,
0010
0010
0100
0100
,
0001
0001
1000
0010
,
1000
1000
0100
1000
,
0001
0001
0010
0010
,
1000
0001
1000
0001
,
1001
0000
1000
0000
,
1000
0000
0010
0000
,
0010
0000
1000
0000
,
1000
0000
0001
0000
,
0001
0000
0010
0000
,
0010
0000
0001
0000
,
0001
0000
1000
0000
,
1000
0100
0010
1001
,
0001
0001
0010
0010
,
1000
0010
1000
1000
,
0010
1000
0100
0100
,
0010
0010
0001
0001
,
1000
0010
0010
1000
,
0100
1000
0001
0001
,
0010
0010
0100
0100
,
1000
0001
0010
0010
,
0100
0100
1000
0001
,
0001
1000
1000
0010
,
0010
0001
0100
1000
,
1000
0010
0010
0100
,
0100
1000
0001
0010
,
0010
0001
0100
0100
,
0010
0010
1000
0001
,
1000
0001
1000
1000
,
0001
0000
1001
0000
,
1000
0000
1001
0000
,
1000
0000
1001
0000
,
0001
0010
0100
1001
,
0100
1000
0010
0100
,
0001
0100
0010
0100
,
0001
0010
0100
1000
,
0010
0100
1000
0001
,
2001
0000
0000
0000
,
3020
0000
0000
0000
,
2030
0000
0000
0000
,
3002
0000
0000
0000
,
1003
0001
0000
0001
,
1000
0000
1000
0001
,
0000
0100
0000
0001
,
0100
0010
1000
0001
,
1000
0010
0100
0001
,
0100
0010
1000
0100
,
0010
0001
0100
1000
,
0001
0000
0100
0000
2000
0002
3003
0000
,
1001
0000
0000
0000
;

//---------------dance-single - TRICK----------------
#NOTES:
     dance-single:
     TRICK:
     Medium:
     5:
     0.368,0.438,0.093,0.272,0.000:
0000
0000
0000
0000
,
0000
0000
0000
0000
,
0000
0000
0000
0000
,
0000
0000
0000
0000
,
0000
0000
0000
0000
,
0000
0000
0000
0000
,
0000
0000
0000
0000
,
0000
0000
0000
0000
,
1000
0100
1000
0000
1000
0100
1000
0000
,
1000
0100
0001
0100
1000
1000
1000
0000
,
0001
0100
0001
0000
0001
0100
0001
0000
,
0001
0100
1000
0100
0001
0001
0001
0000
,
1000
0100
0001
0000
0001
0100
1000
0000
,
1000
0010
0001
0010
1000
1000
1000
0000
,
0001
0100
1000
0000
1000
0100
0001
0000
,
0001
0010
1000
0010
0001
0001
0001
0000
,
1000
0000
0010
0000
0010
1000
0100
0000
,
0020
0000
0032
0000
0013
1000
0100
0000
,
0001
0000
0100
0000
0001
0010
0100
0000
,
0002
0000
2003
0000
3010
0001
1000
0000
,
0001
0000
0010
0000
0010
0001
0100
0000
,
0020
0000
2030
0000
3010
0001
0100
0000
,
1000
0000
0100
0000
1000
0010
0100
0000
,
2000
0000
3002
0000
0013
1000
0001
0000
,
2001
3000
0002
0003
,
0200
0300
0020
0030
,
0002
0003
2000
3000
,
0020
0030
0200
0300
,
0002
0003
0020
0030
,
2000
3000
0002
0003
,
2000
3000
0020
0030
,
0001
0100
1000
0010
0001
1000
1001
0000
,
0001
0100
0100
0000
0010
0010
1000
0100
,
2000
0000
3001
0000
0100
0100
1000
0000
,
1010
1000
0100
1000
0100
0100
0010
0001
,
0100
1000
0010
0000
0002
0000
1003
0000
,
1000
0100
0100
0000
0010
0010
0001
0100
,
0002
0000
1003
0000
0100
0100
0001
0000
,
0011
0001
0100
0001
0100
0100
0010
1000
,
0100
0001
0010
0000
2000
0000
3001
0000
,
1000
1000
0100
0000
0110
0000
1100
0000
,
0001
0001
1000
0000
1000
1000
0010
0000
,
0101
0100
0001
0100
1000
0100
0001
0100
,
1000
0010
0001
0000
0010
1000
0100
0000
,
0001
0001
0100
0000
0110
0000
0101
0000
,
1000
1000
0001
0000
0001
0001
0010
0000
,
1100
0100
1000
0100
0001
0100
1000
0100
,
0001
0010
1000
0000
0010
0001
0100
0000
,
0002
0103
2000
3100
,
0002
0103
2000
3100
,
2000
3000
0002
0003
,
1000
0000
0001
0000
1000
1000
0001
0001
,
1001
0000
1000
0100
0001
0000
0010
0100
,
1000
0000
0010
0001
0100
0000
1000
1000
,
0100
0001
0001
0010
1000
0000
1000
0010
,
0001
0000
0100
1000
0010
0000
0001
1000
,
1002
0000
0010
0000
,
0023
0000
0100
0000
,
2030
0000
0001
0000
,
3002
0000
0010
0000
,
1003
0000
0001
1000
0000
0010
0001
0000
,
1000
0000
0010
1000
0000
0001
0100
0000
,
0100
0000
0010
0001
0000
0001
0100
0000
,
1000
0000
0001
0100
0000
0100
0001
0000
,
1000
0010
0100
0000
0001
0010
0001
0000
,
1000
0100
0010
0000
0001
0100
1000
0000
,
0010
0001
0100
0010
1000
0100
1000
0010
,
0100
0001
0010
0100
2000
0002
3003
0000
,
1001
0000
0000
0000
;

//---------------dance-single - HEAVY----------------
#NOTES:
     dance-single:
     HEAVY:
     Hard:
     8:
     0.476,0.535,0.157,0.157,0.200:
0000
0000
0000
0000
,
0000
0000
0000
0000
,
0000
0000
0000
0000
,
0000
0000
0000
0000
,
0000
0000
0000
0000
,
0000
0000
0000
0000
,
0000
0000
0000
0000
,
0000
0000
0000
0000
,
0010
0000
0100
0000
1000
0000
0001
0000
1000
0000
0100
0000
1000
0000
1000
0100
,
1000
0000
0010
0000
0100
0000
0001
0100
0001
0000
1000
0000
0001
0000
0001
0100
,
0001
0000
0010
0000
0001
0000
0100
0000
0010
0000
1000
0000
0001
0000
1000
0100
,
1000
0000
0100
0000
1000
0000
0010
0100
0010
0000
0100
0000
0001
0000
0010
0001
,
1000
0000
0100
0000
0010
0000
0100
0000
0001
0000
0100
0000
1000
0000
1000
0001
,
1000
0000
0100
0000
0010
0000
0001
0010
0001
0000
0100
0000
0010
0000
1000
0001
,
1000
0100
1000
0010
1000
0001
0010
0001
,
0100
0110
0000
1010
0000
0101
0000
0000
,
1000
0100
0010
0000
0010
1000
0100
0000
,
0010
0100
0001
0100
0010
1000
0100
0000
,
0001
0100
0010
0000
0010
0001
0100
0000
,
0010
0100
1000
0100
0010
0001
0100
0000
,
0001
0100
0010
0000
0010
0001
0100
0000
,
0010
0100
1000
1000
0010
0001
0100
0000
,
1000
0100
0010
0000
0010
1000
0100
0000
,
1000
1100
0000
0011
0000
0110
0000
0001
,
1001
0000
0000
0100
0000
0000
0010
0000
0001
0000
0000
0100
0000
0000
0010
0000
,
1000
0000
0000
0001
0000
0000
0100
0000
0010
0000
0000
1000
0000
0000
0010
0000
,
0100
0000
0000
0010
0000
0000
0001
0000
0100
0000
0000
0010
0000
0000
0100
0000
,
0010
0000
0000
1000
0000
0000
0100
0000
0010
0000
0000
0001
0000
0000
0100
0000
,
0010
0000
0000
1000
0000
0000
0100
0000
1000
0000
0000
0010
0000
0000
0100
0000
,
0001
0000
0000
0010
0000
0000
0001
0000
0010
0000
0000
0001
0000
0000
0100
0000
,
0010
0000
0000
1000
0000
0000
0001
0000
0010
0000
0000
0001
0000
0000
1000
0000
,
1001
0000
0110
0000
0001
0100
1001
0000
,
0001
0100
0000
0000
0100
0010
0000
0000
0010
0000
0010
0000
1000
0000
0100
0000
,
1000
0001
0000
0000
0001
0100
0000
0000
0100
0000
1000
0000
0010
0000
0000
0000
,
0010
1000
0000
1000
0100
0000
0100
0010
0000
0010
1000
0000
0010
0000
0001
0000
,
0100
1000
0010
0001
0001
1001
1000
0001
,
1000
0100
0000
0000
0100
0010
0000
0000
0010
0000
0010
0000
0001
0000
0100
0000
,
0001
1000
0000
0000
1000
0100
0000
0000
0100
0000
0001
0000
0010
0000
0000
0000
,
0010
0001
0000
0001
0100
0000
0100
0010
0000
0010
0001
0000
0010
0000
1000
0000
,
0100
1000
0000
1000
0010
0000
0010
1000
0000
1000
0001
0000
0001
0000
1000
0000
,
1001
0001
0100
0010
0101
0001
2001
0000
,
3001
0001
1020
0000
1030
1000
0010
0100
,
0001
0100
1000
0020
0000
0032
0000
0203
,
0000
1300
0001
0010
0000
0010
1000
0001
,
0002
0000
0103
0000
1001
0001
0101
0200
,
0000
2300
0000
3020
0001
0031
0010
1000
,
1000
0100
0000
0100
0010
0000
0010
0001
0000
0001
0100
0000
1000
0000
0100
0000
,
0001
0010
0000
0010
0100
0000
0100
0010
0000
0010
0001
0000
0100
0000
0001
0000
,
2000
3200
0302
0023
,
2030
3200
0302
0023
,
2030
3000
0002
0003
,
0110
0000
1001
0000
0010
1000
0001
0010
,
1001
1000
0010
0100
0001
0010
0001
0100
,
0010
1000
0100
0001
0010
0100
0001
0010
,
1000
0100
0001
1000
0010
0100
1000
0010
,
0100
0001
0010
0100
0001
0010
0100
0001
,
1001
0000
0100
0100
0000
0000
0010
0000
0001
0000
0100
0000
1000
0000
0000
0010
,
0010
0001
0000
0010
0100
0001
1000
0000
,
0100
0000
0010
0001
0010
0100
1000
0000
,
0001
0000
0100
0010
1000
0100
0001
0000
,
1000
0000
0000
0000
0001
0000
0010
0000
0000
0100
0010
0000
0001
0000
0000
0000
,
1000
0010
0010
1000
0001
0001
0100
0000
,
0100
0000
1000
0010
0000
0010
0100
0000
,
1000
0000
0001
0100
0000
0100
0001
0000
,
1000
0010
0100
0001
0100
0010
0100
0001
,
1000
0100
0010
1000
0010
0100
0001
0100
,
0001
0010
0100
1000
0010
0001
0100
1000
,
0010
0000
0000
0100
0000
0000
1000
0000
0000
0020
0000
0000
0032
0000
0100
0000
2003
0000
3001
0000
0000
0000
0000
0000
,
1001
0000
0000
0000
;

//---------------dance-single - ONI----------------
#NOTES:
     dance-single:
     ONI:
     Challenge:
     9:
     0.669,0.802,0.400,0.250,0.586:
0000
0000
0000
0000
,
0000
0000
0000
0000
,
0000
0000
0000
0000
,
0000
0000
0000
0000
,
0000
0000
0000
0000
,
0000
0000
0000
0000
,
0000
0000
0000
0000
,
0000
0000
0000
0000
,
0010
0000
0100
0000
1001
0000
0001
0000
1000
0000
0100
0000
1100
0000
1000
0100
,
1000
0000
0010
0000
0101
0000
0001
0100
0001
0000
1000
0000
1001
0000
0001
0100
,
0001
0000
0010
0000
0101
0000
0100
0000
0010
0000
1000
0000
1001
0000
1000
0100
,
1000
0000
0100
0000
1010
0000
0010
0100
0010
0000
0100
0000
0011
0000
0010
0001
,
1000
0000
0100
0000
0110
0000
0100
0000
0001
0000
0100
0000
1001
0000
1000
0001
,
1000
0000
0100
0000
1010
0000
0001
0010
0001
0000
0100
0000
1010
0000
1000
0001
,
1000
0100
1010
0010
1000
0001
0011
0001
,
0100
0110
0000
1010
0000
0101
0000
0000
,
1000
0100
1000
0000
0010
0000
0010
0000
1000
0100
1000
0000
1000
0100
1000
0000
,
0010
0000
0100
0000
0001
0100
0001
0000
1000
0000
0010
0000
1001
0000
0000
0000
,
0001
0100
0001
0000
0010
0000
0010
0000
0001
0100
0001
0000
0001
0100
0001
0000
,
0010
0000
0100
0000
1000
0100
1000
0000
0001
0000
0010
0000
1001
0000
0000
0000
,
0001
0010
0100
0000
0010
0000
0001
0000
0010
0000
1000
0000
0010
0000
0001
0000
,
0010
0001
0010
0000
0001
1000
0001
0000
0010
0000
0001
0000
1001
0000
0000
0000
,
1000
0100
1000
0000
0010
0100
0010
0000
1000
0100
1000
0000
0001
0100
0001
0000
,
1000
1100
0000
0011
0000
0110
0000
0001
,
0010
0000
0100
0000
1001
0000
0001
0000
1000
0000
0100
0000
1100
0000
1000
0100
,
1000
0000
0010
0000
0101
0000
0001
0100
0001
0000
1000
0000
1001
0000
0001
0100
,
0001
0000
0010
0000
0101
0000
0100
0000
0010
0000
1000
0000
1001
0000
1000
0100
,
1000
0000
0100
0000
1010
0000
0010
0100
0010
0000
0100
0000
0011
0000
0010
0001
,
1000
0000
0100
0000
0110
0000
0100
0000
0001
0000
0100
0000
1001
0000
1000
0001
,
1000
0000
0100
0000
1010
0000
0001
0010
0001
0000
0100
0000
1010
0000
1000
0001
,
1000
0000
0010
0100
0010
0000
1000
0100
1000
0000
0001
0100
0001
0000
1000
0000
,
1001
0000
0000
0110
0000
0000
0001
0100
1000
1001
0000
0000
,
0001
0100
0000
0000
0100
0010
0000
0000
0010
1000
0010
0000
1000
0100
1000
0000
,
1000
0001
0000
0000
0001
0100
0000
0000
0010
0100
0010
0000
1000
0100
1000
0000
,
0010
1000
0000
1000
0100
0000
0100
0010
0000
0010
1000
0010
0001
0100
0010
0100
,
0010
0100
1000
0100
0001
0100
0001
1000
0001
0000
1001
0000
1000
0001
0000
0001
,
1000
0100
0000
0000
0100
0010
0000
0000
0010
0001
0010
0000
0001
0100
0001
0000
,
0001
1000
0000
0000
1000
0100
0000
0000
0010
0100
0010
0000
0001
0100
0001
0000
,
1000
0001
0000
0001
0100
0000
0100
0010
0000
0010
1000
0010
1000
0001
1000
0100
,
1000
0010
0000
0010
1000
0000
1000
0001
0000
0001
1000
0000
0001
0010
0100
0010
,
0001
1001
0101
0110
0101
1001
2001
0000
,
3001
0000
1001
0000
1000
0010
1000
0100
1000
0100
1000
0010
0100
0001
0010
0100
,
1000
0100
1000
1020
0100
0032
0010
0203
,
1000
1300
0001
0200
0000
0310
1000
0001
,
0002
0100
0103
0101
1001
1000
1100
0200
,
1000
2300
0010
3020
0001
0031
0010
1000
,
1000
0100
0000
0100
0010
0000
0010
0001
0000
0001
0100
0010
0100
0001
1000
0010
,
0001
0010
0000
0010
0100
0000
0100
0010
0000
0010
1000
0100
0010
0100
0001
0100
,
1000
0100
1000
0000
0001
0100
0001
0000
0010
0100
0010
0000
1000
0100
1000
0000
,
0001
0100
0001
0000
1000
0100
1000
0000
0010
0100
0010
0000
1000
0100
1000
0000
,
0001
0010
0001
0000
0100
0010
0100
0000
0010
1000
0010
0000
1000
0100
1000
0000
,
1001
0001
1001
0000
0010
1000
0001
0010
,
1001
0000
0000
1000
0010
0100
0000
0001
0000
0100
0010
0000
1000
0100
0000
0010
,
0001
0000
1000
0000
0000
0100
0000
0010
0000
0001
1000
0000
0010
0100
0000
0001
,
1000
0000
0000
0000
0100
0010
0000
0100
0000
1000
0100
0000
1000
0010
0000
1000
,
0000
0000
0001
0000
0000
1000
0000
0010
1000
0100
0010
0001
0100
0010
1000
0001
,
1001
0000
0100
0100
0010
0000
0010
0000
0001
0000
0100
0000
1000
0000
0000
0010
,
0010
0000
0000
0010
0100
0001
1000
0000
,
0100
0000
0000
0000
0000
0000
0000
0000
0000
0000
0000
0000
0000
0000
0000
0000
0000
0000
0001
0000
0000
0000
0010
0000
0000
0000
0010
0000
0000
0000
0100
0000
0000
0000
1000
0000
0000
0000
1000
0000
0000
0000
0000
0000
0000
1000
0000
0000
,
0001
0000
0000
0010
1000
0100
0001
0000
,
1001
0000
0000
0000
0000
0000
0000
0000
0000
0000
0000
0000
0000
0000
0000
0000
0000
0000
0000
0000
0000
0000
0000
0000
0000
0000
0000
0000
0000
0000
0000
0000
0000
0000
0000
0000
0000
0000
0000
0000
0000
0000
0000
0000
0000
0000
0000
0000
0002
0003
0000
0000
0000
0000
0000
0000
0000
0000
0000
0000
0000
0000
0000
0000
0000
0000
0000
0000
0000
0000
0000
0000
0020
0030
0000
0000
0000
0000
0000
0000
0000
0000
0000
0000
0000
0000
0000
0000
0000
0000
0000
0000
0000
0000
0000
0000
0000
0000
0000
0000
0000
0000
0000
0000
0000
0000
0000
0000
0200
0300
0000
0000
0000
0000
0000
0000
0000
0000
0000
0000
0020
0030
0000
0000
0000
0000
0000
0000
0000
0000
0000
0000
0000
0000
0000
0000
0000
0000
0000
0000
0000
0000
0000
0000
0002
0003
0000
0000
0000
0000
0000
0000
0000
0000
0000
0000
0000
0000
0000
0000
0000
0000
0000
0000
0000
0000
0000
0000
0000
0000
0000
0000
0000
0000
0000
0000
0000
0000
0000
0000
0000
0000
0000
0000
0000
0000
0000
0000
0000
0000
0000
0000
,
2000
3000
0000
0000
0000
0000
0000
0000
0000
0000
0000
0000
0000
0000
0000
0000
0000
0000
0000
0000
0000
0000
0000
0000
0020
0030
0000
0000
0000
0000
0000
0000
0000
0000
0000
0000
0000
0000
0000
0000
0000
0000
0000
0000
0000
0000
0000
0000
0020
0030
0000
0000
0000
0000
0000
0000
0000
0000
0000
0000
0000
0000
0000
0000
0000
0000
0000
0000
0000
0000
0000
0000
2000
3000
0000
0000
0000
0000
0000
0000
0000
0000
0000
0000
0000
0000
0000
0000
0000
0000
0000
0000
0000
0000
0000
0000
0002
0003
0000
0000
0000
0000
0000
0000
0000
0000
0000
0000
0000
0000
0000
0000
0000
0000
0000
0000
0000
0000
0000
0000
0002
0003
0000
0000
0000
0000
0000
0000
0000
0000
0000
0000
0000
0000
0000
0000
0000
0000
0000
0000
0000
0000
0000
0000
0200
0300
0000
0000
0000
0000
0000
0000
0000
0000
0000
0000
0000
0000
0000
0000
0000
0000
0000
0000
0000
0000
0000
0000
0000
0000
0000
0000
0000
0000
0000
0000
0000
0000
0000
0000
0000
0000
0000
0000
0000
0000
0000
0000
0000
0000
0000
0000
,
0200
0300
0000
0000
0000
0000
0000
0000
0000
0000
0000
0000
0000
0000
0000
0000
0000
0000
0000
0000
0000
0000
0000
0000
0000
0000
0000
0000
0000
0000
0000
0000
0000
0000
0000
0000
0000
0000
0000
0000
0000
0000
0000
0000
0000
0000
0000
0000
2000
3000
0000
0000
0000
0000
0000
0000
0000
0000
0000
0000
0000
0000
0000
0000
0000
0000
0000
0000
0000
0000
0000
0000
0020
0030
0000
0000
0000
0000
0000
0000
0000
0000
0000
0000
0000
0000
0000
0000
0000
0000
0000
0000
0000
0000
0000
0000
0000
0000
0000
0000
0000
0000
0000
0000
0000
0000
0000
0000
0000
0000
0000
0000
0000
0000
0000
0000
0000
0000
0000
0000
0020
0030
0000
0000
0000
0000
0000
0000
0000
0000
0000
0000
0000
0000
0000
0000
0000
0000
0000
0000
0000
0000
0000
0000
0200
0300
0000
0000
0000
0000
0000
0000
0000
0000
0000
0000
0000
0000
0000
0000
0000
0000
0000
0000
0000
0000
0000
0000
0000
0000
0000
0000
0000
0000
0000
0000
0000
0000
0000
0000
0000
0000
0000
0000
0000
0000
0000
0000
0000
0000
0000
0000
,
2000
3000
0000
0000
0000
0000
0000
0000
0000
0000
0000
0000
0000
0000
0000
0000
0000
0000
0000
0000
0000
0000
0000
0000
0000
0000
0000
0000
0000
0000
0000
0000
0000
0000
0000
0000
0000
0000
0000
0000
0000
0000
0000
0000
0000
0000
0000
0000
0002
0003
0000
0000
0000
0000
0000
0000
0000
0000
0000
0000
0000
0000
0000
0000
0000
0000
0000
0000
0000
0000
0000
0000
0200
0300
0000
0000
0000
0000
0000
0000
0000
0000
0000
0000
0000
0000
0000
0000
0000
0000
0000
0000
0000
0000
0000
0000
0000
0000
0000
0000
0000
0000
0000
0000
0000
0000
0000
0000
0000
0000
0000
0000
0000
0000
0000
0000
0000
0000
0000
0000
0200
0300
0000
0000
0000
0000
0000
0000
0000
0000
0000
0000
0000
0000
0000
0000
0000
0000
0000
0000
0000
0000
0000
0000
0002
0003
0000
0000
0000
0000
0000
0000
0000
0000
0000
0000
0000
0000
0000
0000
0000
0000
0000
0000
0000
0000
0000
0000
0000
0000
0000
0000
0000
0000
0000
0000
0000
0000
0000
0000
0000
0000
0000
0000
0000
0000
0000
0000
0000
0000
0000
0000
,
1000
0000
0010
0000
0100
0001
0000
0100
0000
0010
1000
0000
0100
1000
0000
0010
,
0100
0000
0001
0000
0010
0001
0000
0100
0000
0010
1000
0000
0001
0000
0100
0000
,
0001
0010
0100
1000
0010
0100
0001
0010
0100
1000
0010
0100
0001
1000
0100
0010
,
0001
0000
0000
0100
0000
0000
0010
0000
0000
1000
0000
0000
0001
0000
0000
0000
2000
0000
0000
0000
0010
0000
0000
0000
3002
0000
0000
0000
0100
0000
0000
0000
2003
0000
0000
0000
0002
0000
0000
0000
0000
0000
3003
0000
0000
0000
0000
0000
,
1001
0000
0000
0000
;

//---------------dance-double - ----------------
#NOTES:
     dance-double:
     :
     Hard:
     8:
     0.476,0.486,0.243,0.157,0.104: // measure 1
00000000
00000000
00000000
00000000
,  // measure 2
00000000
00000000
00000000
00000000
,  // measure 3
00000000
00000000
00000000
00000000
,  // measure 4
00000000
00000000
00000000
00000000
,  // measure 5
00000000
00000000
00000000
00000000
,  // measure 6
00000000
00000000
00000000
00000000
,  // measure 7
00000000
00000000
00000000
00000000
,  // measure 8
00000000
00000000
00000000
00000000
,  // measure 9
00000001
00000000
00000100
00000000
00000010
00000000
00001000
00000000
00010000
00000000
00100000
00000000
01000000
10000000
01000000
00000000
,  // measure 10
10000000
00000000
01000000
00000000
00100000
00000000
00010000
00000000
00001000
00000000
00000100
00000000
00000010
00000001
00000010
00000000
,  // measure 11
00000001
00000000
00000100
00000000
00000010
00000000
00001000
00000000
00010000
00000000
01000000
00000000
00100000
10000000
00100000
00000000
,  // measure 12
10000000
00000000
00100000
00000000
01000000
00000000
00010000
00000000
00001000
00000000
00000010
00000000
00000100
00000001
00000100
00000001
,  // measure 13
00000010
00000000
00000001
00000000
00000010
00000000
00000100
00000000
00001000
00000000
00010000
00000000
00001000
00010000
00001000
00000000
,  // measure 14
00100000
00000000
00010000
00000000
00100000
00000000
01000000
00000000
10000000
00000000
00010000
00000000
01000000
00010000
01000000
00010000
,  // measure 15
00001000
00000000
00010000
00000000
00001000
00000000
00010000
00000000
00000010
00000000
00000100
00000000
00000010
00000100
00000010
00000000
,  // measure 16
00002000
00000001
00003000
00001100
00000000
00011000
00000000
00101000
,  // measure 17
01000000
00000000
10000000
00000000
00100000
00000000
00010000
00001000
00010000
00000000
00000100
00000000
00000001
00000000
00000010
00000000
,  // measure 18
00000100
00000000
00000001
00000000
00000010
00000000
00001000
00010000
00001000
00000000
01000000
00000000
10000000
00000000
00100000
00000000
,  // measure 19
01000000
00000000
10000000
00000000
00100000
00000000
00010000
00001000
00010000
00000000
00000100
00000000
00000001
00000000
00000010
00000000
,  // measure 20
00000100
00000000
00000001
00000000
00000010
00000000
00001000
00010000
00001000
00000000
01000000
00000000
10000000
00000000
00100000
00000000
,  // measure 21
01000000
00000000
10000000
00000000
00100000
00000000
00010000
00001000
00010000
00000000
00000100
00000000
00000001
00000000
00000010
00000000
,  // measure 22
00000100
00000000
00000001
00000000
00000010
00000000
00001000
00010000
00001000
00000000
01000000
00000000
10000000
00000000
00100000
00000000
,  // measure 23
01000000
00000000
10000000
00000000
00100000
00000000
00010000
00001000
00010000
00000000
00000100
00000000
00000001
00000000
00000010
00000000
,  // measure 24
00000200
00000001
00000300
00000110
00000000
00011000
00000000
01100000
,  // measure 25
00010000
00000000
00000000
10000000
00000000
00000000
01000000
00000000
00100000
00000000
00010000
00000000
00001000
00000000
00010000
00000000
,  // measure 26
00000100
00000000
00000000
00000010
00000000
00000000
00000100
00000000
00000010
00000000
00000001
00000000
00001000
00000000
00000010
00000000
,  // measure 27
00000100
00000000
00000000
00001000
00000000
00000000
00000100
00000000
00001000
00000000
00010000
00000000
00001000
00000000
00010000
00000000
,  // measure 28
00100000
00000000
00000000
00010000
00000000
00000000
10000000
00000000
00100000
00000000
01000000
00000000
00010000
00000000
00100000
00000000
,  // measure 29
00001000
00000000
00000000
00010000
00000000
00000000
00000100
00000000
00001000
00000000
00000100
00000000
00000010
00000000
00000001
00000000
,  // measure 30
00000100
00000000
00000000
00001000
00000000
00000000
00010000
00000000
01000000
00000000
00100000
00000000
00010000
00000000
01000000
00000000
,  // measure 31
10000000
00000000
00000000
00010000
00000000
00000000
01000000
00000000
00010000
00000000
00001000
00000000
00000100
00000000
00010000
00000000
,  // measure 32
00000020
00000000
00000000
00001000
00000000
00000000
00000030
00000000
00000000
00000110
00000000
00000000
00001000
00000000
00000010
00000000
00000001
00000000
00000100
00000000
00000000
00000010
00000000
00000000
,  // measure 33
00020100
00000000
00031000
00100000
01000000
00100000
00010000
20000000
,  // measure 34
00000000
31000000
00010000
00001000
00000020
00000000
00000130
00000001
,  // measure 35
00002000
00000000
00003001
00000200
00000000
00000310
00001000
00010000
,  // measure 36
00002000
00000000
00103000
00010000
01000000
20000000
00000000
31000000
,  // measure 37
00020000
00000000
00031000
00000200
00000000
00000301
00000010
00001000
,  // measure 38
00000200
00000000
00000310
00000002
00000000
00001003
00000100
00000010
,  // measure 39
00020000
00000000
00031000
00100000
01000000
00100000
00010000
10000000
,  // measure 40
02000000
00000000
03010000
00000100
00002000
00000000
00003100
00010000
,  // measure 41
00000010
00001000
00000001
00001000
00000100
00000010
00000100
00010000
,  // measure 42
00001000
00010000
00100000
01000000
10000000
01000000
10000000
00010000
,  // measure 43
00100000
00010000
00100000
00001000
00010000
00001000
00000010
00000100
,  // measure 44
00000010
00000100
00000001
00001000
00000100
00010000
01000000
10000000
,  // measure 45
01000000
00010000
00001000
00000100
00000001
00000100
00001000
00010000
,  // measure 46
00001000
00010000
01000000
10000000
01000000
00010000
00001000
00010000
,  // measure 47
00001000
00000100
00000001
00000100
00001000
00010000
00001000
00010000
,  // measure 48
01000000
10000000
01000000
00010000
01000000
10000000
00100000
00000000
,  // measure 49
00010000
00001000
00000100
00000000
00000010
00010000
00001000
00000000
,  // measure 50
00001000
00010000
00000100
00000000
00000010
00000001
00000100
00000000
,  // measure 51
00000010
00010000
00001000
00100000
00001000
00010000
01000000
00000000
,  // measure 52
00100000
00001000
00010000
00000100
00010000
00000010
00000100
00000000
,  // measure 53
00001001
00000000
00000100
00000000
00010000
00001000
01000000
00000000
,  // measure 54
10010000
00000000
01000000
00000000
00010000
00001000
00000100
00000000
,  // measure 55
00001001
00000000
00000100
00000000
00010000
00001000
01000000
00000000
,  // measure 56
10010000
00000000
01000000
00000000
00010000
00001000
00000100
00000000
,  // measure 57
00002001
00000000
00000000
00000000
00000000
00000000
00000000
00000000
00003100
00000000
00000000
00000000
00000000
00000000
00000000
00010000
,  // measure 58
00020000
00000000
01030000
00000000
,  // measure 59
00200000
00000000
00000000
00000000
00000000
00000000
00000000
00000000
00000000
00000000
00000000
00000000
00000000
00000000
00000000
10000000
,  // measure 60
20300000
00000000
00000000
30000000
,  // measure 61
01010000
00000000
00001000
00011000
00000000
00000100
00001100
00000001
,  // measure 62
00000101
00000000
00001000
00001100
00000000
00000010
00000011
00000100
,  // measure 63
00001100
00000000
00010000
00011000
00000000
00100000
00101000
00100000
,  // measure 64
10100000
00000000
01000000
01100000
00000000
00010000
00011000
00001000
,  // measure 65
00101000
00000000
10000000
11000000
00000000
01000000
01010000
00010000
,  // measure 66
00011000
00000000
00001000
00001100
00000000
00000100
00000101
00001100
,  // measure 67
00000000
00000000
00000010
00000011
00000000
00000100
00000110
00000000
,  // measure 68
00010000
00000000
00000000
00001000
00000000
00000000
00100000
00000000
00000000
01000000
00000000
00000000
10000000
00000000
00100000
00000000
00010000
00000000
00002000
00000000
00000000
00000000
00000000
00000000
,  // measure 69
00003000
00000000
00000000
00000000
;

//---------------dance-double - ----------------
#NOTES:
     dance-double:
     :
     Challenge:
     10:
     0.571,0.632,0.543,0.415,0.104: // measure 1
00000000
00000000
00000000
00000000
,  // measure 2
00000000
00000000
00000000
00000000
,  // measure 3
00000000
00000000
00000000
00000000
,  // measure 4
00000000
00000000
00000000
00000000
,  // measure 5
00000000
00000000
00000000
00000000
,  // measure 6
00000000
00000000
00000000
00000000
,  // measure 7
00000000
00000000
00000000
00000000
,  // measure 8
00000000
00000000
00000000
00000000
,  // measure 9
00000001
00000000
00000100
00000000
00000010
00000000
00001010
00000000
00010000
00000000
00110000
00000000
01000000
10000000
01000000
00000000
,  // measure 10
10000000
00000000
01000000
00000000
00100000
00000000
00110000
00000000
00001000
00000000
00001100
00000000
00000010
00000001
00000010
00000000
,  // measure 11
00000001
00000000
00000100
00000000
00000010
00000000
00001010
00000000
00010000
00000000
01010000
00000000
00100000
10000000
00100000
00000000
,  // measure 12
10000000
00000000
00100000
00000000
01000000
00000000
01010000
00000000
00001000
00000000
00001010
00000000
00000100
00000001
00000100
00000001
,  // measure 13
00000010
00000000
00000001
00000000
00000010
00000000
00000110
00000000
00001000
00000000
00011000
00000000
00001000
00010000
00001000
00000000
,  // measure 14
00100000
00000000
00010000
00000000
00100000
00000000
01100000
00000000
10000000
00000000
10010000
00000000
01000000
00010000
01000000
00010000
,  // measure 15
00001000
00000000
00010000
00000000
00001000
00000000
00011000
00000000
00000010
00000000
00000110
00000000
00000010
00000100
00000010
00000000
,  // measure 16
00002000
00000001
00003000
00001100
00000000
00011000
00000000
00101000
,  // measure 17
01000000
00000000
10000000
00000000
01100000
00000000
00010000
00001000
00010000
00000000
00000100
00000000
00000001
00000000
00000010
00000000
,  // measure 18
00000100
00000000
00000001
00000000
00000110
00000000
00001000
00010000
00001000
00000000
01000000
00000000
10000000
00000000
00100000
00000000
,  // measure 19
01000000
00000000
10000000
00000000
01100000
00000000
00010000
00001000
00010000
00000000
00000100
00000000
00000001
00000000
00000010
00000000
,  // measure 20
00000100
00000000
00000001
00000000
00000110
00000000
00001000
00010000
00001000
00000000
01000000
00000000
10000000
00000000
00100000
00000000
,  // measure 21
01000000
00000000
10000000
00000000
01100000
00000000
00010000
00001000
00010000
00000000
00000100
00000000
00000001
00000000
00000010
00000000
,  // measure 22
00000100
00000000
00000001
00000000
00000110
00000000
00001000
00010000
00001000
00000000
01000000
00000000
10000000
00000000
00100000
00000000
,  // measure 23
01000000
00000000
10000000
00000000
01100000
00000000
00010000
00001000
00010000
00000000
00000100
00000000
00000001
00000000
00000010
00000000
,  // measure 24
00000200
00000001
00000300
00000110
00000000
00011000
00000000
01100000
,  // measure 25
00010000
00000000
00000000
10010000
00000000
00000000
01000000
00000000
00100000
00000000
00010000
00000000
00001000
00000000
00010000
00000000
,  // measure 26
00000100
00000000
00000000
00000110
00000000
00000000
00000100
00000000
00000010
00000000
00000001
00000000
00001000
00000000
00000010
00000000
,  // measure 27
00000100
00000000
00000000
00001001
00000000
00000000
00000100
00000000
00001000
00000000
00010000
00000000
00001000
00000000
00010000
00000000
,  // measure 28
00100000
00000000
00000000
00011000
00000000
00000000
10000000
00000000
00100000
00000000
01000000
00000000
00010000
00000000
00100000
00000000
,  // measure 29
00001000
00000000
00000000
00010010
00000000
00000000
00000100
00000000
00001000
00000000
00000100
00000000
00000010
00000000
00000001
00000000
,  // measure 30
00000100
00000000
00000000
00101000
00000000
00000000
00010000
00000000
01000000
00000000
00100000
00000000
00010000
00000000
01000000
00000000
,  // measure 31
10000000
00000000
00000000
00110000
00000000
00000000
01000000
00000000
00010000
00000000
00001000
00000000
00000100
00000000
00010000
00000000
,  // measure 32
00000020
00000000
00000000
00001000
00000000
00000000
00000030
00000000
00000000
00000110
00000000
00000000
00001000
00000000
00000010
00000000
00000001
00000000
00001100
00000000
00000000
00000010
00000000
00000000
,  // measure 33
00020000
00000100
00031000
00100000
01000000
00100000
00010000
20000000
,  // measure 34
00100000
31000000
00010000
00001000
00000020
00010000
00000130
00000001
,  // measure 35
00002000
00000010
00003001
00000200
00001000
00000310
00001000
00010000
,  // measure 36
00002000
01000000
00103000
00010000
01000000
20000000
00100000
31000000
,  // measure 37
00020000
00000100
00031000
00000200
00001000
00000301
00000010
00001000
,  // measure 38
00000200
00010000
00000310
00000002
00000100
00001003
00000100
00000010
,  // measure 39
00020000
01000000
00031000
00100000
01000000
00100000
00010000
10000000
,  // measure 40
02000000
00100000
03010000
00000100
00002000
00000010
00003100
00010000
,  // measure 41
00000010
00001000
00000001
00001001
00000100
00000010
00000110
00010000
,  // measure 42
00001000
00011000
00100000
01000000
11000000
01000000
10000000
10010000
,  // measure 43
00100000
00010000
00110000
00001000
00010000
00011000
00000010
00000100
,  // measure 44
00000110
00000100
00000001
00001001
00000100
00010000
01000000
10000000
,  // measure 45
01000000
00011000
00001000
00000100
00000001
00000100
00001000
00010000
,  // measure 46
00001000
00011000
01000000
10000000
01000000
00010000
00001000
00010000
,  // measure 47
00011000
00000100
00000001
00000100
00001000
00010000
00001000
00011000
,  // measure 48
01000000
10000000
01000000
00010000
01000000
10000000
00100000
01100000
,  // measure 49
00010000
00002000
00000100
00003000
00000010
00020000
00001000
00030000
,  // measure 50
00001000
00020000
00000100
00030000
00000010
00000002
00000100
00000003
,  // measure 51
00000010
00020000
00001000
00130000
00001000
00020000
01000000
00030000
,  // measure 52
00100000
00002000
00010000
00003100
00010000
00000020
00000100
00000030
,  // measure 53
00002001
00000000
00000100
00003000
00010000
00001000
01000000
00000000
,  // measure 54
10020000
00000000
01000000
00030000
00010000
00001000
00000100
00000000
,  // measure 55
00002001
00000000
00000100
00003000
00010000
00001000
01000000
00000000
,  // measure 56
10020000
00000000
01000000
00030000
00010000
00001000
00000100
00000000
,  // measure 57
00002002
00000000
00000000
00000000
00000000
00000000
00000000
00000003
00000200
00000000
00000000
00000000
00000000
00000000
00003000
00010000
,  // measure 58
00020000
00000000
00000000
00000000
00000000
00000000
00000000
00000300
02000000
00000000
00000000
00000000
00000000
00000000
00000000
00030000
,  // measure 59
00200000
00000000
00000000
00000000
00000000
00000000
00000000
00000000
00000000
00000000
00000000
00000000
00000000
00000000
03000000
10000000
,  // measure 60
20000000
00000000
00000000
30300000
,  // measure 61
01020000
00000000
00031000
00021000
00000000
00030100
00002100
00003001
,  // measure 62
00000102
00000000
00001003
00001200
00000000
00000310
00000012
00000103
,  // measure 63
00002100
00000000
00013000
00012000
00000000
00103000
00102000
00103000
,  // measure 64
20100000
00000000
31000000
01200000
00000000
00310000
00021000
00031000
,  // measure 65
00201000
00000000
10300000
21000000
00000000
31000000
02010000
03010000
,  // measure 66
00021000
00000000
00031000
00002100
00000000
00003100
00000101
00001200
,  // measure 67
00000000
00000000
00000310
00000012
00000000
00000103
00000210
00000000
,  // measure 68
00010300
00000000
00000000
00001000
00000000
00000000
00100000
00000000
00000000
01000000
00000000
00000000
10000000
00000000
00100000
00000000
00020000
00000000
00002000
00000000
00000000
00000000
00000000
00000000
,  // measure 69
00033000
00000000
00000000
00000000
;

//---------------dance-double - ----------------
#NOTES:
     dance-double:
     :
     Medium:
     5:
     0.274,0.316,0.007,0.071,0.007: // measure 1
00000000
00000000
00000000
00000000
,  // measure 2
00000000
00000000
00000000
00000000
,  // measure 3
00000000
00000000
00000000
00000000
,  // measure 4
00000000
00000000
00000000
00000000
,  // measure 5
00000000
00000000
00000000
00000000
,  // measure 6
00000000
00000000
00000000
00000000
,  // measure 7
00000000
00000000
00000000
00000000
,  // measure 8
00000000
00000000
00000000
00000000
,  // measure 9
00100000
00010000
01000000
00000000
00001000
00000000
00001000
00000000
,  // measure 10
00000010
00001000
00000100
00000000
00010000
00000000
00010000
00000000
,  // measure 11
00100000
00010000
01000000
00000000
00001000
00000000
00001000
00000000
,  // measure 12
00000010
00001000
00000100
00000000
00010000
00000000
00010000
00000000
,  // measure 13
00100000
10000000
01000000
00000000
00001000
00000000
00001000
00000000
,  // measure 14
00000010
00000001
00000100
00000000
00010000
00000000
00010000
00000000
,  // measure 15
00100000
10000000
01000000
00000000
00001000
00000000
00001000
00000000
,  // measure 16
00000010
00000001
00000000
00000100
00000000
00001000
00000000
00010000
,  // measure 17
01000000
10000000
00100000
00001000
,  // measure 18
00000100
00000001
00000010
00010000
,  // measure 19
01000000
10000000
00100000
00001000
,  // measure 20
00000100
00000001
00000010
00010000
,  // measure 21
01000000
10000000
00100000
00001000
,  // measure 22
00000100
00000001
00000010
00010000
,  // measure 23
01000000
10000000
00100000
00001000
,  // measure 24
00000100
00000001
00000000
00000010
00000000
00001000
00000000
00010000
,  // measure 25
01000000
00100000
10000000
01000000
,  // measure 26
00100000
01000000
10000000
00100000
,  // measure 27
00001000
00000100
00000010
00000100
,  // measure 28
00000001
00000010
00000100
00000010
,  // measure 29
00010000
01000000
10000000
01000000
,  // measure 30
00100000
00010000
01000000
00100000
,  // measure 31
00001000
00000010
00000100
00000001
,  // measure 32
00000010
00000000
00000000
00000100
00000000
00000000
00000000
00000000
00000000
00000001
00000000
00000000
00000100
00000000
00000010
00000000
00000100
00000000
00000010
00000000
00000000
00000000
00000000
00000000
,  // measure 33
00010000
01000000
10000000
00000000
01000000
10000000
00100000
00000000
,  // measure 34
00010000
00100000
10000000
00000000
00100000
10000000
01000000
00000000
,  // measure 35
00001000
00000010
00000100
00000000
00000001
00000010
00000100
00000000
,  // measure 36
00000001
00000000
00000010
00000000
00000100
00000001
00000010
00000000
,  // measure 37
00010000
01000000
10000000
00000000
00010000
01000000
00100000
00000000
,  // measure 38
10000000
01000000
00100000
00000000
00010000
10000000
01000000
00000000
,  // measure 39
00001000
00000100
00000010
00000000
00000001
00000100
00000010
00000000
,  // measure 40
00000001
00000100
00000010
00000000
00001000
00000001
00000100
00000000
,  // measure 41
00010000
00000000
00100000
01000000
00000000
10000000
00000000
00100000
,  // measure 42
00000000
01000000
10000000
00000000
00100000
00000000
01000000
00000000
,  // measure 43
00001000
00000000
00000010
00000100
00000000
00000001
00000000
00000010
,  // measure 44
00000000
00000100
00000001
00000010
00000000
00000100
00000010
00000000
,  // measure 45
00010000
00000000
10000000
00000000
01000000
00000000
00100000
01000000
,  // measure 46
00000000
00010000
00000000
01000000
00000000
10000000
00000000
01000000
,  // measure 47
00000000
00001000
00000010
00000100
,  // measure 48
00000001
00000000
00000010
00000000
00000100
00000010
00000100
00000001
,  // measure 49
00000100
00000000
00000000
00020000
00000000
00000000
00000000
00230000
,  // measure 50
00000000
00000000
00000000
20300000
00000000
00000000
00000000
32000000
,  // measure 51
00000000
00000000
00000000
03000000
00000000
00000000
00000000
00000000
,  // measure 52
00000000
00001000
00001000
00000000
00001000
00000000
00000001
00000000
,  // measure 53
00000100
00000010
00000100
00000000
00000001
00000000
00000001
00000000
,  // measure 54
00000100
00000010
00000100
00000000
00000001
00000000
00000100
00000000
,  // measure 55
00010000
01000000
00100000
00000000
10000000
00000000
10000000
00000000
,  // measure 56
01000000
00100000
01000000
00000000
10000000
00000000
00100000
00000000
,  // measure 57
00200000
00000000
00300000
00000000
,  // measure 58
00002000
00000000
00003000
00000000
,  // measure 59
00000020
00000000
00000030
00000000
,  // measure 60
00020000
00000000
00030000
00000000
,  // measure 61
00100000
01000000
10000000
01000000
,  // measure 62
00100000
01000000
10000000
01000000
,  // measure 63
00001000
00000010
00000100
00000010
,  // measure 64
00000001
00000010
00000100
00000010
,  // measure 65
00010000
01000000
00100000
01000000
,  // measure 66
10000000
01000000
00100000
01000000
,  // measure 67
00001000
00000100
00000010
00000001
,  // measure 68
00000100
00000010
00000220
00000300
,  // measure 69
00010030
00000000
00000000
00000000
;

//---------------dance-double - ----------------
#NOTES:
     dance-double:
     :
     Easy:
     3:
     0.165,0.170,0.000,0.014,0.000: // measure 1
00000000
00000000
00000000
00000000
,  // measure 2
00000000
00000000
00000000
00000000
,  // measure 3
00000000
00000000
00000000
00000000
,  // measure 4
00000000
00000000
00000000
00000000
,  // measure 5
00000000
00000000
00000000
00000000
,  // measure 6
00000000
00000000
00000000
00000000
,  // measure 7
00000000
00000000
00000000
00000000
,  // measure 8
00000000
00000000
00000000
00000000
,  // measure 9
00100000
01000000
01000000
00000000
,  // measure 10
00000010
00000000
00000100
00000000
,  // measure 11
00000010
00000100
00000100
00000000
,  // measure 12
00100000
00000000
01000000
00000000
,  // measure 13
00100000
01000000
01000000
00000000
,  // measure 14
00000010
00000000
00000100
00000000
,  // measure 15
00000010
00000100
00000100
00000000
,  // measure 16
00000000
01000000
00000000
01000000
00000000
01000000
00000000
00000000
,  // measure 17
00100000
10000000
01000000
00000000
,  // measure 18
00000010
00000001
00000100
00000000
,  // measure 19
00100000
10000000
01000000
00000000
,  // measure 20
00000010
00000001
00000100
00000000
,  // measure 21
00100000
10000000
01000000
00000000
,  // measure 22
00000010
00000001
00000100
00000000
,  // measure 23
00100000
10000000
01000000
00000000
,  // measure 24
00000000
00000010
00000000
00000010
00000000
00000010
00000000
00000000
,  // measure 25
00000100
00000001
00000010
00000000
,  // measure 26
01000000
10000000
00100000
00000000
,  // measure 27
00000100
00000001
00000010
00000000
,  // measure 28
01000000
10000000
00100000
00000000
,  // measure 29
00000100
00000001
00000010
00000000
,  // measure 30
01000000
10000000
00100000
00000000
,  // measure 31
00000100
00000001
00000010
00000000
,  // measure 32
00000000
00100000
00000000
00200000
00000000
00000000
00300000
00000000
,  // measure 33
10000000
01000000
10000000
00000000
,  // measure 34
00000001
00000100
00000001
00000000
,  // measure 35
10000000
01000000
10000000
00000000
,  // measure 36
00000001
00000100
00000001
00000000
,  // measure 37
10000000
00100000
10000000
00000000
,  // measure 38
00000001
00000010
00000001
00000000
,  // measure 39
10000000
00100000
10000000
00000000
,  // measure 40
00000001
00000010
00000001
00000000
,  // measure 41
10000000
01000000
00100000
00000000
,  // measure 42
00000001
00000100
00000010
00000000
,  // measure 43
10000000
00100000
01000000
00000000
,  // measure 44
00000001
00000010
00000100
00000000
,  // measure 45
10000000
01000000
00010000
00000000
,  // measure 46
00000001
00000100
00001000
00000000
,  // measure 47
10000000
00100000
00010000
00000000
,  // measure 48
00000001
00000010
00001000
00000000
,  // measure 49
00100000
00000000
01000000
00000000
,  // measure 50
00000100
00000000
00000010
00000000
,  // measure 51
00000010
00000000
00000100
00000000
,  // measure 52
01000000
00000000
00100000
00000000
,  // measure 53
10000000
00000000
01000000
00000000
,  // measure 54
00100000
00000000
00010000
00000000
,  // measure 55
00000001
00000000
00000100
00000000
,  // measure 56
00000010
00000000
00001000
00000000
,  // measure 57
10000000
00000000
00000000
00000000
,  // measure 58
00010000
00000000
00000000
00000000
,  // measure 59
00000001
00000000
00000000
00000000
,  // measure 60
00001000
00000000
00000000
00000000
,  // measure 61
01000000
00000000
00000000
01000000
00000000
00000000
01000000
00000000
,  // measure 62
00000100
00000000
00000000
00000100
00000000
00000000
00000100
00000000
,  // measure 63
00000010
00000000
00000000
00000010
00000000
00000000
00000010
00000000
,  // measure 64
00100000
00000000
00000000
00100000
00000000
00000000
00100000
00000000
,  // measure 65
01000000
00000000
00000000
01000000
00000000
00000000
01000000
00000000
,  // measure 66
00000100
00000000
00000000
00000100
00000000
00000000
00000100
00000000
,  // measure 67
00000010
00000000
00000000
00000010
00000000
00000000
00000010
00000000
,  // measure 68
00100000
00100000
00200000
00000000
,  // measure 69
00300000
00000000
00000000
00000000
;

//---------------dance-single - ----------------
#NOTES:
     dance-single:
     :
     Beginner:
     1:
     0.044,0.122,0.000,0.000,0.000:
0000
0000
0000
0000
,
0000
0000
0000
0000
,
0000
0000
0000
0000
,
0000
0000
0000
0000
,
0000
0000
0000
0000
,
0000
0000
0000
0000
,
0000
0000
0000
0000
,
0000
0000
0000
0000
,
0010
0000
0000
0000
,
0000
0000
0000
0000
,
0010
0000
0000
0000
,
0000
0000
0000
0000
,
0010
0000
0000
0000
,
0000
0000
0000
0000
,
0010
0000
0000
0000
,
0001
0001
0001
0000
,
0100
0000
0000
0000
,
0000
0000
0000
0000
,
0100
0000
0000
0000
,
0000
0000
0000
0000
,
0100
0000
0000
0000
,
0000
0000
0000
0000
,
0100
0000
0000
0000
,
0000
1000
1000
1000
,
1000
0000
0000
0000
,
0000
0000
0000
0000
,
1000
0000
0000
0000
,
0000
0000
0000
0000
,
0001
0000
0000
0000
,
0000
0000
0000
0000
,
0001
0000
0000
0000
,
0001
0001
0001
0000
,
0001
0000
0000
0000
,
0000
0000
0000
0000
,
1000
0000
0000
0000
,
0000
0000
0000
0000
,
0001
0000
0000
0000
,
0000
0000
0000
0000
,
1000
0000
0000
0000
,
0000
0000
0000
0000
,
0100
0000
0000
0000
,
0000
0000
0000
0000
,
0010
0000
0000
0000
,
0000
0000
0000
0000
,
0100
0000
0000
0000
,
0000
0000
0000
0000
,
0010
0000
0000
0000
,
0000
0000
0000
0000
,
0001
0000
0000
0000
,
1000
0000
0000
0000
,
0010
0000
0000
0000
,
0100
0000
0000
0000
,
0010
0000
0000
0000
,
0000
0000
0000
0000
,
0000
0000
0000
0000
,
0000
0000
0000
0000
,
1000
0000
0000
0000
,
0001
0000
0000
0000
,
0010
0000
0000
0000
,
0100
0000
0000
0000
,
0001
0000
0000
0000
,
0000
0000
0000
0000
,
1000
0000
0000
0000
,
0000
0000
0000
0000
,
0010
0000
0000
0000
,
0000
0000
0000
0000
,
0100
0000
0000
0000
,
0000
0000
0000
0000
,
0010
0000
0000
0000
;
