#TITLE:ETERNALLY;
#SUBTITLE:;
#ARTIST:AKTIO;
#TITLETRANSLIT:;
#SUBTITLETRANSLIT:;
#ARTISTTRANSLIT:;
#CREDIT:;
#BANNER:eternally.png;
#BACKGROUND:eternally-bg.png;
#LYRICSPATH:;
#CDTITLE:cdtitle.png;
#MUSIC:eternally.mp3;
#OFFSET:-0.440;
#SAMPLESTART:10.140;
#SAMPLELENGTH:12.000;
#SELECTABLE:YES;
#BPMS:0.000=154.000,132.000=77.000,148.000=154.000;
#STOPS:35.000=2.660
;
#BGCHANGES:;

//---------------dance-single - ONI----------------
#NOTES:
     dance-single:
     ONI:
     Challenge:
     10:
     0.686,0.932,0.036,0.246,0.820: // measure 1
0000
0000
0000
0000
,  // measure 2
0000
0000
0000
0000
,  // measure 3
0000
0000
0000
0000
0000
0000
0000
0000
0000
0000
0000
0000
0000
0000
0000
0000
0000
0000
0000
0000
0000
0000
1000
0100
0000
0000
0000
0000
0000
0010
0000
0000
,  // measure 4
0000
0000
0000
0001
0000
0000
0000
1000
0000
0000
0000
0000
0000
0000
0000
0000
0000
0000
0000
0000
0000
0000
0000
0000
0000
0000
0000
0000
0000
0000
0000
0000
,  // measure 5
0000
0000
0000
0000
0000
0000
0000
0000
0000
0000
0000
0001
0000
0000
0000
0100
0000
0000
0000
1000
0000
0000
0000
0010
0000
0000
0000
0000
0000
0000
0000
0000
,  // measure 6
0000
0000
0000
0001
0000
0000
0000
0000
0000
0000
0000
0000
0000
0000
0000
0000
0000
0000
0000
0000
0000
0000
0000
0000
0000
0000
0000
0000
0000
0000
0000
0000
,  // measure 7
0000
0000
0000
0000
0000
0000
0000
0000
0000
0000
0000
0000
0000
0000
0000
0000
0000
0000
0000
0010
0000
0001
0000
0100
0000
0000
0000
0000
0000
1000
0000
0000
,  // measure 8
0000
0000
0000
0010
0000
0000
0000
0001
0000
0000
0000
0000
0000
0000
0000
0000
0000
0000
0000
0000
0000
0000
0000
0000
0000
0000
0000
0000
0000
0000
0000
0000
,  // measure 9
0000
0000
0000
0000
0000
0000
0000
0000
0000
0000
0000
0000
0000
0000
0000
0000
0000
0000
0000
0000
0000
0000
0000
0000
0000
0000
0000
0000
0000
0000
0000
0000
0000
0000
0000
0000
0000
0000
0002
0003
0000
0000
2000
0000
0000
0000
0002
0000
0000
3003
0000
0000
0000
0000
0000
0000
0000
0000
0000
0000
0000
0000
0000
0000
,  // measure 10
1001
0010
0100
1000
0010
0100
0001
0100
,  // measure 11
0010
1000
0100
1000
0100
0010
0100
1000
,  // measure 12
0100
0001
0100
1000
0010
0001
0010
1000
,  // measure 13
0001
0100
0010
1000
0100
0001
0100
1000
,  // measure 14
0001
0100
1000
0100
0001
1000
0010
1000
,  // measure 15
0001
0000
0100
0000
0010
0000
1000
0000
0100
0000
0010
0000
0001
0000
1000
0010
,  // measure 16
0100
0001
0010
0100
1000
0100
0010
0001
0010
0100
0010
0100
1000
0001
1000
0001
,  // measure 17
0010
0100
0010
0100
1000
0010
0100
0001
0010
0100
1000
0010
0100
0001
0010
0100
,  // measure 18
1000
0010
0100
0010
0100
0000
0001
0010
0100
1000
0100
0010
0001
0000
0100
0010
,  // measure 19
1000
0100
0010
0001
0000
0100
0010
1000
0100
0010
0001
0010
0001
1000
0100
1000
,  // measure 20
0100
0010
0001
0010
0001
0000
1000
0100
0010
0001
0010
0001
0000
1000
0100
1000
,  // measure 21
0100
1000
0001
0010
0000
0001
0010
0100
1000
0010
0100
0001
0100
0010
1000
0100
,  // measure 22
0010
0001
0010
0001
0010
0000
0100
1000
0100
1000
0100
0010
0001
0000
0010
0001
,  // measure 23
0010
0001
0010
0100
1000
0000
0100
0010
0001
1000
0010
0100
0001
1000
0010
0100
,  // measure 24
0001
0100
0010
1000
0100
0010
0001
0100
0010
1000
0100
0010
0001
0100
0010
1000
,  // measure 25
2002
0000
0000
0000
0000
0000
0000
3000
1003
0001
1000
0001
1000
0001
1000
0001
,  // measure 26
1001
0100
0001
0010
1000
0010
0001
0100
,  // measure 27
2000
0000
0000
0000
0000
0000
0000
0000
0000
0000
0000
0000
3000
0000
0000
0010
0002
0000
0000
0000
0000
0000
0203
0000
0000
0000
0300
0000
1000
0000
0000
0000
,  // measure 28
0100
0001
0010
1000
0010
0001
0100
1000
,  // measure 29
0200
0000
0000
0310
,  // measure 30
0002
0000
0000
0203
0000
0000
0320
0000
,  // measure 31
0032
0000
0000
2003
0000
0000
3200
0000
,  // measure 32
0302
0000
0003
0000
,  // measure 33
1000
0100
1000
0000
0001
0010
0001
0000
1000
0100
1000
0000
0001
1000
0100
0010
,  // measure 34
0001
0000
1000
0000
0001
0001
1000
0000
,  // measure 35
1000
0000
0001
0000
1000
1000
0001
0000
,  // measure 36
1000
0000
0010
0000
0001
0100
1000
0000
,  // measure 37
0001
0000
0010
0000
1000
0100
0001
0000
,  // measure 38
1000
0000
0100
0000
0010
0000
0001
0000
2000
0002
0000
0000
0000
0000
0000
0000
,  // measure 39
3003
0000
0001
1000
0000
0010
0100
0001
,  // measure 40
1000
0000
0100
0000
0010
0000
0001
0000
2000
0002
0000
0000
0000
0000
0000
0000
,  // measure 41
3003
0000
0000
0000
0000
0000
1000
0100
0010
0000
0001
0000
0010
0000
0100
0000
,  // measure 42
1000
0000
0000
0000
0100
0000
0000
0000
0001
0000
0000
0000
0010
0000
0000
0000
1000
0000
0000
0000
0000
0000
0000
0000
0010
0001
0000
0000
1000
0000
0000
0000
,  // measure 43
0000
0000
0000
0000
1000
0000
0000
0000
0010
0001
0000
0000
1000
0000
0000
0000
0000
0000
0000
0000
0010
0000
0000
0000
0100
0000
0000
0000
0001
0000
0000
0000
,  // measure 44
1000
0010
0100
0001
0100
0010
1000
0100
1000
0100
1000
0100
0010
0001
0010
0001
,  // measure 45
1000
0001
0001
0000
1000
1000
0000
0000
,  // measure 46
2000
0100
0010
0001
3000
0000
0000
0000
,  // measure 47
0000
0100
0010
1000
,  // measure 48
0002
0000
0003
0000
,  // measure 49
0001
0010
0001
0000
1000
0100
1000
0000
0001
0100
0001
0000
1000
0010
1000
0000
,  // measure 50
0002
0000
0003
0000
,  // measure 51
2000
0000
0000
0000
3000
0001
1000
0001
,  // measure 52
2000
0000
3000
0000
,  // measure 53
1000
0100
0010
0001
0100
0010
1000
0100
0010
0001
0010
0100
1000
0010
0100
0001
,  // measure 54
1000
0010
0100
0010
0100
0000
0001
0010
0100
1000
0100
0010
0001
0000
0100
0010
,  // measure 55
1000
0100
0010
0001
0000
0100
0010
1000
0100
0010
0001
0010
0001
1000
0100
1000
,  // measure 56
0100
0010
0001
0010
0001
0000
1000
0100
0010
0001
0010
0001
0000
1000
0100
1000
,  // measure 57
0100
1000
0001
0010
0000
0001
0010
0100
1000
0010
0100
0001
0100
0010
1000
0100
,  // measure 58
0010
0001
0010
0001
0010
0000
0100
1000
0100
1000
0100
0010
0001
0000
0010
0001
,  // measure 59
0010
0001
0010
0100
1000
0000
0100
0010
0001
1000
0010
0100
0001
1000
0010
0100
,  // measure 60
0001
0100
0010
1000
0100
0010
0001
0100
0010
1000
0100
0010
0001
0100
0010
1000
,  // measure 61
0100
0010
0001
0100
0010
1000
0100
0010
0001
0010
0100
1000
0010
0100
0001
1000
,  // measure 62
2002
0000
0000
0000
,  // measure 63
3003
0000
0000
0000
;

//---------------dance-single - BASIC----------------
#NOTES:
     dance-single:
     BASIC:
     Easy:
     3:
     0.168,0.250,0.055,0.018,0.005:
0000
0000
0000
0000
,
0000
0000
0000
0000
,
0000
0000
0000
0000
,
0000
0000
0000
0000
,
0000
0000
0000
0000
,
0000
0000
0000
0000
,
0000
0000
0000
0000
,
0000
0000
0000
0000
,
0000
0000
0000
0000
0000
0000
0000
0000
0000
0000
0000
2002
3003
0000
0000
0000
,
1000
0001
0001
0000
,
1000
0100
0100
0000
,
1000
0010
0010
0000
,
0010
1000
1000
0100
,
0001
0010
0010
0000
,
0001
0100
0100
0000
,
1000
0001
0010
0100
,
1000
0001
1001
0000
,
1000
0000
0001
0000
,
1000
0010
0100
0001
,
0001
0000
1000
0000
,
0001
0010
0100
1000
,
1000
0000
0001
0000
,
1000
0010
0100
0001
,
0001
0000
1000
0000
,
1001
0000
0000
0000
,
1000
0000
0000
0000
,
0001
0000
0000
0000
,
0100
0000
0000
0000
,
0010
0000
0000
0000
,
0001
0000
0000
0000
,
1000
0000
0000
0000
,
0001
0000
0000
0000
,
1000
0000
0001
0000
,
1001
0000
1000
0000
,
0001
0000
1000
0000
,
1000
0000
0001
0000
,
0001
0000
1000
0000
,
0001
0000
0000
0000
,
1000
0000
0000
0000
,
1000
0000
0000
0000
,
0001
0000
0000
0000
,
0001
0000
0010
0000
,
0010
0000
0010
0000
,
1001
0000
0000
0000
,
1000
0000
0001
0000
,
1000
0000
0001
0000
,
0000
0001
0010
0100
,
1000
0000
0001
0000
,
1000
0010
0100
0001
,
1000
0000
0001
0000
,
1000
0000
0100
0000
,
0001
0000
0010
0000
,
1000
0000
0001
0000
,
1000
0000
0001
0000
,
1000
0001
0010
0100
,
1000
0001
1001
0000
,
1000
0000
0001
0000
,
1000
0010
0100
0001
,
0001
0000
1000
0000
,
0001
0001
0100
0100
,
1000
1000
0010
0010
,
0001
0000
0000
0000
;

//---------------dance-single - TRICK----------------
#NOTES:
     dance-single:
     TRICK:
     Medium:
     5:
     0.250,0.339,0.091,0.055,0.000:
0000
0000
0000
0000
,
0000
0000
0000
0000
,
0000
0000
0000
0000
,
0000
0000
0000
0000
,
0000
0000
0000
0000
,
0000
0000
0000
0000
,
0000
0000
0000
0000
,
0000
0000
0000
0000
,
0000
0000
0000
0000
,
1000
0000
0001
0000
,
1000
0000
0100
0000
,
1000
0000
0001
0000
,
1000
0000
0001
0000
,
0100
0000
0001
0000
,
1000
0000
0001
0000
,
1000
0100
0001
0000
0010
1000
0100
0000
,
1000
0100
0001
0000
1001
0000
0000
0000
,
1000
0000
0100
0000
0001
0010
1000
0000
,
1000
0001
0100
0100
,
0001
0000
0100
0000
1000
0010
0001
0000
,
0001
1000
0100
0100
,
1000
0100
0001
0000
0001
0010
1000
0000
,
1000
0001
0100
0100
,
0001
0100
1000
0000
0010
0100
1000
0000
,
1001
0000
0000
0000
,
2000
0000
0010
0000
,
3002
0000
0100
0000
,
0203
0000
1000
0000
,
0320
0000
0001
0000
,
1030
0000
0000
0100
0000
0000
0010
0000
,
0001
0000
0000
1000
0000
0000
1000
0000
,
0001
0000
0000
0000
,
1001
0000
0110
0000
,
1001
1000
1000
1000
,
0001
0001
0001
0001
,
1000
1000
1000
1000
,
0001
0001
0001
0001
,
1000
0000
0100
0000
,
1000
0000
0000
0000
,
0001
0000
0100
0000
,
0001
0000
0000
0000
,
0001
0000
0010
0000
,
1000
0000
0010
0000
,
1001
0000
0000
0000
,
0000
1000
1000
0000
0001
0001
0000
0000
,
1000
0100
0001
0000
,
1000
0001
0010
0100
,
1000
0001
1001
0000
,
1000
0010
0100
0001
,
1001
0000
0001
0100
,
1000
0000
0011
0000
,
0001
0010
1000
0000
,
1000
0100
0001
0000
0001
0010
0100
0000
,
1000
0000
0100
0000
0001
0010
1000
0000
,
1000
0100
0001
0000
0100
0000
0100
0000
,
0001
0000
0100
0000
1000
0010
0001
0000
,
0001
0100
1000
0000
0100
0000
0100
0000
,
1000
0000
0100
0000
0001
0010
1000
0000
,
0001
0010
0100
0000
1000
0000
0100
0000
,
0001
0100
0001
0000
0100
1000
0100
0000
,
1000
0010
1000
0000
0010
0001
0010
0000
,
2002
0000
0000
0000
,
3003
0000
0000
0000
;

//---------------dance-single - HEAVY----------------
#NOTES:
     dance-single:
     HEAVY:
     Hard:
     8:
     0.406,0.452,0.164,0.155,0.068:
0000
0000
0000
0000
,
0000
0000
0000
0000
,
0000
0000
0000
0000
,
0000
0000
0000
0000
,
0000
0000
0000
0000
,
0000
0000
0000
0000
,
0000
0000
0000
0000
,
0000
0000
0000
0000
,
0000
0000
0000
0000
0000
0000
0000
0000
0000
0000
0000
0000
0000
0000
0000
0000
0000
0000
0000
0000
0000
0000
0000
0000
0000
0000
0000
0000
0000
0000
0000
0000
0000
0000
0000
0000
0000
0000
0001
0000
0000
0000
2000
0000
0000
0000
0002
0000
0000
3003
0000
0000
0000
0000
0000
0000
0000
0000
0000
0000
0000
0000
0000
0000
,
1000
0000
1000
0000
0001
0000
0000
0100
,
1000
0000
1000
0000
0001
0000
0000
0001
,
0010
0000
0010
0000
1000
0000
0000
1000
,
0100
0100
0001
0010
,
0100
0000
0100
0000
1000
0000
0000
1000
,
0001
0001
1000
0000
,
1000
0010
0100
0001
0010
1000
0100
0001
,
1000
0100
0001
1000
2002
0000
3003
0000
,
1000
0010
0100
0000
0001
0010
1000
0000
,
1000
0010
0001
0010
0001
0100
0100
0000
,
0001
0010
0100
0000
1000
0010
0001
0000
,
0001
0010
1000
0010
1000
0100
0100
0000
,
1000
0100
0001
1000
0001
0010
1000
0000
,
1000
0000
0001
0000
1000
0100
0100
0000
,
0001
0100
1000
0010
0100
0001
0010
1000
,
2002
0000
0000
3003
,
1000
0100
0010
0001
0010
0100
1000
0001
,
1000
0000
1001
0000
,
0001
0010
0100
1000
0100
0010
0001
1000
,
0001
0000
0000
1001
,
2000
0000
0000
3020
0000
0000
0230
0000
,
0302
0000
0000
0023
0000
0000
2030
0000
,
0002
0000
3003
0000
,
1000
1001
0010
0110
,
1001
0000
1000
0000
1000
0100
0001
0000
,
0001
0000
0001
0000
0001
0010
1000
0000
,
1000
0000
1000
0000
1000
0100
0001
0000
,
0001
0000
0001
0000
0001
0010
1000
0000
,
1000
0000
0000
0100
0000
0000
0010
0000
0000
0100
0000
0000
1000
0000
0001
0000
,
1000
0000
0000
0001
0000
0000
0100
0000
0000
0001
0000
0000
0010
0000
0100
0000
,
0001
0000
0000
0100
0000
0000
1000
0000
0000
0100
0000
0000
0010
0000
2000
0000
,
0002
0000
3003
1001
,
0001
0000
0000
0010
0000
0000
0100
0000
0000
0010
0000
0000
0001
0000
0100
0000
,
1000
0000
0000
0100
0000
0000
0010
0000
0000
0001
0000
0000
0100
0000
1000
0000
,
0001
0000
0100
0000
0000
0010
0000
0000
1000
0000
0000
0100
0000
0000
0001
0000
,
0010
1000
1100
0000
0001
0011
0000
0000
,
1000
0100
0001
0101
,
1000
0001
0010
0100
,
1001
0001
1001
1000
,
1010
0010
0100
0001
,
1001
1000
0101
0001
,
0010
1000
0100
0000
0001
0100
1000
0000
,
1001
0010
1000
0001
,
1000
0100
0001
1000
0001
0100
1000
0000
,
1000
0010
0100
0000
0001
0010
1000
0001
,
1000
0010
0001
0010
0001
0100
0100
0000
,
0001
0010
0100
0000
1000
0010
0001
1000
,
0001
0010
1000
0010
1000
0100
0100
0000
,
1000
0010
0100
0010
0001
0010
1000
0100
,
0001
0010
0100
0010
1000
0001
0100
0000
,
0001
0100
0001
0100
1000
0100
1000
0010
,
1000
0010
1000
0010
0001
0010
0001
1000
,
2002
0000
0000
0000
,
3003
0000
0000
0000
;
