#TITLE:Dr.Mario Jazz;
#SUBTITLE:;
#ARTIST:GYAON;
#TITLETRANSLIT:;
#SUBTITLETRANSLIT:;
#ARTISTTRANSLIT:;
#CREDIT:;
#BANNER:Dr.Mario Jazz.png;
#BACKGROUND:Dr.Mario Jazz-bg.png;
#LYRICSPATH:;
#CDTITLE:cdtitle.png;
#MUSIC:Dr.Mario Jazz.mp3;
#OFFSET:-2.180;
#SAMPLESTART:76.380;
#SAMPLELENGTH:11.940;
#SELECTABLE:YES;
#BPMS:0.000=110.000,228.000=108.000,228.333=105.000,228.667=102.000,229.000=99.000,229.333=96.000,229.667=93.000,230.000=90.000,230.500=87.000,231.000=84.000,231.333=82.000,231.667=77.000,232.000=70.000,232.167=67.000,232.333=64.000,232.500=61.000,232.667=58.000,232.833=55.000,233.000=52.000,233.167=50.000,233.333=48.000,233.500=45.000,233.667=43.000,233.833=40.000,234.000=38.000,234.167=37.000,234.500=36.000,234.750=34.000,235.000=35.000;
#STOPS:160.000=0.545
,161.000=0.545
,162.000=0.545
,163.000=0.545
;
#BGCHANGES:;

//---------------dance-single - BASIc----------------
#NOTES:
     dance-single:
     BASIc:
     Easy:
     3:
     0.206,0.250,0.098,0.000,0.067:
0000
0000
0000
0000
,
0000
0000
0000
0000
,
0000
0000
0000
0000
,
0000
0000
0000
0000
,
1000
1000
1000
1000
,
0001
0001
0001
0001
,
1000
0001
1000
0001
,
0100
0010
0100
0010
,
0000
0000
0000
0000
0000
0100
0000
0000
0000
0000
0000
0000
0000
0000
0000
0000
0000
0100
0000
0000
0000
0000
0000
0000
,
1000
0000
0000
0000
0000
0000
1000
0000
0000
0000
0000
0000
0001
0000
0000
0000
0000
1000
0000
0000
0000
0000
0000
0000
,
1000
1000
0001
0001
,
1000
1000
0001
0001
,
0000
0000
0000
0000
0000
0100
0000
0000
0000
0000
0000
0000
0000
0000
0000
0000
0000
0100
0000
0000
0000
0000
0000
0000
,
0001
0000
0000
0000
0000
0000
0001
0000
0000
0000
0000
0000
1000
0000
0000
0000
0000
0001
0000
0000
0000
0000
0000
0000
,
0001
0010
0100
0100
,
1000
0010
1000
0100
,
0010
0001
0001
0000
,
0010
0000
0000
0000
0000
0000
1000
0000
0000
0000
0000
0000
0100
0000
0000
0000
0000
0001
0000
0000
0000
0000
0000
0000
,
1000
0100
1000
0100
,
0010
0001
0010
0000
,
0001
0010
0001
0010
,
0100
1000
0100
0000
,
1001
0000
0110
0000
,
1001
0000
0000
0000
0000
0000
0010
0000
0000
0000
0000
0000
0100
0000
0000
0000
0000
1000
0000
0000
0000
0000
0000
0000
,
0010
0100
0100
0000
,
0001
0100
1000
0000
,
0010
1000
0100
0000
,
0001
0000
0000
0000
0000
0000
0010
0000
0000
0000
0000
0000
1000
0000
0000
0000
0000
0001
0000
0000
0000
0000
0000
0000
,
1000
0001
0001
1000
,
0001
1000
1000
0001
,
1000
0010
0010
1000
,
0001
0010
0010
0001
,
1000
0000
0000
0000
0000
0000
1100
0000
0000
0000
0000
0000
0010
0000
0000
0000
0000
0001
0000
0000
0000
0000
0000
0000
,
0001
0000
0000
0000
0000
0000
0101
0000
0000
0000
0000
0000
0010
0000
0000
0000
0000
1000
0000
0000
0000
0000
0000
0000
,
1001
0000
0110
0000
,
0010
0000
0000
0000
0000
0000
0010
0000
0000
0000
0000
0000
1000
0000
0000
0000
0000
0001
0000
0000
0000
0000
0000
0000
,
0001
0010
0100
1000
,
0001
0010
0100
1000
,
1000
0100
0010
0001
,
1000
0100
0010
0001
,
0001
1000
0110
1001
,
0000
0000
0000
0000
,
0000
0000
0000
0000
,
0001
1000
0001
1000
,
0010
0100
0010
0100
,
0000
0000
0000
0000
0000
0010
0000
0000
0000
0000
0000
0000
0000
0000
0000
0000
0000
0100
0000
0000
0000
0000
0000
0000
,
0001
0000
0000
0000
0000
0000
0001
0000
0000
0000
0000
0000
1000
0000
0000
0000
0000
0001
0000
0000
0000
0000
0000
0000
,
1000
1000
0001
0001
,
1000
1000
0001
0001
,
0000
0000
0000
0000
0000
0100
0000
0000
0000
0000
0000
0000
0000
0000
0000
0000
0000
0010
0000
0000
0000
0000
0000
0000
,
0001
0000
0000
0000
0000
0000
0001
0000
0000
0000
0000
0000
1000
0000
0000
0000
0000
0001
0000
0000
0000
0000
0000
0000
,
0001
0001
0001
0001
,
1000
1000
1000
1000
,
0001
0001
0001
0001
,
0010
0010
0010
0010
,
1001
0000
1001
0000
,
0010
0000
0000
0000
0000
0000
0010
0000
0000
0000
0000
0000
1000
0000
0000
0000
0000
0001
0000
0000
0000
0000
0000
0000
,
1001
0000
1001
0000
,
0010
0010
0001
1000
,
0000
1001
0000
0000
;

//---------------dance-single - TRICK----------------
#NOTES:
     dance-single:
     TRICK:
     Medium:
     6:
     0.331,0.354,0.120,0.028,0.123:
0000
0000
0000
0000
,
0000
0000
0000
0000
,
0000
0000
0000
0000
,
0000
0000
0000
0000
,
1000
1000
0100
0000
1000
1000
0100
0000
,
0001
0001
0100
0000
0001
0001
0100
0000
,
1000
1000
0001
0000
0001
0001
0001
0000
,
0100
0000
0000
0100
0000
0000
1000
0000
0000
0100
0000
0000
0001
0000
0000
0000
0000
0100
0000
0000
0010
0000
0000
0000
,
0000
0000
0000
0010
0000
0100
0000
0000
0000
0000
0000
0000
0000
0000
0000
0010
0000
0100
0000
0000
0000
0000
0000
0000
,
1000
0000
0000
0100
0000
0000
0001
0000
0000
0000
0000
0000
0001
0000
0000
1000
0000
0100
0000
0000
0000
0000
0000
0000
,
0001
0001
1000
0000
1000
1000
1000
0000
,
0100
0000
0000
0100
0000
0000
0001
0000
0000
0100
0000
0000
1000
0000
0000
0000
0000
0100
0000
0000
0010
0000
0000
0000
,
0000
0000
0000
0010
0000
0100
0000
0000
0000
0000
0000
0000
0000
0000
0000
0010
0000
0100
0000
0000
0000
0000
0000
0000
,
0001
0000
0000
0100
0000
0000
1000
0000
0000
0000
0000
0000
1000
0000
0000
0001
0000
0100
0000
0000
0000
0000
0000
0000
,
0001
0000
1010
0000
0100
0100
0100
0000
,
1000
0100
1000
0100
0010
0000
0001
0000
,
0100
0000
1001
0000
0001
0001
0001
0000
,
0010
0000
0000
1000
0000
0000
0010
0000
0000
1000
0000
0000
0100
0000
0000
0001
0000
1000
0000
0000
0000
0000
0000
0000
,
1000
1000
0100
0100
1000
1000
0100
0100
,
0010
0000
0000
0010
0000
0000
0001
0000
0000
0001
0000
0000
0001
0000
0000
0000
0000
0001
0000
0000
0000
0000
0000
0000
,
0001
0001
0100
0100
0001
0001
0100
0100
,
0010
0000
0000
0010
0000
0000
1000
0000
0000
1000
0000
0000
1000
0000
0000
0000
0000
1000
0000
0000
0000
0000
0000
0000
,
1001
0110
0110
1001
,
0001
0000
0000
0010
0000
0000
0100
0000
0000
0100
0000
0000
1000
0000
0000
1000
0000
0001
0000
0000
0000
0000
0000
0000
,
0020
0000
1000
0000
0032
1000
1000
0000
,
0103
0000
2000
0000
0010
0010
3001
0000
,
0100
1000
1000
0000
0100
0100
0001
0000
,
0110
0000
0000
0000
0000
0000
1000
0000
0000
0000
0000
0001
0000
0000
0000
0000
0000
1001
0000
0000
0000
0000
0000
0000
,
0001
0001
0010
0010
0100
0100
1000
1000
,
1000
0010
1000
0010
1000
0010
1000
0001
,
1000
1000
0010
0010
0100
0100
0001
0001
,
0001
0010
0001
0010
0001
0010
0001
1000
,
1000
0000
0010
0000
0001
0001
0001
0000
,
0001
0000
0000
0000
0000
0000
0010
0000
0000
0000
0000
0000
1000
0000
0000
1000
0000
0001
0000
0000
0000
0000
0000
0000
,
0000
0000
0000
0010
0000
0100
0000
0000
0000
0000
0000
0000
0000
0000
0000
0010
0000
0100
0000
0000
0000
0000
0000
0000
,
0010
0000
0000
0010
0000
0000
0100
0000
0000
0000
0000
0000
0001
0000
0000
1000
0000
0001
0000
0000
0000
0000
0000
0000
,
0001
0001
0100
0100
0001
0001
0100
0100
,
0001
0001
0100
0100
0001
0000
0001
0000
,
1000
1000
0100
0100
1000
1000
0100
0100
,
1000
1000
0100
0100
1000
0000
1000
0000
,
1001
1001
0110
1001
,
1001
0000
0000
0000
,
0000
0000
0000
0000
,
0001
0001
1000
0000
1000
1000
1000
0000
,
0100
0000
0000
0100
0000
0000
0001
0000
0000
0100
0000
0000
1000
0000
0000
0000
0000
0100
0000
0000
0010
0000
0000
0000
,
0000
0000
0000
0010
0000
0100
0000
0000
0000
0000
0000
0000
0000
0000
0000
0010
0000
0100
0000
0000
0000
0000
0000
0000
,
0001
0000
0000
0100
0000
0000
1000
0000
0000
0000
0000
0000
1000
0000
0000
0001
0000
0100
0000
0000
0000
0000
0000
0000
,
1000
1000
0001
0000
0001
0001
0001
0000
,
0100
0000
0000
0100
0000
0000
1000
0000
0000
0100
0000
0000
0001
0000
0000
0000
0000
0100
0000
0000
0010
0000
0000
0000
,
0000
0000
0000
0010
0000
0100
0000
0000
0000
0000
0000
0000
0000
0000
0000
0010
0000
0100
0000
0000
0000
0000
0000
0000
,
1000
0000
0000
0100
0000
0000
0001
0000
0000
0000
0000
0000
0001
0000
0000
1000
0000
0100
0000
0000
0000
0000
0000
0000
,
1001
0001
0001
0001
,
1001
1000
1000
1000
,
1001
0001
0001
0001
,
0110
0010
0010
0010
,
0000
0000
0000
0010
0000
0100
0000
0000
0000
0000
0000
0000
0000
0000
0000
0010
0000
0100
0000
0000
0000
0000
0000
0000
,
0010
0000
0000
0010
0000
0000
0010
0000
0000
0000
0000
0000
0001
0000
0000
1000
0000
0100
0000
0000
0000
0000
0000
0000
,
0000
0000
0000
0010
0000
0100
0000
0000
0000
0000
0000
0000
0000
0000
0000
0010
0000
0100
0000
0000
0000
0000
0000
0000
,
0010
0010
0001
0001
0100
1000
0020
0000
,
0000
0130
0000
0000
;

//---------------dance-single - HEAVY----------------
#NOTES:
     dance-single:
     HEAVY:
     Hard:
     8:
     0.454,0.440,0.401,0.014,0.292:
0000
0000
0000
0000
,
0000
0000
0000
0000
,
0000
0000
0000
0000
,
0000
0000
0000
0000
,
1000
1000
0100
0100
1000
1000
0100
0100
,
0001
0001
0100
0100
0001
0001
0100
0100
,
0001
0000
0000
0001
0000
0000
1001
0000
0000
0100
0000
0000
1000
0000
0000
1000
0000
0001
0000
0000
0000
0000
0000
0000
,
1000
0000
0000
0010
0000
0000
1000
0000
0000
0100
0000
0000
0001
0000
0000
0010
0000
0100
0000
0000
0010
0000
0000
0000
,
1000
0000
0000
0010
0000
0100
0000
0000
0000
0000
0000
0000
0001
0000
0000
0010
0000
0100
0000
0000
0000
0000
0000
0000
,
1001
0000
0000
0110
0000
0000
1001
0000
0000
1000
0000
0000
0001
0000
0000
1000
0000
0100
0000
0000
0000
0000
0000
0000
,
0001
0000
0000
0010
0000
0000
1001
0000
0000
0100
0000
0000
1001
0000
0000
0010
0000
1000
0000
0000
0000
0000
0000
0000
,
0001
0000
0000
0010
0000
0000
0001
0000
0000
0100
0000
0000
1000
0000
0000
0010
0000
0100
0000
0000
0010
0000
0000
0000
,
0001
0000
0000
0010
0000
0100
0000
0000
0000
0000
0000
0000
1000
0000
0000
0010
0000
0100
0000
0000
0000
0000
0000
0000
,
0110
0000
0000
1001
0000
0000
0110
0000
0000
0001
0000
0000
1000
0000
0000
0001
0000
0100
0000
0000
0000
0000
0000
0000
,
1010
0000
0000
0000
0000
0000
0101
0000
0000
0000
0000
0100
0001
0000
1000
0000
0000
0100
0000
0000
0000
0000
0000
1000
,
0100
0000
0000
1000
0000
0000
0100
0000
0000
1000
0000
0000
0010
0000
0000
0000
0000
0001
0000
0000
0000
0000
0000
0010
,
0100
0000
0000
0000
0000
0000
1001
0000
0000
0000
0000
0010
1000
0000
0001
0000
0000
0100
0000
0000
0000
0000
0000
0010
,
1000
0000
0000
0010
0000
0000
1000
0000
0000
0010
0000
0000
0100
0000
0000
0001
0000
1000
0000
0000
0000
0000
0000
0010
,
1000
1000
0100
0100
1001
1000
0100
0100
,
0011
0000
0000
0010
0000
0000
0001
0000
0000
0001
0000
0000
0001
0000
0000
0000
0000
0101
0000
0000
0000
0000
0000
0010
,
0001
0001
0100
0100
1001
0001
0100
0100
,
1010
0000
0000
0010
0000
0000
1000
0000
0000
1000
0000
0000
1000
0000
0000
0000
0000
1010
0000
0000
0000
0000
0000
0000
,
1001
0010
0110
0000
0110
0100
1001
0000
,
0001
0000
0000
0010
0000
0000
0100
0000
0000
0100
0000
0000
1000
0000
0000
1000
0000
0001
0000
0000
0000
0000
0000
0000
,
0010
1010
1001
0100
1001
1000
1000
0000
,
0100
0010
1001
0100
1001
0001
0001
0000
,
0100
1000
1000
0100
0001
0001
0010
0000
,
0110
0000
0000
0000
0000
0000
1001
0000
0000
0000
0000
0000
0010
0000
0100
0000
0000
1001
0000
0000
0000
0000
0000
0000
,
0001
0000
0000
0000
0000
0010
0000
0000
0000
0100
0000
0000
0000
0000
1000
0000
0000
0100
0000
0000
0010
0100
0000
0000
,
1000
0000
0001
0000
0000
0010
0001
0000
0000
0100
0000
0010
0000
0000
0100
0000
0000
0100
0001
0000
1000
0000
0000
0000
,
1000
0000
0000
0000
0000
0010
0000
0000
0000
0100
0000
0000
0000
0000
0001
0000
0000
0100
0000
0000
0010
0100
0000
0000
,
0001
0000
1000
0000
0000
0010
1000
0000
0000
0100
0000
0010
0000
0000
0100
0000
0000
0000
1000
0000
0000
0100
0000
0000
,
0010
0000
0000
0010
0000
0000
0011
0000
0000
0000
0000
0001
0100
0000
0000
0100
0000
1000
0000
0000
0000
0000
0000
0000
,
1000
0000
0000
0010
0000
0000
0100
0000
0000
0100
0000
0000
1000
0000
0000
1000
0000
0001
0000
0000
0000
0000
0000
0000
,
0001
0000
0000
0010
0000
0100
0000
0000
0000
0000
0000
0000
1000
0000
0000
0010
0000
0100
0000
0000
0000
0000
0000
0000
,
1010
0000
0000
0110
0000
0000
0101
0000
0000
0001
0000
0000
1000
0000
0000
0010
0000
0100
0000
0000
0000
0000
0000
0000
,
0001
0001
0100
0100
0010
0010
1000
1000
,
0001
0000
0000
0001
0000
0000
0100
0000
0000
0100
0000
0000
0010
0000
1000
0000
0001
0000
0100
0000
0010
0000
1000
0000
,
0001
0001
0010
0010
0100
0100
1000
1000
,
0001
0001
0010
0010
0100
0100
1000
1000
,
1001
1001
0110
1001
,
1001
0000
0000
0000
,
0000
0000
0000
0000
,
1000
0000
0000
1000
0000
0000
1001
0000
0000
0100
0000
0000
0001
0000
0000
0001
0000
1000
0000
0000
0000
0000
0000
0000
,
0001
0000
0000
0010
0000
0000
0001
0000
0000
0100
0000
0000
1000
0000
0000
0010
0000
0100
0000
0000
0010
0000
0000
0000
,
0001
0000
0000
0010
0000
0100
0000
0000
0000
0000
0000
0000
1000
0000
0000
0010
0000
0100
0000
0000
0000
0000
0000
0000
,
1001
0000
0000
0110
0000
0000
1001
0000
0000
0001
0000
0000
1000
0000
0000
0001
0000
0100
0000
0000
0000
0000
0000
0000
,
1000
0000
0000
0010
0000
0000
1001
0000
0000
0100
0000
0000
1001
0000
0000
0010
0000
0001
0000
0000
0000
0000
0000
0000
,
1000
0000
0000
0010
0000
0000
1000
0000
0000
0100
0000
0000
0001
0000
0000
0010
0000
0100
0000
0000
0010
0000
0000
0000
,
1000
0000
0000
0010
0000
0100
0000
0000
0000
0000
0000
0000
0001
0000
0000
0010
0000
0100
0000
0000
0000
0000
0000
0000
,
0110
0000
0000
1001
0000
0000
0110
0000
0000
1000
0000
0000
0001
0000
0000
1000
0000
0100
0000
0000
0000
0000
0000
0000
,
1001
0010
0001
0010
0001
0010
0001
0010
,
1001
0100
1000
0100
1000
0100
1000
0100
,
1001
0010
0001
1000
0001
0010
0001
0100
,
1001
0010
1000
0001
1000
0010
1000
0100
,
1000
0000
0000
0010
0000
0100
0000
0000
0000
0000
0000
0000
0001
0000
0000
0010
0000
0100
0000
0000
0000
0000
0000
0000
,
0011
0000
0000
0110
0000
0000
1100
0000
0000
1000
0000
0000
0001
0000
0000
1000
0000
0100
0000
0000
0000
0000
0000
0000
,
1001
0000
0000
0010
0000
0100
0000
0000
0000
0000
0000
0000
1001
0000
0000
0010
0000
0100
0000
0000
0000
0000
0000
0000
,
0010
0000
1000
0100
0000
0010
0001
0000
0001
0010
0000
0100
1000
0000
0000
0010
0000
0000
0020
0000
0000
1000
0000
0001
,
0001
0100
0100
0000
0100
0000
0230
0000
0000
0000
0000
0000
0000
0000
0300
0000
0000
0000
0000
0000
0000
0000
0000
0000
;

//---------------dance-single - ONI----------------
#NOTES:
     dance-single:
     ONI:
     Challenge:
     10:
     0.623,0.649,0.225,0.000,0.984: // measure 1
0000
0000
0000
0000
,  // measure 2
0000
0000
0000
0000
,  // measure 3
0000
0000
0000
0000
,  // measure 4
0000
0000
0000
0000
0000
0000
0000
0000
0000
0000
0000
0000
0000
0000
0000
0000
0000
0000
0000
0000
0000
0000
0000
1000
,  // measure 5
0100
0000
0000
0100
0000
0100
0010
0000
0000
0010
0000
0010
0001
0000
0000
0001
0000
0001
0100
0000
0000
0100
0000
0100
,  // measure 6
0010
0000
0000
0010
0000
0010
1000
0000
0000
1000
0000
1000
0001
0000
0000
0001
0000
0000
0100
0010
0100
0010
0100
0010
,  // measure 7
1000
0001
0000
1000
0001
0000
1000
0000
0100
0000
0000
0100
1000
0000
1000
0001
0000
0001
0000
0000
0000
0000
0000
0000
,  // measure 8
1000
0010
0000
1000
0010
0000
1000
0000
0100
0000
0000
0100
0010
0000
0010
0001
0000
0100
0000
0000
1001
0000
0000
0000
,  // measure 9
1000
0000
0010
0100
0000
1001
0000
0000
0000
0000
0000
0000
0001
0000
0010
0100
0000
1001
0000
0000
0000
0000
0000
0000
,  // measure 10
0001
0010
0000
0001
0010
0000
0001
0000
0100
0000
0000
0100
0001
0000
0000
0001
0000
1000
0000
0000
0000
0000
0000
0000
,  // measure 11
0001
0010
0000
0001
1000
0000
0001
0000
0100
0000
0000
0010
1000
0000
1000
0001
0000
0100
0000
0000
0000
0000
0000
0000
,  // measure 12
1000
0010
0000
1000
0001
0000
1000
0000
0100
0000
0000
1000
0010
0000
0000
0010
0000
0100
0000
0000
1001
0000
0000
0000
,  // measure 13
0001
0000
0010
0100
0000
1001
0000
0000
0000
0000
0000
0000
1000
0000
0010
0100
0000
1001
0000
0000
0000
0000
0000
0000
,  // measure 14
0001
0010
0000
0010
0100
0000
0100
0000
1000
0000
0000
1000
0001
0000
0000
0010
0000
0100
0000
0000
0000
0000
0000
0000
,  // measure 15
1010
0000
0000
0000
0000
0000
0101
0000
0000
0000
0000
0100
0010
0000
0010
0000
0000
0010
0000
0000
0000
0000
0000
0001
,  // measure 16
0100
0000
0000
0010
0000
0000
1000
0000
0000
1000
0000
0000
0100
0000
0000
0000
0000
1001
0000
0000
0000
0000
0000
0010
,  // measure 17
0100
0000
0000
0000
0000
0000
1001
0000
0000
0000
0000
0010
1000
0000
0001
1000
0000
0100
0000
0000
0000
0000
0000
0100
,  // measure 18
0010
0000
0000
0010
0000
0000
0001
0000
0010
0100
0000
0100
1000
0000
1000
0001
0000
1000
0000
0000
0000
1001
0000
0001
,  // measure 19
1000
0000
0000
1000
0000
0000
0100
0000
1000
0100
0000
0000
1000
0000
0000
1000
0000
0000
0100
0000
1000
0100
0000
0000
,  // measure 20
0010
0000
0000
0010
0000
0000
0001
0000
0010
0001
0000
0000
0001
0000
0000
0000
0000
1001
0000
0000
0000
0000
0000
0010
,  // measure 21
0001
0000
0000
0001
0000
0000
0100
0000
0001
0100
0000
0000
0001
0000
0000
0001
0000
0000
0100
0000
0001
0100
0000
0000
,  // measure 22
0010
0000
0000
0010
0000
0000
1000
0000
0010
1000
0000
0000
1000
0000
0000
0000
0000
1001
0000
0000
0000
1000
0000
0010
,  // measure 23
0100
0000
0000
0100
0000
0100
0010
0000
0010
1000
0000
0000
1001
0000
0000
0001
1000
0000
1000
0100
0000
0100
0010
0000
,  // measure 24
0001
0000
0000
0010
0000
0000
0100
0000
0010
0100
0000
0000
1000
0000
0000
0001
0000
0110
0000
0000
0000
0000
0000
0000
,  // measure 25
0010
0000
0010
1000
0000
0000
1000
0000
0000
0100
0000
0010
0001
0000
0001
1000
0000
1000
0000
0000
0000
0000
0000
0000
,  // measure 26
0000
0000
0010
0100
0000
0100
0010
0000
0000
0100
0000
1000
0001
0000
0010
0001
0000
0001
0000
0000
0000
0000
0000
0000
,  // measure 27
1000
0000
1000
0000
0000
0100
1000
0000
0000
0100
0000
0000
0001
0000
0001
0000
0000
0010
0000
0000
0000
0000
0000
0000
,  // measure 28
0110
0000
0010
1000
0000
1000
0100
0000
0100
0010
0000
0000
0010
0000
0100
0000
0000
1001
0000
0000
0000
0000
0000
0000
,  // measure 29
0001
0000
0000
0000
0000
0010
0000
0000
0000
0100
0000
0000
0000
0000
1000
0000
0000
0100
0000
0000
0010
0100
0000
0000
,  // measure 30
1000
0000
0001
0000
0000
0010
0001
0000
0000
0100
0000
0010
0000
0000
0100
0000
0000
0100
0001
0000
1000
0000
0000
0000
,  // measure 31
1000
0000
0000
0000
0000
0010
0000
0000
0000
0100
0000
0000
0000
0000
0001
0000
0000
0100
0000
0000
0010
0100
0000
0000
,  // measure 32
0001
0000
1000
0000
0000
0010
1000
0000
0000
0100
0000
0010
0000
0000
0100
0000
0000
1000
0100
0010
0001
1000
0100
0010
,  // measure 33
0001
0000
0000
0010
0000
0000
0010
0000
0001
0000
0000
0001
0100
0000
0010
0100
0000
1000
0000
0000
0000
0000
0000
1000
,  // measure 34
0100
0000
0010
0100
0000
0001
0100
0000
1000
0010
0100
0001
1000
0000
0000
1000
0000
0001
0000
0000
0000
0000
0000
0000
,  // measure 35
0001
0000
1000
0100
0000
1001
0000
0000
0000
0000
0000
0000
1000
0000
0001
0100
0000
1001
0000
0000
0000
0000
0000
0000
,  // measure 36
1000
0010
0000
0010
0100
0000
0100
0000
0001
0000
0000
0001
1000
0000
0000
0010
0000
0100
0000
0000
0000
0000
0000
0010
,  // measure 37
0001
0000
0000
0001
0000
0001
0100
0000
0000
0100
0000
0100
0010
0000
0000
0010
0000
0010
1000
0000
0000
1000
0000
1000
,  // measure 38
0001
0000
0000
0001
0000
0001
0100
0000
0000
0100
0000
0100
0010
0000
1000
0000
0001
0000
0100
0000
0010
0000
1000
0000
,  // measure 39
0001
0000
0000
0001
0000
0001
0010
0000
0000
0010
0000
0010
0100
0000
0000
0100
0000
0100
1000
0000
0000
1000
0000
1000
,  // measure 40
0001
0000
0000
0001
0000
0001
0010
0000
0000
0010
0000
0010
0100
0000
0000
0100
0000
0100
1000
0000
0000
1000
0000
0000
,  // measure 41
1001
0000
0001
1000
0001
1000
0001
0000
0100
0010
0100
0010
0100
0000
0001
1000
0001
1000
0001
1000
0001
1000
0001
1000
,  // measure 42
0001
0000
1000
0000
0000
0000
0100
0000
0000
0000
0000
0000
0010
0000
0000
0000
0000
0001
0000
0000
0000
0000
0000
0000
,  // measure 43
0000
0000
0001
0000
0000
0000
0010
0000
0000
0000
0000
0000
0100
0000
0000
0000
0000
1000
0001
1000
0001
1000
0001
1000
,  // measure 44
0001
0100
0000
0001
0100
0000
0001
0000
1000
0000
0000
1000
0001
0000
0010
0100
0000
0100
0000
0000
0000
0000
0000
0000
,  // measure 45
1000
0100
0000
1000
0100
0000
1000
0000
0001
0000
0000
0001
1000
0000
1000
0010
0000
0100
0000
0000
1001
0000
0000
0000
,  // measure 46
0001
0000
0100
1000
0000
1001
0000
0000
0000
0000
0000
0000
1000
0000
0100
0001
0000
1001
0000
0000
0000
0000
0000
0000
,  // measure 47
0001
0010
0000
0001
0100
0000
0001
0000
1000
0000
0000
0100
0001
0000
0000
0010
0000
0100
0000
0000
0000
0000
0000
0000
,  // measure 48
1000
0001
0000
1000
0100
0000
1000
0000
0001
0000
0000
1000
0100
0000
0100
0010
0000
0001
0000
0000
0000
0000
0000
0000
,  // measure 49
0001
0010
0000
0001
0100
0000
0001
0000
1000
0000
0000
0001
0100
0000
0100
0010
0000
0100
0000
0000
1001
0000
0000
0000
,  // measure 50
1000
0000
0100
0001
0000
1001
0000
0000
0000
0000
0000
0000
0001
0000
0100
1000
0000
1001
0000
0000
0000
0000
0000
0000
,  // measure 51
0001
0100
0000
0010
1000
0000
0001
0000
1000
0000
0000
1000
0100
0000
0000
0010
0000
0001
0000
0000
0000
0000
0000
0010
,  // measure 52
0001
0000
0000
0001
0000
0010
0001
0000
0000
0001
0000
0010
0001
0000
0000
0001
0000
0010
0001
0000
0000
0001
0000
0010
,  // measure 53
1000
0000
0000
1000
0000
0010
1000
0000
0000
1000
0000
0010
1000
0000
0000
1000
0000
0010
1000
0000
0000
1000
0000
0010
,  // measure 54
0001
0000
0000
0001
0000
0010
0001
0000
0000
0001
0000
0010
0001
0000
0000
0001
0000
0010
0001
0000
0000
0001
0000
0010
,  // measure 55
1000
0000
0000
1000
0000
0010
1000
0000
0000
1000
0000
0010
1000
0000
0000
1000
0000
0010
1000
0000
0000
1000
0000
0010
,  // measure 56
1000
0000
0010
0100
0000
1001
0000
0000
0000
0000
0000
0000
0001
0000
0010
0100
0000
1001
0000
0000
0000
0000
0000
0000
,  // measure 57
0001
0010
0000
0010
0100
0000
0100
0000
1000
0000
0000
1000
0010
0000
0000
0001
0000
0100
0000
0000
0000
0000
0000
0000
,  // measure 58
1001
0000
0010
0100
0000
1001
0000
0000
0000
0000
0000
0000
1001
0000
0010
0100
0000
1001
0000
0000
0000
0000
0000
0000
,  // measure 59
0010
0000
1000
0100
0000
0001
0010
0000
0010
0001
0000
0100
1000
0000
0000
0010
0000
0000
0010
0000
0000
1000
0000
0001
,  // measure 60
0001
0000
0000
0000
0000
0000
0000
0000
0100
0000
0000
0000
0000
0000
0000
0000
0100
0000
0000
0000
0000
0000
0000
0000
0000
0000
0000
0000
0000
0000
0000
0000
0100
0000
0000
0000
1000
0000
0000
0000
0000
0000
0000
0000
0000
0000
0000
0000
0010
0000
0000
0000
0000
0000
0000
0000
0000
0000
0000
0000
0000
0000
0000
0000
0000
0000
0000
0000
0000
0000
0000
0000
0000
0000
0000
0000
0000
0000
0000
0000
0000
0000
0000
0000
0000
0000
0000
0000
0000
0000
1000
0000
0001
0000
0010
0000
0001
0000
0010
0000
0100
0000
0010
0000
0100
0000
1000
0000
0100
0000
1000
0000
0001
0000
0000
0000
0000
0000
0000
0000
0000
0000
0000
0000
0000
0000
0000
0000
0000
0000
0000
0000
0000
0000
0000
0000
0000
0000
0000
0000
0000
0000
0000
0000
0000
0000
0000
0000
0000
0000
0000
0000
0000
0000
0000
0000
0000
0000
0000
0000
0000
0000
0000
0000
0000
0000
0000
0000
0000
0000
0000
0000
0000
0000
0000
0000
0000
0000
0000
0000
0000
0000
0000
0000
0000
0000
0000
0000
0000
0000
0000
0000
;
