#TITLE:Dr. MARIO;
#SUBTITLE:~hj ReMix~;
#ARTIST:HOUJIROU;
#TITLETRANSLIT:;
#SUBTITLETRANSLIT:;
#ARTISTTRANSLIT:;
#CREDIT:;
#BANNER:Dr. MARIO ~hj ReMix~.png;
#BACKGROUND:Dr. MARIO ~hj ReMix~-bg.png;
#LYRICSPATH:;
#CDTITLE:cdtitle.png;
#MUSIC:Dr. MARIO ~hj ReMix~.mp3;
#OFFSET:-1.440;
#SAMPLESTART:37.380;
#SAMPLELENGTH:12.000;
#SELECTABLE:YES;
#BPMS:0.000=167.000;
#STOPS:260.500=1.078
,261.500=1.078
,262.500=1.078
;
#BGCHANGES:;

//---------------dance-single - BASIC----------------
#NOTES:
     dance-single:
     BASIC:
     Easy:
     4:
     0.325,0.392,0.229,0.099,0.000:
0000
0000
0000
0000
,
0000
0000
0000
0000
,
0000
0000
0000
0000
,
0000
0000
0000
0000
,
0000
0000
0000
0000
,
0000
0000
0000
0000
,
0000
0000
0000
0000
,
0000
0000
0000
0000
,
0000
0000
0000
0000
,
1000
0001
1000
0001
,
1000
0001
1000
0110
,
0001
1000
0001
1000
,
0110
0001
0110
1000
,
0001
1000
0001
1000
,
0001
1000
0001
0110
,
1000
0001
1000
0001
,
0220
0000
0000
0330
,
1000
0010
0001
0010
,
1000
0100
0001
0110
,
1000
0100
0001
0010
,
1000
0010
0011
1100
,
0200
0000
1300
1100
,
0020
0000
0031
0011
,
1000
0001
1000
0001
,
1000
0100
0001
0110
,
1000
0100
0010
0001
,
1000
0001
1000
0110
,
0001
0010
1000
0010
,
0001
0100
1100
0011
,
0020
0000
0031
0011
,
0200
0000
1300
1100
,
0001
1000
0001
1000
,
0001
0010
1000
0110
,
0001
0000
0001
0000
,
0001
0000
0000
0000
,
1000
0000
1000
0000
,
1000
0000
0000
0000
,
0001
0000
0001
0000
,
0001
0000
0000
0000
,
1000
0000
1000
0000
,
1000
0000
0000
0000
,
0001
0010
0001
0100
,
1000
0100
0001
0010
,
0001
0100
1000
0010
,
0001
0010
1000
0100
,
0001
0010
1000
0010
,
0001
0100
0001
0010
,
1000
0010
0001
0100
,
1000
0010
0001
0000
,
2000
0000
3100
1100
,
0020
0000
0031
0011
,
0001
1000
0001
1000
,
0100
0100
0100
1001
,
0002
0000
0013
0011
,
0200
0000
1300
1100
,
1000
0001
1000
0001
,
0100
0100
0100
1001
,
1000
1000
0010
0010
,
1000
1000
0010
0010
,
1000
1000
0010
0010
,
0001
0100
1000
0010
,
0001
0001
0010
0010
,
0001
0001
0010
0010
,
0001
0001
0010
0010
,
1000
0100
0001
0010
,
1000
0001
0100
0010
;

//---------------dance-single - TRICK----------------
#NOTES:
     dance-single:
     TRICK:
     Medium:
     6:
     0.457,0.523,0.248,0.209,0.000:
0000
0000
0000
0000
,
0000
0000
0000
0000
,
0000
0000
0000
0000
,
0000
0000
0000
0000
,
0000
0000
0000
0000
,
0000
0000
0000
0000
,
0000
0000
0000
0000
,
0000
0000
0000
0000
,
0000
0000
0000
0000
,
1000
0010
1000
0010
1000
0200
0000
0000
,
0301
0010
0200
0000
1300
0000
0110
0000
,
0001
0010
0001
0010
0001
0100
1000
0000
,
0110
1001
0110
1001
,
0001
0010
0001
0010
0001
0200
0000
0000
,
1300
0010
0200
0000
0301
0000
0110
0000
,
1000
0010
1000
0010
1000
0100
0001
0000
,
0220
0000
0000
0330
,
1000
0010
1000
0000
0001
0100
0010
0000
,
1000
0100
0001
0000
0010
0000
0110
0000
,
1000
0010
1000
0010
1000
0000
0100
0000
,
0010
0001
0010
0000
1001
0000
1001
0000
,
0100
1000
0100
1000
0100
0000
1100
0000
,
0010
0001
0010
0001
0010
0000
0011
0000
,
2000
0000
3002
0000
1003
0100
0001
0000
,
2000
3002
0013
1001
,
0001
0010
0001
0000
1000
0010
0100
0000
,
0001
0100
1000
0000
0010
0000
0110
0000
,
0001
0010
0001
0010
0001
0000
0100
0000
,
0010
1000
0010
0000
1001
0000
1001
0000
,
0001
0010
0001
0010
0001
0000
0011
0000
,
0200
0000
1300
1100
,
0002
0000
2003
0000
3001
0100
1000
0000
,
0002
2003
3010
1001
,
0001
0000
0001
0001
,
0100
0000
0100
0000
,
1000
0000
1000
1000
,
0010
0000
0010
0000
,
0001
0000
0001
0001
,
1000
0000
0010
0000
,
1000
0000
1000
1000
,
0001
0000
0010
0000
,
0001
0000
0010
0000
0100
1000
0001
0000
,
0010
0000
1000
0000
0100
0001
0010
0000
,
0100
0000
1000
0000
0001
1000
0010
0000
,
1000
0000
0100
0000
0001
0010
0100
0000
,
1000
0000
0010
0000
1000
0001
0100
0000
,
0010
0000
1000
0000
0100
0001
0010
0000
,
1000
0000
0001
0000
1000
0100
0001
0000
,
0001
0010
0100
0000
0100
1000
0010
0000
,
1000
0100
1000
0100
1000
0000
1100
0000
,
0001
0010
0001
0010
0001
0000
0011
0000
,
0002
0000
2003
0000
3001
0100
1000
0000
,
0010
0020
0130
1001
,
0001
0010
0001
0010
0001
0000
0011
0000
,
1000
0100
1000
0100
1000
0000
1100
0000
,
2000
0000
3002
0000
1003
0100
0001
0000
,
0010
0020
0130
1001
,
1000
0000
1000
0000
0010
0010
0010
0000
,
1000
0000
1000
0000
0010
0010
0010
0000
,
1000
0000
1000
0000
0010
0010
0010
0000
,
1000
0100
0001
0000
1000
0100
0001
0000
,
0001
0000
0001
0000
0010
0010
0010
0000
,
0001
0000
0001
0000
0010
0010
0010
0000
,
0001
0000
0001
0000
0010
0010
0010
0000
,
0001
0100
1000
0000
0001
0100
1000
0000
,
1000
1000
0001
0001
0100
0100
0010
0000
;

//---------------dance-single - HEAVY----------------
#NOTES:
     dance-single:
     HEAVY:
     Hard:
     8:
     0.599,0.588,0.378,0.060,0.079:
0000
0000
0000
0000
,
0000
0000
0000
0000
,
0000
0000
0000
0000
,
0000
0000
0000
0000
,
0000
0000
0000
0000
,
0000
0000
0000
0000
,
0000
0000
0000
0000
,
0000
0000
0000
0000
,
0000
0000
0000
0000
,
1000
0010
1000
0010
1000
0100
0001
0100
,
0001
0010
0100
0100
1000
0000
1001
0000
,
1000
0010
0001
0010
1000
0100
1000
0001
,
1001
0110
0110
1001
,
0001
0010
0001
0010
0001
0100
1000
0100
,
1000
0010
0100
0100
0001
0000
1001
0000
,
0001
0010
1000
0010
0001
0100
0001
1000
,
2002
0000
0000
0000
0000
3003
1001
0000
,
1000
0010
0100
1000
0100
0001
0010
0100
,
1000
0100
0001
0010
0100
0000
0101
0000
,
0001
0010
1000
0010
0100
1000
0010
0100
,
0010
0001
0010
1000
1001
0000
1001
0000
,
1000
0100
0001
0010
0100
0000
1100
0000
,
0001
0100
1000
0010
0100
0000
0101
0000
,
0001
0100
0010
1000
0100
0100
0001
0010
,
1010
0101
1010
1001
,
0001
0010
0100
0001
0100
1000
0010
0100
,
0001
0100
1000
0010
0100
0000
1100
0000
,
1000
0010
0001
0010
0100
0001
0010
0100
,
0010
1000
0010
0001
1001
0000
1001
0000
,
0001
0100
1000
0010
0100
0000
0101
0000
,
0001
0010
1000
0100
0001
0000
1001
0000
,
0001
0010
0100
1000
0010
0010
0001
0100
,
0110
1001
1001
0110
,
0000
0000
0001
0000
0000
0001
0000
0000
0001
0000
0000
0100
0000
0000
0100
0000
,
0000
0000
1000
0000
0000
1000
0000
0000
1000
0000
0000
0100
0000
0000
0100
0000
,
0000
0000
0001
0000
0000
0001
0000
0000
0001
0000
0000
0010
0000
0000
0010
0000
,
0100
0000
0000
1000
0000
0000
1000
0000
0010
0000
0000
0100
0000
0000
0001
0000
,
0000
0000
1000
0000
0000
1000
0000
0000
1000
0000
0000
0010
0000
0000
0010
0000
,
0000
0000
0001
0000
0000
0001
0000
0000
0001
0000
0000
0010
0000
0000
0010
0000
,
0100
0000
0000
1000
0000
0000
1000
0000
0100
0000
0000
0010
0000
0000
1000
0000
,
0001
0000
0000
0010
0000
0000
0001
0000
0100
0000
0000
0010
0000
0000
1000
0000
,
0001
0010
0100
1000
0010
0100
0001
0100
,
1000
0100
0001
0010
0100
1000
0100
0010
,
0001
0100
1000
0100
0010
0100
0001
0100
,
1000
0100
0001
0100
0010
1000
0100
0010
,
0001
0010
1000
0010
0001
0100
1000
0100
,
0010
0100
0001
1000
0010
0100
0001
0010
,
0100
1000
0010
1000
0100
1000
0001
1000
,
0010
0100
0001
0100
2000
0000
3010
0000
,
1000
0100
0001
0010
0100
0000
1100
0000
,
0001
0100
1000
0010
0100
0000
0101
0000
,
0001
1000
0001
1000
0001
0100
1000
0010
,
0110
1001
1001
0110
,
0001
0100
1000
0010
0100
0000
0101
0000
,
1000
0100
0001
0010
0100
0000
1100
0000
,
1000
0001
1000
0001
1000
0100
0001
0010
,
0110
1001
1001
0110
,
1000
1000
0100
0100
0010
0010
0001
0001
,
1000
1000
0100
0100
0010
0010
0001
0001
,
1000
1000
0100
0100
0010
0010
0001
0001
,
1000
0100
0010
0001
1000
0100
0010
0001
,
0001
0001
0010
0010
0100
0100
1000
1000
,
0001
0001
0010
0010
0100
0100
1000
1000
,
0001
0001
0010
0010
0100
0100
1000
1000
,
0001
0010
0100
1000
0001
0010
0100
1000
,
0001
2000
3010
0200
1300
0020
0031
0000
;

//---------------dance-single - ONI----------------
#NOTES:
     dance-single:
     ONI:
     Challenge:
     10:
     0.827,1.000,0.576,0.050,0.571: // measure 1
0000
0000
0000
0000
,  // measure 2
0000
0000
0000
0000
,  // measure 3
0000
0000
0000
0000
,  // measure 4
0000
0000
0000
0000
,  // measure 5
0000
0000
0000
0000
,  // measure 6
0000
0000
0000
0000
,  // measure 7
0000
0000
0000
0000
,  // measure 8
0000
0000
0000
0000
,  // measure 9
0000
0000
0000
0000
,  // measure 10
1000
1010
1000
1010
1000
0100
0100
0001
,  // measure 11
0001
0011
0001
0011
0001
0000
1001
0000
,  // measure 12
1000
1000
0001
0001
0010
0010
0100
0100
,  // measure 13
0100
0010
0100
0000
1000
0001
1000
0000
0010
0100
0010
0000
0001
1000
0001
0000
,  // measure 14
0001
0011
0001
0011
0001
0100
0100
1000
,  // measure 15
1000
1010
1000
1010
1000
0000
1001
0000
,  // measure 16
0001
0001
0010
0010
0100
1000
0010
0001
,  // measure 17
2002
0000
0000
0000
0000
3003
1001
0000
,  // measure 18
1000
0001
0100
0000
0100
0010
0100
0000
0010
1000
0001
0000
0100
0010
0100
0000
,  // measure 19
1000
0100
0001
0010
0100
0000
1001
0000
,  // measure 20
0001
0011
0001
0011
0100
1000
1000
1000
,  // measure 21
0010
0001
0010
1000
1001
0000
1001
0000
,  // measure 22
1000
0100
1000
0000
0100
0000
0001
0000
0010
0000
0000
0000
1100
0000
0000
0000
,  // measure 23
0001
0100
0001
0000
0100
0000
1000
0000
0010
0000
0000
0000
0101
0000
0000
0000
,  // measure 24
0001
0011
1000
1010
1000
1000
0001
0001
,  // measure 25
1001
0011
1100
1001
,  // measure 26
1000
1010
1000
1010
0100
0001
0001
0001
,  // measure 27
0010
1000
0010
0001
1001
0000
1001
0000
,  // measure 28
1000
0001
0010
0000
0100
0010
0100
0000
1000
0001
0100
0000
0100
0010
0100
0000
,  // measure 29
0010
0010
0100
0100
1000
0000
1001
0000
,  // measure 30
0001
0100
1000
0000
1000
0000
0010
0000
0001
0000
0000
0000
1001
0000
0000
0000
,  // measure 31
0001
0010
1000
0100
0001
0000
1001
0000
,  // measure 32
1000
1010
0001
0011
0001
0001
1000
1000
,  // measure 33
1001
1001
0110
1001
,  // measure 34
0001
0010
0001
0000
1000
0100
1000
0000
0010
0100
0010
0000
1000
0100
1000
0000
,  // measure 35
0001
0100
0001
0000
0100
0010
0100
0000
0001
0010
0001
0000
1000
0100
1000
0000
,  // measure 36
0001
0010
0100
0000
0100
0010
0001
0000
1000
0010
0100
0000
0100
0010
1000
0000
,  // measure 37
0001
1000
0100
0000
0100
1000
0001
0000
1000
0001
0100
0000
0100
0001
1000
0000
,  // measure 38
0001
0010
0100
0000
1000
0100
0010
0000
0001
0010
0100
0000
1000
0100
0010
0000
,  // measure 39
0001
0100
0010
0000
1000
0010
0100
0000
0001
0100
0010
0000
1000
0010
0100
0000
,  // measure 40
0001
0010
0100
0000
0010
0100
1000
0000
1000
0100
0010
0000
0100
0010
0001
0000
,  // measure 41
1000
0100
0010
0000
0100
0010
0001
0000
0001
0010
0100
0000
0010
0100
1000
0000
,  // measure 42
0001
0010
0001
0010
0100
0010
0100
0010
0001
0010
0001
0100
0010
0100
0010
1000
,  // measure 43
0100
1000
0100
1000
0001
1000
0001
1000
0010
0100
0010
0100
0001
0010
0001
0010
,  // measure 44
0001
1000
0001
1000
0001
0100
0001
0100
0010
1000
0010
1000
0100
1000
0100
1000
,  // measure 45
0001
0010
0001
0010
0100
1000
0100
1000
0010
0100
0010
0100
0001
0010
0001
0010
,  // measure 46
0001
0100
0010
1000
0100
0010
0001
1000
0100
1000
0001
0010
0100
0010
0001
1000
,  // measure 47
0010
0100
0010
1000
0001
0100
0010
1000
0001
0100
0010
1000
0100
0010
0001
1000
,  // measure 48
0010
0100
0001
1000
0100
0010
0001
0010
0100
1000
0100
0010
0001
0010
0100
1000
,  // measure 49
0001
0100
0010
1000
0001
0010
0100
1000
0010
0100
0001
0010
0100
1000
0010
0100
,  // measure 50
0001
1000
0001
0000
0100
0000
1000
0000
0010
0000
0000
0000
1100
0000
0000
0000
,  // measure 51
1000
0001
1000
0000
0100
0000
0001
0000
0010
0000
0000
0000
0101
0000
0000
0000
,  // measure 52
0001
0011
1000
1010
1000
1000
0001
0001
,  // measure 53
1001
1001
0110
1001
,  // measure 54
0001
1000
0100
0000
1000
0000
0010
0000
0001
0000
0000
0000
0101
0000
0000
0000
,  // measure 55
1000
0001
0100
0000
0001
0000
0010
0000
1000
0000
0000
0000
1100
0000
0000
0000
,  // measure 56
1000
1010
0001
0011
0001
0001
1000
1000
,  // measure 57
1001
1001
0110
1001
,  // measure 58
1000
1000
0100
0100
0010
0010
0001
0001
,  // measure 59
1000
1000
0100
0100
0010
0010
0001
0001
,  // measure 60
1000
1000
0100
0100
0010
0010
0001
0001
,  // measure 61
1000
0100
0010
0001
1000
0100
0010
0001
,  // measure 62
0001
0001
0010
0010
0100
0100
1000
1000
,  // measure 63
0001
0001
0010
0010
0100
0100
1000
1000
,  // measure 64
0001
0001
0010
0010
0100
0100
1000
1000
,  // measure 65
0001
0010
0100
1000
0001
0010
0100
1000
,  // measure 66
1001
0000
2000
3000
1010
0000
0020
0030
0011
0000
0002
0003
1001
0000
0000
0000
;
