#TITLE:Dis-X PARANOiA 2nd illusion;
#SUBTITLE:;
#ARTIST:210;
#TITLETRANSLIT:;
#SUBTITLETRANSLIT:;
#ARTISTTRANSLIT:;
#CREDIT:;
#BANNER:Dis-X PARANOiA 2nd illusion.png;
#BACKGROUND:Dis-X PARANOiA 2nd illusion-bg.png;
#LYRICSPATH:;
#CDTITLE:cdtitle.png;
#MUSIC:Dis-X PARANOiA 2nd illusion.mp3;
#OFFSET:-0.030;
#SAMPLESTART:11.940;
#SAMPLELENGTH:12.000;
#SELECTABLE:YES;
#DISPLAYBPM:210.000;
#BPMS:0.000=210.000,124.000=225.000,140.000=210.000;
#STOPS:;
#BGCHANGES:;

//---------------dance-single - BASIC----------------
#NOTES:
     dance-single:
     BASIC:
     Easy:
     6:
     0.461,0.597,0.356,0.000,0.000:
0000
0000
0000
0000
,
0000
0000
0000
0000
,
0000
0000
0000
0000
,
0000
0000
0000
0000
,
0000
0000
0000
0000
,
0000
0000
0000
0000
,
1001
1000
0010
0100
,
0001
0000
1000
0100
1000
0100
0010
0000
,
1001
0001
1000
0010
,
0100
0000
0001
0100
0001
0100
0010
0000
,
1010
0000
0000
0000
1000
0000
0100
0010
,
0000
0001
0000
0000
0000
0010
0000
0100
,
1000
1001
0001
1000
,
0010
0000
0100
0010
0100
0010
0100
0010
,
0100
0010
0100
0000
0001
0000
0010
0000
,
0100
1000
0100
0010
,
1010
0100
0101
0001
,
1001
0000
1000
0100
1000
0100
0010
0000
,
0011
1000
1000
0100
,
0010
0010
0001
0001
,
0100
1000
1000
0010
,
0010
0100
0100
0001
,
1000
0100
0010
0100
,
1001
1001
0001
0100
,
0010
0100
1000
0100
,
0001
0010
0100
1000
,
0100
1000
0010
0100
,
0001
1000
0010
0100
,
0100
0010
1000
0100
,
0010
0011
0001
1001
,
1000
1100
0010
1001
,
1000
0000
0000
0010
0000
0000
0001
0000
,
0000
0010
0000
0000
1000
0000
0100
0000
,
0100
0000
0000
0010
0000
0000
0001
0000
,
1000
0000
0000
0100
0000
0000
0000
0000
,
0010
0000
0000
1000
0000
0000
0001
0000
,
0000
0100
0000
0000
1000
0000
1000
0000
,
0100
0000
0000
0010
0000
0000
0001
0000
,
0000
1000
0000
0000
0010
0000
0010
0000
,
1001
0001
0100
0010
,
0100
0001
1000
0100
,
0010
0001
0100
1000
,
0010
0000
0100
0000
1000
0100
0001
0100
,
1000
0010
0100
0010
,
1000
0100
0010
0001
,
0100
0001
0100
0010
,
1000
0000
0100
0000
0010
0001
0010
0100
,
1000
0000
0000
0000
,
1001
0100
0010
0100
,
1000
0010
0100
0001
,
1000
0001
0100
0010
,
1001
0110
0110
1001
,
0001
1000
0100
0010
,
0001
0100
0010
1000
,
0100
1000
0010
0100
,
1001
0110
0110
0110
,
1001
0000
0000
0000
;

//---------------dance-single - TRICK----------------
#NOTES:
     dance-single:
     TRICK:
     Medium:
     7:
     0.549,0.637,0.626,0.000,0.000:
0000
0000
0000
0000
,
0000
0000
0000
0000
,
0000
0000
0000
0000
,
0000
0000
0000
0000
,
0000
0000
0000
0000
,
0000
0000
0000
0000
,
1001
0000
1000
0100
0010
0000
0100
0000
,
0001
0100
1000
0010
,
1001
0000
0100
1000
0001
0000
0010
0000
,
0101
1010
0101
1010
,
1001
0000
0000
0000
1000
0000
0100
0010
,
0000
0101
0000
0000
0000
0010
0000
0100
,
1000
0101
0001
1000
,
0010
0000
0100
0001
1000
0010
1000
0100
,
0010
0001
0100
0000
0001
0100
0010
0000
,
0100
0000
1000
0000
0100
0001
0010
0000
,
0011
0000
0001
0100
0010
0000
1000
0010
,
0100
0000
0001
1000
0001
1000
0001
0000
,
1001
0000
1000
0100
1000
0000
0100
0000
,
0100
0000
0010
0001
0010
0000
0010
0000
,
1100
1001
1000
1010
,
0010
0000
0100
0000
0100
0000
0001
1000
,
0001
0000
0100
0010
0100
0010
0100
0000
,
1001
0000
0001
0100
0001
0000
0100
0000
,
0010
0000
0100
0001
0100
0000
0010
0000
,
1001
0010
0010
1100
,
0101
1000
1000
0110
,
0101
0000
0001
0100
0010
0000
0100
0001
,
0100
0100
1000
0100
,
1000
1001
1010
1001
,
0101
1100
1010
1001
,
1000
0000
0000
0010
0000
0000
0001
0000
,
0000
0010
0000
0000
1000
0000
0100
0000
,
0100
0000
0000
0010
0000
0000
0001
0000
,
1000
0000
0000
0100
0000
0100
0000
0000
,
0010
0000
0000
1000
0000
0000
0100
0000
,
0000
0001
0000
0000
0010
0000
0010
0000
,
0100
0000
0000
0010
0000
0000
0001
0000
,
0000
1000
0000
0000
0010
0000
0010
0000
,
1001
0000
0001
0000
0100
0010
0100
0000
,
0100
0101
0001
0100
,
1010
0000
1000
0100
0010
0000
0001
0000
,
0100
0000
0010
0000
1000
0100
0001
0000
,
0011
0010
0100
1001
,
1000
0010
0100
0000
0010
0000
1000
0000
,
0100
0010
0100
0000
0101
0000
1000
0000
,
1000
0000
0100
0000
0010
0001
1000
0100
,
0001
0000
0000
0000
0010
0100
0010
0100
,
0010
1000
0010
0100
,
0100
0001
0100
0001
0100
0000
0010
0000
,
0001
0101
0100
0010
,
1010
1001
1010
1001
,
0001
0100
1000
0000
0100
0000
0001
0000
,
0010
0001
0100
0000
0010
1000
0100
0000
,
1100
1000
0010
0100
,
1010
1100
0101
0011
,
1001
0000
0000
0000
;

//---------------dance-single - HEAVY----------------
#NOTES:
     dance-single:
     HEAVY:
     Hard:
     9:
     0.660,0.757,0.583,0.000,0.028:
0000
0000
0000
0000
,
0000
0000
0000
0000
,
0000
0000
0000
0000
,
0000
0000
0000
0000
,
0000
0000
0000
0000
,
0000
0000
0000
0000
,
0001
0010
0001
0100
0010
1000
0100
0001
,
0100
1000
0010
0100
0001
0000
0010
0000
,
1001
1000
0010
0100
0001
0010
0100
1000
,
1010
0011
0101
1100
,
1001
0000
0000
0000
1010
0000
0100
0010
,
0000
0101
0000
0000
0000
0011
0000
0100
,
0010
1100
0001
1000
,
0010
0000
0100
0010
1000
0100
0010
0001
,
0100
0010
1000
0001
0100
0010
0100
0001
,
1000
0100
1000
0010
0100
0001
1000
0100
,
0010
0000
0001
0100
0010
0000
1000
0010
,
0100
0000
0001
0010
1000
0010
0001
0010
,
1000
0000
0011
0001
0001
0000
0110
0100
,
0100
0000
0010
0100
1000
0100
0010
1000
,
0001
0000
1000
0010
1000
0000
0010
0100
,
0010
0000
0100
0001
0100
0010
1000
0100
,
0001
0000
0001
0100
1000
0100
0001
0100
,
1000
0000
0001
0100
0001
0000
0100
0010
,
0100
0000
0001
0100
1000
0100
0001
0010
,
0001
1001
0011
1100
,
0101
1010
1001
0110
,
0101
0000
0001
0100
0010
0000
0100
0001
,
0100
0100
0100
0100
,
0100
0000
1000
0010
1000
0000
0001
0010
,
0001
0000
1000
0100
1000
0000
1001
0000
,
1000
0000
0000
0010
0000
0000
0001
0000
,
0000
0100
0000
1000
1000
0100
0100
0000
,
0010
0000
0000
1000
0000
0000
0100
0000
,
0001
0000
0010
0100
0100
0100
0000
0000
,
0010
0000
0000
1000
0000
0000
0100
0000
,
0000
0001
0000
0010
0100
0100
0100
0000
,
0010
0000
0000
0001
0000
0000
0100
0000
,
0000
1000
0000
0010
0100
0100
0100
0000
,
1001
0000
0001
0100
0010
0100
0001
0000
,
0100
0000
0101
0000
0001
0100
0001
0000
,
1010
0000
1000
0100
0010
0001
0100
0010
,
1000
0100
0001
0100
1000
0100
0001
0000
,
0011
0010
0100
1001
,
1000
0010
0100
0000
0110
0000
1001
0000
,
0100
0010
0100
0000
0101
0000
1000
0000
,
1000
0100
1000
0100
0010
0001
1000
0100
,
0001
0000
0000
0000
0000
0000
0000
0000
0010
0100
0010
0100
0010
0100
0010
0100
,
0010
0000
1000
0001
0100
0000
1010
0000
,
0100
1000
0010
1000
0100
0000
1010
0000
,
1000
0001
0100
0010
0100
0001
1000
0000
,
1010
0011
0101
1010
,
0001
0100
1000
0100
0001
0010
0100
1000
,
0100
0001
0100
1000
0100
0010
0001
0000
,
1100
0000
1000
0010
0001
0100
1000
0000
,
1010
0011
0101
1100
,
1001
0000
0000
0000
;

//---------------dance-single - ONI----------------
#NOTES:
     dance-single:
     ONI:
     Challenge:
     10:
     0.825,0.836,0.796,0.000,0.057: // measure 1
0000
0000
0000
0000
,  // measure 2
0000
0000
0000
0000
,  // measure 3
0000
0000
0000
0000
,  // measure 4
0000
0000
0000
0000
,  // measure 5
0000
0000
0000
0000
,  // measure 6
0000
0000
0000
0000
,  // measure 7
1001
1000
0001
0100
0101
0001
0100
0010
,  // measure 8
1010
1000
0010
0100
1001
0000
0110
0000
,  // measure 9
1001
1000
0010
0100
0101
0001
0010
0100
,  // measure 10
1100
1000
0010
0100
0001
0010
1001
0000
,  // measure 11
1001
0000
1000
0000
1010
0010
0100
0010
,  // measure 12
0000
0101
0000
0001
0000
0011
0010
0100
,  // measure 13
0010
1100
1001
0011
,  // measure 14
0110
0000
0000
0000
0100
0000
0010
0000
0001
0000
0100
0000
0010
0100
0010
0100
,  // measure 15
0010
0100
0010
0100
0010
0000
1000
0000
0100
0000
0010
0000
0100
0000
0001
0000
,  // measure 16
0100
1000
0010
0100
0001
0100
1000
0001
,  // measure 17
0010
1000
0001
0100
0010
1000
0100
0010
,  // measure 18
0100
1000
0001
0010
1000
0010
0001
0010
,  // measure 19
1001
0000
0001
0100
0001
1000
0100
1000
,  // measure 20
0010
0100
0001
0100
1000
0100
0010
0100
,  // measure 21
1001
0000
1010
0010
1010
0000
0101
0100
,  // measure 22
0101
0000
1000
1000
0100
0100
0010
0010
,  // measure 23
1001
0000
0001
0001
0100
0100
0010
0010
,  // measure 24
1001
0000
0001
0100
0001
1000
0100
0010
,  // measure 25
0100
0001
0100
1000
0010
0100
0001
0010
,  // measure 26
0001
1000
0010
0100
0010
0001
0010
1000
,  // measure 27
0100
0010
0001
1000
0001
0100
0010
1000
,  // measure 28
1001
0000
0001
0100
0010
0100
0001
0100
,  // measure 29
0010
1000
0100
0010
0001
0010
0100
1000
,  // measure 30
1001
0000
1010
0010
1010
0000
0011
0010
,  // measure 31
0011
0000
1001
1100
1001
0000
1001
0000
,  // measure 32
1000
0100
0000
0010
0001
0000
0001
0100
,  // measure 33
0000
0100
1000
0100
1000
1000
0100
0000
,  // measure 34
0010
0001
0000
1000
0100
0000
0101
0000
,  // measure 35
0011
0000
0010
0100
0100
0110
0000
0000
,  // measure 36
0010
1000
0000
1000
0001
0000
0100
0010
,  // measure 37
0000
0010
0100
0100
1000
0100
0001
0000
,  // measure 38
0010
1000
0000
0100
0001
0000
0100
1000
,  // measure 39
0000
1000
0010
0001
0010
1000
0100
0000
,  // measure 40
1001
0001
0100
0010
0100
0100
0001
0100
,  // measure 41
1000
0100
0010
1000
0001
0100
1001
0000
,  // measure 42
1010
0010
1000
0100
1000
0010
0001
0010
,  // measure 43
1000
0100
0001
0100
0010
0100
1001
0000
,  // measure 44
1001
0010
0100
0010
0001
0100
1000
0100
,  // measure 45
0001
0010
0100
1000
0100
0010
1001
0000
,  // measure 46
0011
0010
0100
1000
0100
0001
1000
0010
,  // measure 47
1000
0100
1000
0100
0010
0001
1000
0100
,  // measure 48
0001
0000
0000
0000
0000
0000
0000
0000
0001
0100
0010
1000
0001
0100
0010
1000
,  // measure 49
0001
0100
0010
1000
0100
0010
0001
0100
,  // measure 50
0010
1000
0010
1000
0100
0010
1001
0000
,  // measure 51
0001
0100
1000
0010
0100
0001
0010
1000
,  // measure 52
1010
1001
0110
0011
,  // measure 53
0001
0100
1000
0100
0001
0010
1000
0010
,  // measure 54
0001
0100
0010
1000
0010
0100
1001
0000
,  // measure 55
0100
1000
0010
0001
1000
0100
0001
0010
,  // measure 56
1010
0011
0101
1100
,  // measure 57
1001
0000
0000
0000
;
