#TITLE:蒼空帆翔;
#SUBTITLE:;
#ARTIST:syatten;
#TITLETRANSLIT:Corridors of Time;
#SUBTITLETRANSLIT:;
#ARTISTTRANSLIT:;
#CREDIT:;
#BANNER:Corridors of Time.png;
#BACKGROUND:Corridors of Time-bg.png;
#LYRICSPATH:;
#CDTITLE:cdtitle.png;
#MUSIC:Corridors of Time.mp3;
#OFFSET:-0.100;
#SAMPLESTART:100.000;
#SAMPLELENGTH:12.000;
#SELECTABLE:YES;
#BPMS:0.000=65.000,32.000=130.000,224.000=65.000,272.000=130.000,432.000=65.000;
#STOPS:;
#BGCHANGES:;

//---------------dance-single - BASIC----------------
#NOTES:
     dance-single:
     BASIC:
     Easy:
     1:
     0.083,0.183,0.023,0.000,0.000:
0000
0000
0000
0000
,
0000
0000
0000
0000
,
0000
0000
0000
0000
,
0000
0000
0000
0000
,
0000
0000
0000
0000
,
0000
0000
0000
0000
,
0000
0000
0000
0000
,
0000
0000
0000
0000
,
1000
0000
0000
0000
,
0000
0000
0000
0000
,
0001
0000
0000
0000
,
0000
0000
0000
0000
,
1000
0000
0000
0000
,
0000
0000
0000
0000
,
0001
0000
0000
0000
,
1000
0000
0000
0000
,
0001
0000
1000
0000
,
0100
0000
1000
0000
,
0010
0000
0100
0000
,
0001
0000
0010
0000
,
0001
0000
0100
0000
,
0010
0000
0010
0000
,
1000
0000
1000
0000
,
0100
0000
0100
0000
,
0010
0010
0010
0000
,
0000
0000
0000
0000
,
0100
0100
0100
0000
,
0000
0000
0000
0000
,
0010
0010
0010
0000
,
0000
0000
0000
0000
,
0010
0010
0010
0000
,
0000
0000
0010
0000
,
1001
0000
0000
0000
,
0000
0000
0100
0000
,
0010
0000
0001
0000
,
1000
0000
0000
0000
,
1000
0100
0010
0010
,
0001
0100
0010
0010
,
0010
0000
0000
0000
,
0010
0000
0000
0000
,
0010
0000
0010
0000
,
0000
0000
0010
0000
,
0100
0000
0010
0000
,
0000
0000
0000
0000
,
0010
0000
0010
0000
,
0000
0000
0000
0000
,
0010
0010
0010
0000
,
0000
0000
0100
0000
,
1001
0000
0000
0000
,
0000
0000
0010
0000
,
1000
0000
0001
0000
,
0100
0000
0000
0000
,
0001
0100
0010
0010
,
1000
0100
0010
0010
,
0010
0000
0000
0000
,
1001
0000
0000
0000
,
1000
0000
0000
0000
,
0001
0000
0000
0000
,
1000
0000
0000
0000
,
0001
0000
0000
0000
,
0100
0000
0000
0000
,
0010
0000
0000
0000
,
0010
0000
0000
0000
,
0100
0000
0000
0000
,
1000
0000
0010
0000
,
0001
0000
0010
0000
,
1000
0000
0000
0100
,
0010
0010
0010
0010
,
1001
0000
0000
0000
,
0010
0000
1000
0000
,
0100
0000
0000
0000
,
0010
0000
0001
0000
,
0100
0000
0000
0000
,
0000
0000
0010
0000
,
0010
0000
0000
0000
,
0000
0000
0000
0000
,
1001
0000
0100
0000
,
0010
0000
1000
0000
,
0001
0000
0010
0000
,
0010
0000
0100
0000
,
0100
0000
0001
0000
,
1000
0000
0010
0000
,
0010
0000
0100
0000
,
0100
0000
0100
0000
,
0010
0000
0001
0000
,
1000
0000
0010
0000
,
0010
0000
1000
0000
,
0100
0000
0010
0000
,
0001
0000
1000
0000
,
0001
0000
0100
0000
,
0010
0000
1000
0000
,
0001
0000
1000
0000
,
0001
0000
0000
0000
,
0100
0000
0010
0000
,
1000
0000
0000
0000
,
0010
0000
0001
0000
,
0100
0000
0000
0000
,
0000
0000
0010
0010
,
0010
0000
0010
0000
,
0010
0000
0010
0000
,
0010
0000
0000
0000
,
0010
0000
1000
0000
,
0001
0000
0000
0000
,
0100
0000
0010
0000
,
0010
0000
0000
0000
,
0000
0000
0010
0000
,
1001
0000
0000
0000
,
0000
0000
0000
0000
,
0010
0000
0000
0000
,
0100
0000
0000
0000
,
0001
0000
0000
0000
,
1000
0000
0000
0000
,
0010
0000
0000
0000
,
0010
0000
0000
0000
,
0100
0000
0010
0010
,
0010
0000
0000
0000
,
0010
0000
0000
0000
,
0000
0000
0000
0000
,
0100
0000
0000
0000
,
0000
0000
0000
0000
,
0010
0000
0000
0000
,
0000
0000
0000
0000
,
0100
0000
0000
0000
,
0000
0000
0000
0000
,
1001
0000
0000
0000
;

//---------------dance-single - TRICK----------------
#NOTES:
     dance-single:
     TRICK:
     Medium:
     4:
     0.166,0.310,0.121,0.131,0.000:
0000
0000
0000
0000
,
0000
0000
0000
0000
,
0000
0000
0000
0000
,
0000
0000
0000
0000
,
0000
0000
0000
0000
,
0000
0000
0000
0000
,
0000
0000
0000
0000
,
0000
0000
0000
0000
,
1000
0000
0010
0010
,
0001
0000
0010
0010
,
1000
0000
0010
0010
,
0001
0000
0001
0100
,
1000
0000
0010
0010
,
1000
0000
0010
0010
,
0001
0000
0010
0010
,
1000
0000
1000
0100
,
0001
1000
0010
0100
,
0001
1000
0001
1000
,
0010
0000
0100
0000
,
0001
0000
0010
0000
,
0001
1000
0100
0100
,
0010
0001
0010
1000
,
0010
0000
0001
0000
,
1000
0000
0010
0000
,
0010
1000
0101
0000
,
0000
0000
0010
1001
,
0020
0001
0130
0000
,
0000
0000
0000
0000
,
0020
0000
0000
0030
1001
0000
0000
0000
,
0000
0000
0010
0010
,
1000
0100
0001
0000
,
0000
0000
0000
0000
2002
0000
0000
3003
,
0010
0000
0000
0000
,
0000
0000
0100
0010
,
2000
0000
3200
0310
,
1001
0000
0000
0000
,
2000
0000
3010
1001
,
0002
0000
0013
1001
,
0200
0000
0000
0000
,
0310
0000
0000
0000
,
0010
1100
0020
0000
,
0130
0000
0020
0001
,
0230
0000
0301
0000
,
0000
0000
0000
0000
,
0020
0000
0130
0000
,
0000
0000
0100
1001
,
0010
0100
0011
0000
,
0000
0000
0000
0000
0200
0000
0000
0300
,
1001
0000
0000
0000
,
0000
0000
0010
0001
,
1000
0010
0200
0000
,
0310
0000
0000
0000
,
0001
0201
0000
0310
,
1001
0200
0010
1300
,
0011
0000
0000
0000
,
1001
0000
0000
0000
,
1000
0000
0000
0000
,
0001
0000
0000
0000
,
1000
0000
0000
0000
,
0001
0000
0000
0000
,
0010
0001
0000
0000
,
0010
1000
0000
0000
,
1000
0100
0000
0000
,
0001
0100
0000
0000
,
2000
0000
3020
0032
,
0203
0000
0320
0000
,
0130
0000
0000
0010
,
0010
0010
0010
0010
,
1001
0000
0000
0000
,
0010
0000
1001
0000
,
0110
0000
0000
0000
,
0010
1000
0100
0001
,
0010
0000
0000
0010
,
0000
0000
0010
0000
,
0010
0010
0010
0010
,
0010
0000
0100
0010
,
1001
0100
0010
0100
,
1000
0100
0021
1030
,
0110
0100
0010
1000
,
0010
0001
0010
1000
,
0100
0010
0001
1000
,
0001
0010
0100
1000
,
0201
1300
1020
0031
,
1001
0100
0010
1001
,
0010
0100
0001
1000
,
0001
0100
0010
1010
,
2000
0000
3200
0000
,
0301
1000
0010
0100
,
0010
1001
0100
1010
,
0100
0011
0100
1000
,
0020
0000
0000
1000
,
0230
0000
0000
0301
,
1001
0010
0000
0100
,
0000
0001
0000
1000
,
0000
0010
0000
0010
,
0000
0100
0000
0001
,
0000
0010
0000
1000
,
0000
0100
0000
0010
,
0000
0010
0000
0010
,
0000
0010
0000
0010
,
0001
0100
0010
1000
,
1020
0031
2100
3010
,
0012
1003
0100
0010
,
0021
1000
0230
0301
,
1000
0010
0100
0010
,
1000
0100
0200
0310
,
2002
0000
0000
0000
,
0000
0000
0000
3003
,
0110
0000
0000
0010
,
0100
0000
0010
0000
,
1000
0000
0000
0000
,
0100
0000
0010
0010
,
0010
0000
0000
0010
,
0100
0000
0100
0000
,
0010
0000
0010
0010
,
0020
0000
0000
0030
,
0010
0000
0000
0000
,
0100
0000
0000
0000
,
0010
0000
0000
0000
,
0100
0000
0000
0000
,
0010
0000
0000
0000
,
0100
0000
0000
0000
,
0010
0000
0000
0000
,
0100
0000
0000
0000
,
2002
0000
0000
0000
,
0000
0000
0000
0000
,
3003
0000
0000
0000
;

//---------------dance-single - HEAVY----------------
#NOTES:
     dance-single:
     HEAVY:
     Hard:
     6:
     0.302,0.454,0.219,0.147,0.052:
0000
0000
0000
0000
,
0000
0000
0000
0000
,
0000
0000
0000
0000
,
0000
0000
0000
0000
,
2000
0000
0000
0000
,
3002
0000
0000
0000
,
0203
0000
0320
0000
,
2030
0000
3002
0000
,
1003
0000
0100
0000
0010
0001
0010
0000
,
0001
0000
0100
0000
0010
1000
0010
0000
,
1000
0000
0100
0000
0010
0100
0010
0000
,
0001
0000
0100
0000
0010
1000
0010
0000
,
0100
0000
0010
0100
0010
0100
0001
0000
,
1000
0000
0010
0100
0010
0100
1000
0000
,
0001
0000
0100
0010
1000
0000
0011
0000
,
1000
0000
0010
0100
0001
0000
1100
0000
,
0001
0000
1000
0000
0010
0100
0001
0000
,
0001
0100
1000
0100
0001
0000
1000
0000
,
0010
0000
0000
0000
0010
0000
0100
1000
,
0001
0100
0100
0000
,
0001
0100
1000
0000
0010
0000
0010
0000
,
0001
0100
1000
0000
0010
0000
1001
0000
,
0010
1000
0100
0000
0001
0000
0011
0000
,
2000
0000
3100
1001
,
0010
0000
0000
0010
0000
0000
0100
0000
0100
0000
0000
0000
0010
0000
0000
0000
,
0000
0000
0000
0000
0100
0000
0000
0000
0001
0000
0000
1000
0000
0000
0000
0000
,
0120
0001
0000
1000
,
0000
0000
0130
0000
0000
0000
1001
0010
,
0010
0000
0000
0100
0000
0000
0100
0000
1001
0000
0000
0000
0010
0000
0000
0000
,
0000
0000
0000
0000
0100
0000
0010
0000
0010
0000
0000
0100
0000
0000
1000
0000
,
0100
0000
0000
0001
0000
0000
0010
0000
0100
0000
0000
0000
0010
0000
0000
0000
,
0000
0000
0000
0000
0110
0000
0020
0000
1000
0000
0000
0001
0000
0000
1030
0000
,
1001
0010
0000
0100
,
0000
0000
0010
1000
0200
0000
0001
0000
,
0310
0000
0000
1000
0000
0000
0002
0000
0000
0000
0000
0000
0103
0000
0010
0000
,
0001
0000
0100
0000
0000
0000
0010
1000
,
0100
0000
1000
0000
0010
0000
0100
0000
0001
0000
0000
0010
0000
0000
0010
0000
,
0001
0000
0100
0000
0001
0000
0010
0000
0100
0000
0000
0010
0000
0000
0010
0000
,
1001
0100
0000
0010
,
1001
0100
0000
0100
,
0010
0100
1000
0000
0210
0000
0001
0000
,
0300
2100
3020
0001
,
1030
0000
0101
0000
0001
0100
1000
0000
,
1000
0100
0001
0000
0010
0000
0100
0000
,
0010
0001
0100
0000
0100
1000
0010
0000
,
1100
0201
0010
0310
,
1001
0100
1001
0010
,
0100
0000
0010
0100
1000
0100
0001
0010
,
1000
0010
0000
0100
,
0000
0001
1010
0010
,
1200
0000
0001
1300
0200
0000
0010
0010
,
1300
0100
0000
0010
,
0001
0100
0020
0000
1000
0000
0130
1000
,
0001
0000
1020
0000
1030
0001
0200
0000
,
0301
0100
0000
0010
,
1001
1000
0000
0001
,
1000
0100
0010
0001
,
0001
0010
0100
1000
,
1000
0001
1000
0001
,
0100
0010
0100
0010
,
1000
0001
0100
0000
0001
1000
0100
0000
,
1000
0001
1000
0000
0001
1000
0001
0000
,
1000
0010
0100
0000
0001
0010
0100
0000
,
0001
0100
1000
0000
1000
0010
0001
0000
,
2000
0100
0000
0100
3020
0100
0032
1000
,
0203
0000
0010
0000
0000
0000
0010
0000
2300
0000
0100
0000
3020
0000
0001
0130
,
1000
0100
0010
0010
,
0010
0010
0010
0010
0010
0010
0010
0010
,
1001
0100
0000
0010
,
0100
1001
0010
0110
,
0100
1000
0000
0001
,
0010
0000
1100
0000
0100
0000
0001
0010
,
1000
0100
0010
0010
,
0010
0010
0110
0010
,
1001
0010
0010
0010
,
0010
1000
0100
0001
0100
1000
0010
0001
,
1001
0000
0100
0010
1000
0000
0100
0001
,
0010
0000
0000
0000
1100
0000
0000
0001
0010
0000
0000
1000
0100
0000
0000
0000
,
0120
0000
1030
0100
0020
0000
0100
0000
,
0031
0000
0001
0010
1000
0010
0001
0000
,
0100
0000
0000
0100
0000
0000
0010
0000
1001
0000
0000
0000
0010
0000
0000
0000
,
0100
0000
0010
1000
0100
0010
0001
0200
,
0010
0000
0300
1001
0000
0000
0210
0000
0000
0000
0000
0000
0301
0000
0000
0000
,
1001
0000
0000
0000
0100
0000
0000
0001
0010
0000
0000
1000
0100
0000
0000
0000
,
0110
0000
0100
1000
0001
0000
0010
1000
,
0100
0000
0100
0020
1000
0000
0001
0000
,
0200
0000
0030
1000
0000
0000
0010
0000
0000
0000
0000
0000
0301
0000
0100
0000
,
0001
1001
0010
1001
,
0010
0000
1000
0000
0100
0000
0001
0000
0020
0000
0000
2000
0030
0000
0100
0000
,
3001
0000
0100
0000
1000
0000
0020
0000
0001
0000
0000
0230
0000
0000
0310
0000
,
1001
0010
1001
0100
,
1001
1000
0110
0001
,
1001
0010
0100
1010
,
0100
0011
0100
1001
,
0010
0010
0010
0010
,
1001
0100
0011
0100
,
1100
0010
1001
1000
,
0110
0001
1001
0110
,
0010
0110
0010
1001
,
0100
0000
0110
0000
0001
0000
0100
1000
,
0010
1010
0010
0102
,
1003
0100
0002
0000
1003
0100
0001
0000
,
0001
0010
1000
0010
0001
0100
1000
0010
,
0012
0000
1003
0010
0200
0000
0301
0100
,
1000
1010
0100
0011
,
1000
0000
0000
0000
0110
0000
0000
0000
0100
0000
0000
0010
0100
0000
0010
0000
,
2002
0000
0000
0000
,
0000
0000
3003
0000
1000
0100
0010
0001
,
1001
0000
0000
0010
,
0100
0000
0000
0000
0000
0000
0000
0000
0010
0000
0000
0000
0000
0010
1000
0100
,
0001
0000
0000
0000
0000
0000
0000
0000
0000
0000
0000
0010
0100
0010
0100
0010
,
1001
0000
0000
0000
0000
0000
0010
0000
0010
0000
0010
0000
0010
1000
0001
0010
,
0010
0000
0000
0000
0000
0000
0000
0000
0000
0000
0000
0000
0000
0000
0000
0000
0000
0000
0000
0000
0000
0000
0010
0100
0010
0000
0000
0000
0100
0000
0000
0000
,
0100
0000
0000
0000
0000
0000
0000
0000
0100
0000
0000
0000
0000
0001
0100
1000
,
0010
0000
0000
0000
0000
0000
0010
0010
0010
0000
0000
0000
0010
0000
0000
0000
,
0020
0000
0000
0030
,
0010
0000
0000
0000
,
0100
0000
0000
0000
,
0010
0000
0000
0000
,
0100
0000
0000
0000
,
0010
0000
0000
0000
,
0100
0000
0000
0000
,
0010
0000
0010
0000
,
0100
0000
0000
0000
,
2002
0000
0000
0000
,
0000
0000
0000
0000
,
3003
0000
0000
0000
;

//---------------dance-single - ONI----------------
#NOTES:
     dance-single:
     ONI:
     Challenge:
     8:
     0.379,0.681,0.134,0.036,0.383: // measure 1
0000
0000
0000
0000
,  // measure 2
0000
0000
0000
0000
,  // measure 3
0000
0000
0000
0000
,  // measure 4
0000
0000
0000
0000
,  // measure 5
2000
0000
0000
0000
,  // measure 6
3002
0000
0000
0000
,  // measure 7
0203
0000
0320
0000
,  // measure 8
2030
0000
3002
0000
,  // measure 9
1003
0000
0000
0100
0000
0000
0100
0000
0001
0000
0000
0100
0000
0000
0100
0000
,  // measure 10
1000
0000
0000
0100
0000
0000
0100
0000
0001
0000
0000
0100
0000
0000
0100
0000
,  // measure 11
1000
0000
0000
0010
0000
0000
0010
0000
0001
0000
0000
0010
0000
0000
0010
0000
,  // measure 12
1000
0000
0000
0010
0000
0000
0010
0000
0001
0000
0000
0010
0000
0000
0010
0000
,  // measure 13
1000
0000
0000
0100
0000
0000
0100
0000
0001
0000
0000
0100
0000
0000
0100
0000
,  // measure 14
1000
0000
0000
0010
0000
0000
0010
0000
0001
0000
0000
0010
0000
0000
0010
0000
,  // measure 15
1000
0000
0000
0100
0000
0000
0100
0000
0001
0000
0000
0100
0000
0000
0100
0000
,  // measure 16
1000
0000
0000
0010
0000
0000
0010
0000
0001
0000
0000
0100
0000
0000
1000
0000
,  // measure 17
1001
0000
1000
0000
0100
0100
0001
0000
,  // measure 18
0001
0100
0001
0000
0100
0100
1000
0000
,  // measure 19
0010
1001
0010
1001
,  // measure 20
0001
0100
1000
0100
0001
0000
0000
0000
,  // measure 21
0001
0000
0000
0010
0001
0000
0001
0000
1000
0000
0000
0010
1000
0000
1000
0000
,  // measure 22
0001
0000
0000
0010
0001
0000
0001
0000
1000
0000
0000
0010
1000
0000
1000
0000
,  // measure 23
0001
0000
0000
0001
0100
0000
1000
0000
0001
0000
0000
1000
0100
0000
0001
0000
,  // measure 24
1000
0000
0100
0000
0010
0000
0001
0010
0100
1000
0001
0000
1001
0000
0000
0000
,  // measure 25
0010
0000
0000
1001
0000
0000
0100
0000
1001
0000
0000
0000
0000
0000
0000
0000
,  // measure 26
1000
0000
0000
0000
1000
0000
0100
0010
0001
0000
0000
0100
0000
0000
0010
1000
,  // measure 27
0100
0000
0000
0100
0000
0000
0100
0000
0200
0000
0000
0000
0300
0000
0000
0000
,  // measure 28
1000
0000
0000
1000
0100
0000
0000
0000
0100
0000
0000
0001
0010
0000
0010
0000
,  // measure 29
0010
0000
0000
1001
0000
0000
0100
0000
1001
0000
0000
0000
0010
0000
0000
0000
,  // measure 30
0000
0000
0000
0000
0100
0000
0010
0000
1000
0000
0000
1001
0000
0000
1000
0000
,  // measure 31
0100
0000
0000
0011
0000
0000
1100
0000
0000
0000
0000
0000
0010
0000
0000
0000
,  // measure 32
0000
0000
0000
0001
0010
0000
1000
0000
0100
0000
0000
0001
0000
0000
1000
0000
,  // measure 33
1001
0000
0000
0000
0010
0000
0000
0001
0010
0000
0000
0000
0100
0000
0000
1000
,  // measure 34
0100
0000
0000
0001
0010
0000
1000
0000
0100
0000
0000
0000
0001
0000
0000
0000
,  // measure 35
0010
0000
0000
1000
0000
0000
0100
0000
0000
0000
0000
0000
0100
0000
0001
0000
,  // measure 36
1000
0000
0100
0000
0010
0000
0001
1000
,  // measure 37
0100
0000
1000
0000
0010
0000
0100
0000
0001
0000
0000
0010
0000
0000
0010
0000
,  // measure 38
0001
0000
0100
0000
0010
0000
1000
0000
0100
0000
0000
0100
0000
0000
0100
0000
,  // measure 39
1001
0000
0000
0010
,  // measure 40
1001
0000
0000
0100
,  // measure 41
0010
0000
0000
1000
0100
0000
1000
0000
1000
0000
0000
0001
0010
0000
0001
0000
,  // measure 42
0001
0000
0000
0100
0010
0000
1000
0000
1000
0000
0000
0100
0010
0000
0001
0000
,  // measure 43
0001
0000
0000
1000
0001
0000
0001
0000
0001
0000
0000
0001
1000
0000
1000
0000
,  // measure 44
1000
0100
0010
1001
,  // measure 45
0001
0000
0000
0010
0001
0000
0100
0000
0100
0000
0000
0010
1000
0000
0100
0000
,  // measure 46
0100
0000
0000
0010
0001
0000
1000
0000
1000
0000
0000
0010
1000
0000
0001
0000
,  // measure 47
1001
0000
0000
0010
0100
0000
0100
0000
1001
0000
0000
1000
0100
0000
0010
0000
,  // measure 48
0001
0000
0000
0001
0010
0000
0100
0000
1000
0000
0000
0100
0000
0000
0010
0000
,  // measure 49
0001
0000
0000
0001
0010
0000
0001
0000
1000
0000
0000
1000
0010
0000
1000
0000
,  // measure 50
0001
0000
0000
1000
0100
0000
1000
0000
0100
0000
0000
0010
0001
0000
0010
0000
,  // measure 51
0001
0001
0001
1000
0200
0000
0010
0010
,  // measure 52
0301
0000
0000
0000
0100
0000
0000
0010
1000
0000
0000
0001
0100
0000
0001
0000
,  // measure 53
0010
0000
0001
0000
0100
0000
0010
0000
1000
0000
0000
0100
0000
0000
0100
0000
,  // measure 54
1000
0000
0010
0000
0100
0000
0001
0000
0010
0000
0000
0010
0000
0000
0100
0000
,  // measure 55
1001
0000
0000
0010
,  // measure 56
1001
0000
0000
0000
,  // measure 57
0001
0000
1000
0100
0000
0010
0000
0001
0000
0000
0100
0000
0010
0000
0010
1000
0000
0000
1000
0000
0100
0000
0010
0001
0000
0000
0001
0000
0010
0000
0100
0000
,  // measure 58
1000
0000
0100
0010
0000
0001
0000
1000
0000
0000
0100
0000
0010
0000
0001
1000
0000
0000
1000
0000
0100
0000
1000
0010
0000
0000
1000
0000
0100
0000
0010
0000
,  // measure 59
0001
0000
0010
0100
0000
1000
0000
0001
0000
0000
0100
0000
0010
0000
1000
0100
0000
0000
1000
0000
0010
0000
0100
0001
0000
0000
1000
0000
0001
0000
1000
0000
,  // measure 60
0100
0000
0010
0001
0000
0010
0000
0010
0000
0000
0100
0000
1000
0000
0010
0100
0000
0000
0100
0000
0100
0000
0001
1000
0000
0000
0001
0000
1000
0000
0001
0000
,  // measure 61
1000
0000
0001
0100
0000
0010
0000
1000
0000
0000
0100
0000
0010
0000
0010
0001
0000
0000
0001
0000
0100
0000
0010
1000
0000
0000
1000
0000
0010
0000
0100
0000
,  // measure 62
0001
0000
0100
0010
0000
1000
0000
0001
0000
0000
0100
0000
0010
0000
1000
0001
0000
0000
0001
0000
0100
0000
0001
0010
0000
0000
0001
0000
0100
0000
0010
0000
,  // measure 63
1000
0000
0010
0100
0000
0001
0000
1000
0000
0000
0100
0000
0010
0000
0001
0000
0100
0000
0001
0010
0000
0100
0000
1000
0000
0000
0001
0000
1000
0000
0001
0000
,  // measure 64
0100
0000
0010
1000
0000
0010
0000
0010
0000
0000
0100
0000
0001
0000
0010
0100
0000
0000
0100
0000
0100
0000
1000
0001
0000
0000
1000
0000
0001
0000
1000
0000
,  // measure 65
0001
0010
0100
0010
1000
0100
0001
0010
,  // measure 66
0100
0000
1000
0000
0010
0000
0001
0000
1000
0000
0010
0000
0001
0000
0001
0100
,  // measure 67
1000
0000
0000
0000
0000
0000
0100
0010
,  // measure 68
0010
0000
0000
0000
0010
0000
0000
0000
0010
0000
0000
0000
0010
0000
1000
0100
,  // measure 69
0001
0000
0000
0010
,  // measure 70
0100
0000
0000
0000
1000
0000
0000
1000
0010
0000
0000
0000
0010
0000
0000
0001
,  // measure 71
0100
0100
0000
0100
,  // measure 72
0010
0000
0000
0000
0001
0000
0000
0000
0100
0000
0000
0100
1000
0000
0010
0000
,  // measure 73
0001
0100
0000
0010
,  // measure 74
0000
0000
0000
0000
0100
0000
0000
0000
0110
0000
0000
1000
0100
0000
0000
0001
,  // measure 75
0010
0010
0010
0010
,  // measure 76
0010
0000
0001
0000
1000
0000
1000
0100
0001
0000
0000
0010
0000
0000
0100
0000
,  // measure 77
1001
0000
1000
0000
0100
0000
0000
0010
0001
0000
0000
0001
0100
0000
0000
0000
,  // measure 78
0010
0000
1000
0000
1000
0000
0000
1000
0100
0000
0000
0010
0001
0000
0000
0000
,  // measure 79
0001
0000
0100
0000
1000
0000
0100
0000
0001
0000
0000
0000
1001
0000
0000
0010
,  // measure 80
1000
0000
0000
0010
0100
0000
0000
0010
0001
0000
0000
0010
0100
0000
0100
0000
,  // measure 81
1001
0000
0001
0000
0100
0000
0000
0010
1000
0000
0000
1000
0100
0000
0000
0000
,  // measure 82
0010
0000
0001
0000
0001
0000
0000
0001
0100
0000
0000
0010
1000
0000
0000
0000
,  // measure 83
1001
0000
0000
0000
0110
0000
0000
1000
0100
0000
0000
0000
0001
0000
0000
0001
,  // measure 84
0100
0000
0000
0000
1000
0000
0010
0000
1001
0000
0000
0001
0000
0000
0100
0000
,  // measure 85
0100
0000
0000
1000
0010
0000
0000
0000
0010
0000
0000
0001
0100
0000
0000
0000
,  // measure 86
0100
0000
0100
0000
1000
0000
0010
0000
0100
0000
0000
0000
0101
0000
0000
0001
,  // measure 87
0100
0000
0000
1000
0010
0000
0000
0001
0100
0000
0000
1000
0010
0000
0000
0000
,  // measure 88
1001
0000
0001
0000
1000
0000
0001
0010
,  // measure 89
0001
0000
1000
0000
0100
0000
0010
0000
0001
0000
0000
0100
0000
0000
1000
0000
,  // measure 90
0001
0000
0010
0000
0100
0000
1000
0000
0010
0000
0000
0001
0000
0000
0100
0000
,  // measure 91
1001
0000
0000
0010
,  // measure 92
1001
0000
0000
0000
,  // measure 93
1000
0000
0000
0001
0010
0000
0100
0000
0100
0000
0000
1000
0010
0000
0100
0000
,  // measure 94
0100
0000
0000
0001
0100
0000
1000
0000
1000
0000
0000
1000
0010
0000
0001
0000
,  // measure 95
0001
0000
0000
0001
0010
0000
0100
0000
1001
0000
0000
1000
0010
0000
0100
0000
,  // measure 96
1001
0000
0000
1000
0010
0000
0001
0000
0001
0000
0000
0001
0010
0000
1000
0000
,  // measure 97
1000
0000
0000
1000
0100
0000
0100
0000
0001
0000
0000
0001
0100
0000
0100
0000
,  // measure 98
1000
0000
0001
0000
0100
0000
0010
0000
1000
0100
0000
0000
0010
0001
0000
0000
,  // measure 99
0001
0000
0000
0100
1000
0000
0000
0000
1000
0000
0000
0010
0001
0000
0000
0000
,  // measure 100
0100
0000
0100
0000
1001
0000
0100
0010
,  // measure 101
0001
0000
0000
0100
0010
0000
1000
0000
1000
0000
0000
0100
0010
0000
0001
0000
,  // measure 102
0001
0000
0000
0001
0100
0000
1000
0000
0010
0000
0000
0001
0100
0000
1000
0000
,  // measure 103
0010
0000
0000
1000
0100
0000
0001
0000
0010
0000
0000
1000
0100
0000
0001
0000
,  // measure 104
0010
0000
0000
0010
0100
0000
0100
0000
1001
0000
0000
0010
0100
0000
0100
0000
,  // measure 105
1001
0000
0000
1000
0100
0000
0010
0000
0001
0000
0000
0001
0100
0000
0010
0000
,  // measure 106
1000
0000
0000
1000
0100
0000
0000
0010
0001
0000
0000
0000
0100
0000
0000
0000
,  // measure 107
1001
0000
1000
0000
,  // measure 108
0001
0000
0000
0010
0001
0000
0100
0000
1001
0000
0000
0010
1000
0000
0100
0000
,  // measure 109
1001
0000
0000
0000
0000
0000
0000
0000
0000
0000
0000
0000
0000
0000
0000
0000
0000
0000
0000
0000
0000
0000
0000
0000
0010
0000
0000
0000
0000
0000
1000
0001
,  // measure 110
0100
0000
0000
0000
0000
0000
0000
0000
0010
0000
0000
0000
0000
0010
1000
0100
,  // measure 111
0001
0000
0000
0000
0010
0000
0000
0000
0100
0000
0000
1000
0100
0001
0100
1000
,  // measure 112
1001
0000
0000
0000
0000
0000
0010
0000
0010
0000
0010
0000
0010
0001
0010
0100
,  // measure 113
1000
0000
0000
0000
0000
0000
0000
0000
0000
0000
0000
0000
0000
0000
0000
0000
0000
0000
0000
0000
0000
0000
0001
1000
0010
0000
0000
0000
0010
0000
0000
0000
,  // measure 114
1001
0000
0000
0000
0000
0000
0000
0000
0010
0000
0000
0000
0000
0010
0001
0100
,  // measure 115
1000
0000
0000
0000
0000
0000
0010
0010
0010
0000
0000
0000
0010
0000
0000
0000
,  // measure 116
0020
0000
0000
0030
,  // measure 117
0010
0010
0000
0000
0000
0000
0000
0000
,  // measure 118
0100
0100
0000
0000
0000
0000
0000
0000
,  // measure 119
0001
0001
0000
0000
0000
0000
0000
0000
,  // measure 120
1000
1000
0000
0000
0000
0000
0000
0000
,  // measure 121
1000
1000
0000
0000
0000
0000
0000
0000
,  // measure 122
0001
0001
0000
0000
0000
0000
0000
0000
,  // measure 123
1000
1000
0000
0000
0010
0010
0000
0000
,  // measure 124
0001
0001
0000
0000
0000
0000
0000
0000
,  // measure 125
2002
0000
0000
0000
,  // measure 126
0000
0000
0000
0000
,  // measure 127
3003
0000
0000
0000
;
