#TITLE:CHAOS;
#SUBTITLE:(HIP&SLOW MIX);
#ARTIST:Remixed by Bit Upper;
#TITLETRANSLIT:;
#SUBTITLETRANSLIT:;
#ARTISTTRANSLIT:;
#CREDIT:;
#BANNER:CHAOS(HIP&SLOW MIX).png;
#BACKGROUND:CHAOS(HIP&SLOW MIX)-bg.png;
#LYRICSPATH:;
#CDTITLE:cdtitle.png;
#MUSIC:CHAOS(HIP&SLOW MIX).mp3;
#OFFSET:-1.600;
#SAMPLESTART:14.580;
#SAMPLELENGTH:12.000;
#SELECTABLE:YES;
#DISPLAYBPM:*;
#BPMS:0.000=148.000,191.876=185.000,196.876=222.000,202.876=296.000;
#STOPS:12.000=0.709
,14.500=0.203
,15.500=0.405
,16.500=0.405
,17.750=0.203
,19.250=0.304
,20.500=0.203
,21.250=0.203
,21.750=0.203
,23.250=0.203
,23.500=0.101
,23.750=0.101
,24.000=0.101
,24.750=0.203
,27.250=0.203
,27.750=0.203
,30.250=0.203
,30.750=0.203
,33.250=0.203
,33.750=0.203
,36.500=0.203
,37.000=0.203
,37.500=0.203
,38.000=0.203
,38.500=0.203
,39.000=0.203
,39.500=0.203
,40.000=0.203
,40.500=0.203
,41.000=0.203
,41.500=0.203
,41.750=0.203
,42.250=0.101
,42.500=0.101
,42.750=0.101
,43.000=0.101
,43.250=0.101
,43.500=0.101
,43.750=0.101
,44.000=0.101
,46.250=0.304
,49.500=0.101
,49.750=0.101
,50.000=0.101
,50.250=0.101
,52.500=0.304
,53.250=0.507
,56.500=0.304
,57.750=0.304
,59.000=0.203
,64.000=0.405
,65.000=0.405
,66.000=0.101
,66.250=0.101
,66.500=0.101
,66.750=0.101
,67.000=0.101
,69.750=0.608
,73.250=0.203
,75.750=0.608
,79.250=0.203
,81.750=0.608
,83.250=0.101
,83.500=0.101
,83.750=0.101
,84.000=0.101
,87.250=0.608
,89.250=0.203
,97.750=0.507
,104.500=0.507
,106.750=0.507
,109.000=0.304
,109.750=0.304
,110.500=0.405
,113.500=0.304
,117.000=0.203
,118.500=0.203
,120.000=0.203
,121.500=0.203
,123.000=0.203
,124.750=0.811
,126.250=0.203
,127.750=0.203
,129.250=0.203
,131.750=0.101
,132.000=0.101
,132.250=0.101
,132.500=0.101
,132.750=0.101
,133.000=0.101
,133.500=0.203
,135.000=0.203
,136.250=0.152
,136.375=0.355
,136.500=0.355
,136.625=0.101
,140.375=0.355
,140.500=0.355
,140.625=0.355
,140.750=0.253
,145.125=1.723
,148.875=0.355
,149.000=0.355
,149.125=0.355
,149.250=0.355
,153.375=0.355
,153.500=0.355
,153.625=0.355
,153.750=0.355
,153.875=3.243
,157.875=0.200
,160.875=0.405
,164.375=0.203
,167.375=0.405
,170.875=0.203
,173.875=0.405
,176.875=0.405
,181.876=0.608
,183.876=0.405
,185.876=0.405
,186.376=0.203
,187.876=0.203
,189.876=0.203
;
#BGCHANGES:;

//---------------dance-single - Copied from HEAVY----------------
#NOTES:
     dance-single:
     Copied from HEAVY:
     Challenge:
     10:
     0.520,0.587,0.262,0.064,1.000: // measure 1
0000
0000
0000
0000
,  // measure 2
0000
0000
0000
0000
,  // measure 3
0000
0000
0000
0000
,  // measure 4
0000
0000
0000
0000
0000
1000
0000
0000
0000
0001
0000
0100
0000
0000
0000
1000
,  // measure 5
0000
0000
0000
0100
0000
0000
0000
0000
0000
0010
0000
0000
0000
0000
0100
0000
,  // measure 6
0000
0000
1000
0000
0100
0000
0010
0000
0001
0000
0000
0000
0100
0000
1001
0110
,  // measure 7
1001
0000
0000
0100
0000
0010
0000
0000
0000
0100
0000
1000
0000
0001
0000
0100
,  // measure 8
0000
0010
0000
0000
0000
1000
0000
0100
0000
0001
0000
0100
0000
1000
0000
0000
,  // measure 9
0000
0010
0000
0100
0000
0001
0000
0010
0000
0100
0000
0000
0000
1000
0000
0100
,  // measure 10
0000
0001
0000
0100
0000
1000
0000
0100
0000
0010
0000
0001
0000
0010
0000
0100
,  // measure 11
0000
1000
0000
0100
0000
0010
0000
0001
0000
1000
0000
0010
0000
0100
0000
0001
,  // measure 12
0000
1001
0000
0000
0000
1000
0000
0010
0000
0100
0010
0000
0000
0000
0100
0000
,  // measure 13
0001
0000
0010
0000
0100
0000
1000
1001
0001
1001
1000
0000
0100
0000
0010
0000
,  // measure 14
0000
0000
0010
0100
0000
1000
0001
0000
0000
0000
0001
0000
0101
0000
1000
0000
,  // measure 15
1100
0000
1000
0100
0000
0010
0000
0011
0100
0000
1100
0000
0000
0000
1001
0000
,  // measure 16
0000
0000
0100
0000
0010
0000
0100
0000
1001
0000
0000
0000
1000
0100
1000
0000
,  // measure 17
1001
0000
0001
0000
0010
0000
0100
0000
1100
1000
1001
0001
1001
0000
0000
0010
,  // measure 18
0100
0010
0000
1000
0000
0100
0000
0010
0000
0001
1000
0001
0000
0100
0000
0010
,  // measure 19
0000
0100
0000
0001
0000
1000
0000
0001
0010
0001
0000
0010
0000
0100
0000
1000
,  // measure 20
0000
0001
0010
0001
0000
0010
0000
0100
0000
0010
0000
0001
0000
1000
0000
0100
,  // measure 21
0010
0100
0000
1000
0000
0001
0000
0100
0000
0010
0100
0010
0000
1000
0100
0001
,  // measure 22
0100
1000
0000
0000
0000
0010
0100
0010
0000
0100
0000
1000
0000
0001
0000
0100
,  // measure 23
0010
1000
0000
0100
0000
1001
0000
1001
0000
0110
0000
0100
0000
0001
1000
0100
,  // measure 24
0000
0010
0100
0000
0000
0001
1000
0100
0000
0010
0100
0000
0000
0001
1000
0100
,  // measure 25
0000
0010
0100
0000
0000
0010
0000
0200
0301
1000
0100
0000
0010
0100
0000
0000
,  // measure 26
0001
1000
0100
0000
0010
0100
0000
0000
0001
1000
0100
0000
0010
0100
0000
0000
,  // measure 27
0100
0000
0200
0310
0000
1000
0000
0010
0000
0100
0000
0001
0100
0000
1000
0000
,  // measure 28
0100
0000
0010
0000
0200
1300
0000
0001
0200
0000
1000
0000
1300
0000
0100
0000
,  // measure 29
0020
0000
0001
0000
0031
0000
0100
0020
0000
0100
0000
0130
0000
0110
0000
1001
,  // measure 30
0000
0100
0000
0010
0000
0100
0000
1000
0000
0001
0000
0100
0000
0010
0000
0100
,  // measure 31
0000
0001
0000
0010
0000
0100
0000
1000
0000
0001
0000
0100
0000
0010
0000
0100
,  // measure 32
0000
0010
0000
1000
0000
0001
0000
0010
0000
0100
0000
1000
0000
0001
0000
0100
,  // measure 33
0000
1000
0000
0010
0000
0100
0000
0001
0000
0010
0000
0100
0000
0100
0000
0100
,  // measure 34
0100
0100
0100
0100
0100
0100
0000
1000
0000
0001
0000
0100
0000
0010
0000
0100
,  // measure 35
0000
0000
1000
1001
0001
0110
0000
0100
0000
0000
0000
0001
0000
0000
0000
0010
0000
0000
0000
0100
0000
0000
0000
1000
0000
0000
0000
0010
0000
0000
0000
0100
,  // measure 36
0000
0000
0000
0001
1001
1000
1001
0000
0000
0100
0000
0000
0000
0010
0000
0000
0000
0100
0000
0000
0000
1000
0000
0000
0000
0100
0000
0000
0000
0001
0000
0000
,  // measure 37
0000
0010
0000
0000
0000
0100
0000
0000
0000
1000
0000
0001
0000
0000
0000
0010
0000
0000
0000
1000
0000
0000
0000
0100
0000
0000
0000
0001
0000
0000
0000
0010
,  // measure 38
0000
0000
0000
1000
0000
0000
0000
0100
0101
0010
1010
1000
0000
0000
0000
0001
0000
0000
0000
0010
0000
0000
0000
0100
0000
0000
0000
1000
0000
0000
0000
0100
,  // measure 39
0000
0000
0000
0001
0000
0000
0000
0100
0000
0000
0000
1000
1010
0100
0011
2002
3003
0000
0000
0110
0000
0000
0000
0010
0000
0100
0000
0010
0000
0000
0000
1000
,  // measure 40
0000
0000
0000
0010
0000
0000
0000
0100
0000
0000
0000
0001
0000
0000
0000
0010
0000
0000
0000
1000
0000
0001
0000
1000
0000
0000
0000
0010
0000
0000
0000
0001
,  // measure 41
0000
0000
0000
0010
0000
0000
0000
1000
0000
0000
0000
0010
0000
0001
0000
0010
0000
0000
0000
0001
0000
0000
0000
0100
0000
0000
0000
1000
0000
0000
0000
0100
,  // measure 42
0000
0000
0000
0010
0000
0000
0000
0100
0000
1000
0000
0100
0000
0000
0000
0001
0000
0000
0000
0010
0000
0000
0000
0100
0000
0000
0000
1000
0000
0000
0000
0001
,  // measure 43
0000
0010
0000
0001
0000
0000
0000
1000
0000
0000
0000
0100
0000
0000
0000
0010
0000
0000
0000
1000
0000
0000
0000
0001
0000
0000
0000
0100
0000
0001
0000
0100
,  // measure 44
0000
0000
0000
1000
0000
0000
0000
0010
0000
0000
0000
0100
0000
0000
0000
0001
0000
0000
0000
1000
0000
0100
0000
1000
0000
0000
0000
0010
0000
0000
0000
0100
,  // measure 45
0000
0000
0000
0001
0000
0000
0000
0010
0000
0000
0000
1000
0000
0001
0000
1000
0000
0000
0000
0001
0000
0000
0000
0010
0000
0000
0000
1000
0000
0000
0000
0100
,  // measure 46
0000
0000
0000
0001
0000
0000
0000
1001
0000
0000
0000
0000
0000
0000
0000
1000
0000
0000
0000
0001
0000
0000
0000
0100
0000
0000
0000
0000
0000
0000
0000
0010
,  // measure 47
0000
0000
0000
0100
0000
0000
0000
0001
0000
0000
0000
0100
0000
0000
0000
1000
0000
0000
0000
0001
0000
0000
0000
0100
0000
0000
0000
0100
0000
0000
0000
0100
,  // measure 48
0000
0000
0000
0010
0000
0000
0000
0000
0000
0000
0000
0010
0000
0000
0000
0100
0000
0000
0000
0100
0000
0000
0000
0100
0000
0000
0000
0000
0000
0000
0000
1001
,  // measure 49
0000
1000
0100
1000
0000
0000
0010
0001
,  // measure 50
0010
0000
0000
0000
0000
0000
0000
0000
0000
0000
0000
0000
0000
1000
0000
0000
0000
0100
0000
0000
0000
1000
0000
0000
0000
0000
0000
0000
0000
0000
0000
0000
,  // measure 51
0000
0000
0000
0000
0000
0010
0000
0000
0000
0001
0000
0000
0000
0010
0000
0000
0000
0000
0000
0000
0000
0000
0000
0000
0000
0000
0000
0000
0000
0000
0000
1000
,  // measure 52
0000
0000
0000
0100
0000
0000
0000
1000
0000
0000
0000
0000
0000
0000
0000
0000
0000
0000
0000
0000
0000
0000
0000
0000
0000
0000
0000
0000
0000
0000
0000
0010
,  // measure 53
0000
0000
0000
0001
0000
0000
0000
0010
0000
0000
0000
0000
0000
0000
0000
0000
0000
0000
0000
0000
0000
0000
0000
0000
0000
0000
0000
1000
0000
0000
0000
0100
,  // measure 54
0000
0000
0000
1000
0000
0000
0000
0010
0000
0000
0000
0001
0000
0000
0000
0010
0000
0000
0000
1000
0000
0000
0000
0100
0000
0000
0000
1000
0000
0000
0000
0010
,  // measure 55
0000
0000
0000
0001
0000
0000
0000
0010
0000
0000
0000
1000
0000
0000
0000
0100
0000
0000
0000
0001
0000
0000
0000
1000
0000
0000
0000
0000
0000
0000
0000
0000
;
