#TITLE:歪んだ神;
#SUBTITLE:;
#ARTIST:次元大介;
#TITLETRANSLIT:SYMPHONIC;
#SUBTITLETRANSLIT:-BossBattle-;
#ARTISTTRANSLIT:Daisuke Jigen;
#CREDIT:;
#BANNER:Boss_Battle.png;
#BACKGROUND:Boss_Battle-bg.png;
#LYRICSPATH:;
#CDTITLE:;
#MUSIC:Boss_Battle.mp3;
#OFFSET:-1.437;
#SAMPLESTART:86.800;
#SAMPLELENGTH:11.980;
#SELECTABLE:YES;
#DISPLAYBPM:*;
#BPMS:0.000=175.000,192.000=87.500,208.000=175.000,272.000=87.500,280.000=175.000,360.000=200.000,361.000=250.000,362.000=300.000,363.000=350.000,364.000=450.000,365.000=600.000,366.000=800.000,367.000=1000.000,368.000=2000.000,369.000=2500.000,370.000=3000.000,371.000=4000.000,372.000=5000.000,373.000=10000.000,374.000=20000.000;
#STOPS:771.960=0.200
;
#BGCHANGES:;

//---------------dance-single - HEAVY----------------
#NOTES:
     dance-single:
     HEAVY:
     Hard:
     9:
     0.802,0.892,1.000,0.308,0.139:
1000
0010
0001
0010
0100
1000
0100
0001
,
0010
0100
1000
0010
0100
0001
1000
0100
,
0010
0001
0010
0100
1000
0010
0100
0001
,
0010
0100
1000
0001
0101
0000
0110
0000
,
1010
1000
0000
0000
1001
0000
0110
0000
,
0100
1000
0010
0001
0100
1000
0100
0010
,
0011
0001
0010
0100
0110
0010
0100
1000
,
1001
0110
1001
0110
,
1001
0001
0000
0000
1001
0000
0110
0000
,
0001
0010
1000
0010
0001
1000
0100
0010
,
0011
0010
0100
1000
1100
0100
1000
0001
,
1001
0110
1001
0110
,
0110
0010
0000
1000
1010
0010
0000
0010
,
0110
0100
0000
0100
0101
0001
0000
0001
,
0011
0010
0000
0010
0011
0001
0000
0001
,
1001
1000
0000
1000
1010
0010
0000
0010
,
1001
0000
0000
0101
,
1100
0000
0000
1100
,
0011
0000
0000
0000
,
1010
1000
0010
0100
0001
0010
0100
1000
,
0001
1100
0000
0000
0110
0001
0110
1000
,
0010
0100
0001
0100
1000
0100
0001
0100
,
1010
1000
0100
1000
1010
0100
0001
0010
,
0011
1010
0110
1001
,
1000
0101
0000
0000
0110
1000
0110
0001
,
0010
0100
1000
0100
0001
0100
1000
0100
,
0011
0001
0100
0001
0011
0100
1000
0010
,
1010
0011
0110
1001
,
0110
0110
0000
1010
0110
0110
0000
0011
,
0110
0110
0000
1010
1001
1001
0000
0011
,
1001
1001
0000
0110
1001
1001
0000
1001
,
0110
0110
0000
1001
0110
1001
0000
0110
,
0110
0000
0000
0110
,
1001
0000
0000
1001
,
0110
0000
0000
0110
,
1001
0100
0010
0001
0100
0010
0100
0001
,
1001
0000
0000
0000
0000
0000
0000
0000
1100
0000
0000
0000
0000
0000
0000
0010
,
0100
0100
0010
1000
,
0100
0000
0101
0000
0010
0100
0010
1000
,
0100
0001
1000
0010
0001
0100
0010
1000
,
0100
0000
1000
0000
1100
0000
0000
0000
0011
0000
0000
0000
0100
0000
0000
1000
,
0010
0000
0000
0010
0100
0000
0000
0100
0001
0000
0000
0001
1000
0000
0000
1000
,
0001
0000
0000
0000
1000
0010
0000
0000
0101
0000
0000
0000
0001
0010
0000
0000
,
1010
0000
0000
0000
1000
0100
0000
0000
1010
0000
0000
0000
0001
0100
0000
0000
,
1001
1000
0010
0100
0001
0010
0100
0010
,
0001
0100
1000
0100
0001
1000
0010
0001
,
0100
0010
1000
0100
0001
1000
0010
0001
,
0100
0010
1000
0100
0010
0001
0100
1000
,
1002
2003
3020
0230
,
0302
0023
2030
3000
0000
0000
0000
0000
,
2000
3002
0023
0230
,
2300
3020
0032
0003
0000
0000
0000
0000
,
2001
3010
0100
0001
0020
0130
1000
0001
,
2000
3001
0010
0100
2000
3010
0100
0001
,
0020
0130
2000
3001
2000
3010
1000
0100
,
1000
0010
0100
0001
0010
0001
0100
1000
,
0200
0301
0010
1000
0020
0031
0100
0010
,
2000
3001
1000
0001
2000
3100
0010
0100
,
2000
3001
0020
0130
0020
0031
1000
0100
,
0001
0100
1000
0010
0001
0010
1000
0001
,
1000
0010
0100
0001
0100
1000
0010
0001
,
0010
1000
0100
0001
0010
0100
0010
0001
,
0100
1000
0001
0010
1000
0001
0010
0100
,
0010
0100
1000
0100
0010
0100
0110
0000
,
1001
1000
0001
0100
1000
0001
1000
0010
,
0110
0000
0011
0000
1100
1000
0010
0100
,
0001
0010
1000
0100
0010
0001
0010
0100
,
0010
0100
1000
0100
0010
0001
1000
0001
,
1002
0003
0002
0203
0000
2300
3020
0032
,
0203
0300
0200
0302
0023
2030
3200
0302
,
2000
3003
0000
0000
0000
0000
0000
0000
0000
0000
0000
0000
0000
0000
0000
0000
0100
0000
0000
0000
0000
0000
0000
0000
0000
0000
0000
0000
0000
0000
0000
0000
0010
0000
0000
0000
0000
0000
0000
0000
0000
0000
0000
0000
0000
0000
0000
0000
0001
0000
0000
0000
0000
0000
0000
0000
0000
0000
0000
0000
0000
0000
0000
0000
,
0010
0100
1000
0010
,
0100
0001
0010
0100
,
1000
0000
0001
0000
1000
0010
0100
0001
,
1001
0110
0000
0000
1001
0010
1001
0100
,
1000
0010
0100
0001
0010
0001
0100
0010
,
1100
0010
0100
0010
0101
0010
0100
0010
,
1100
0101
0011
1010
,
1001
0000
0000
0110
0000
0000
0000
0000
0000
0000
0000
0000
0110
0000
0100
0000
0010
0000
0100
0000
0001
0000
0010
0000
,
0100
1000
0100
0010
0100
1000
0010
0100
0001
0100
0010
1000
,
0100
0010
0001
0100
0010
1000
0100
0010
0100
1000
0010
0100
,
0001
0010
0001
0100
0010
1000
0100
0010
0001
0100
0010
1000
,
1100
1001
0000
0000
0101
1001
0000
0000
,
0110
1001
0000
0000
1001
0110
0000
0000
,
0011
1001
1000
0000
1010
1001
0001
0000
,
0110
0010
1000
0100
0110
0010
0001
0100
,
0110
1001
1000
0100
0110
1001
0001
0100
,
1100
1100
1000
0001
0101
0101
0001
1000
,
1001
0011
0001
0001
1001
1010
1000
1000
,
1001
0010
1001
0100
1001
0010
1001
0100
,
1001
0000
0000
0000
;

//---------------dance-single - ONI----------------
#NOTES:
     dance-single:
     ONI:
     Challenge:
     12:
     1.000,1.000,0.712,0.470,1.000:
0010
1000
0010
0100
0001
0100
0010
1000
,
0100
0001
1000
0100
0001
0100
0010
1000
,
0100
0010
1000
0100
0001
0100
1000
0010
,
0100
0000
0100
0000
1000
0000
0100
0000
1000
0010
0100
0010
1000
0100
0010
0001
,
0011
0000
1001
0000
0000
0000
0000
0000
1000
0010
0100
0001
1000
0010
0100
0001
,
1000
0010
0100
0010
1000
0100
0010
0001
,
0101
0100
0010
0100
0101
0001
0100
0010
,
0100
0010
0100
0010
0100
0001
0100
0001
0100
0010
0100
0010
0100
1000
0100
1000
,
0100
0000
0101
0000
0000
0000
0000
0000
0001
0010
0100
1000
0001
0010
0100
1000
,
0001
0010
0100
0010
0001
1000
0010
0100
,
0110
0010
0100
0010
0110
0010
0100
0001
,
0010
0001
0100
0010
0100
0001
0010
0100
0010
0001
0100
0001
0100
0010
1000
0100
,
2100
0100
3000
0100
0201
0001
0000
0301
,
0101
0100
0000
0100
1200
1000
0000
1300
,
1010
0010
0000
0010
0210
0010
0000
0310
,
1010
1000
0000
1000
1002
1000
0000
0103
,
0101
0000
0000
0000
0000
0000
1010
0000
0000
0000
0101
0000
0000
0110
0000
0000
,
1001
0000
0000
0000
0000
0000
0110
0000
0000
0001
1000
0001
0010
0100
1000
0010
,
0001
0000
0000
0000
0000
0000
1010
0000
0000
0000
0011
0000
0000
0110
0000
0000
,
1001
0000
0000
0000
1000
0000
0000
0000
1000
0100
1000
0100
0010
0001
0010
0001
,
1001
0000
0011
0000
0000
0000
0000
0000
0010
0001
0010
0001
1000
0100
1000
0100
,
0010
0001
0100
1000
0100
0001
0010
0001
,
1100
0100
0010
0001
0011
0010
0100
1000
,
0010
0100
0010
0100
0001
0100
0001
0100
0010
1000
0010
1000
0001
1000
0001
1000
,
1010
0000
1001
0000
0000
0000
0000
0000
0010
1000
0010
1000
0001
0100
0001
0100
,
0010
1000
0100
0001
0100
1000
0010
0100
,
0101
0100
0010
1000
1001
0100
1000
0010
,
0100
0001
0100
0010
1000
0100
0010
0001
0010
0100
1000
0100
0010
0001
0100
0010
,
0210
0010
0300
0010
0210
0010
0000
0301
,
0101
0100
0000
0100
1200
1000
0000
1300
,
1100
0100
0000
0100
0120
0100
0000
0130
,
0101
0001
0000
0001
2001
0001
0000
3010
,
1010
0000
0000
0000
0000
0000
0110
0000
0000
0000
0011
0000
0000
0110
0000
0000
,
1001
0000
0000
0000
0000
0000
1010
0000
1000
0100
0010
0001
0010
0100
1000
0100
,
0001
0000
0000
0000
0000
0000
0011
0000
0000
0000
0110
0000
0000
1100
0000
0000
,
1001
0000
0000
0000
0100
0000
0000
0000
1000
0100
0010
0100
0010
0100
1000
0010
,
0001
0000
0000
0000
0000
0000
0000
0000
1010
0000
0000
0000
0000
0000
0000
0010
,
0100
0011
0110
1001
,
1010
0000
0010
0000
1000
0100
0010
0001
0010
0000
0011
0000
0110
0000
1100
0000
,
1000
0100
1000
0100
0010
0001
0010
0000
1000
0010
0100
0000
0001
0010
0100
0010
,
0001
0010
1000
0010
0001
0000
0000
0000
1001
0000
0000
0000
0110
0000
0000
0100
,
1000
0000
0000
1000
0010
0000
0000
0010
0001
0000
0000
0001
0100
0000
0000
1000
,
0001
0000
0000
0000
0000
0000
1000
0010
1000
0010
1000
0010
1000
0000
0000
0000
0000
0000
0001
0010
0001
0010
0001
0010
,
0001
0000
0000
0000
0000
0000
1000
0001
1000
0001
1000
0001
1000
0000
0000
0000
0000
0000
0001
1000
0001
1000
0001
1000
,
0001
1000
0100
1000
0001
0010
0100
0010
0001
0010
0100
1000
0100
0010
0100
1000
,
0100
0010
0100
1000
0010
0100
0010
1000
0010
0100
0010
1000
0010
0100
0010
1000
,
0010
0100
0001
0100
0010
1000
0100
0010
0001
0100
0010
1000
0100
0010
0001
0010
,
0100
1000
0100
0001
0100
0010
0100
1000
0100
0010
0001
0100
0010
1000
0100
0010
,
0002
0023
0230
2300
,
3020
0100
0032
1000
0203
0010
0301
0100
0010
1000
0100
0010
0100
1000
0010
0100
,
0002
0010
0103
1000
0200
0010
0301
0010
0200
0010
0301
0010
2000
0010
3001
0100
,
0020
1000
0230
1000
0302
1000
0013
0100
0010
0001
0010
0100
0010
0001
1000
0010
,
0200
1300
0010
0100
0002
0013
0100
1000
,
0200
0301
0100
1000
0020
0130
1000
0001
,
0200
0310
0200
1300
0200
0310
0001
0100
,
0001
0100
1000
0100
0001
0010
0001
0010
,
0002
0103
0010
0100
0002
1003
0100
0010
,
0200
1300
0001
0100
0200
1300
0100
0001
,
0200
0310
0200
1300
0200
0301
0100
0010
,
0001
0100
0010
1000
0100
0010
0001
1000
,
1010
1000
1001
0001
0101
0100
0110
0010
,
0110
0100
0101
0001
1001
1000
1010
0010
,
0110
0100
0110
0010
1010
0100
0011
0100
,
1010
0100
0011
0100
1001
0010
1001
0100
,
2002
0000
0000
0000
0000
0000
0000
3003
,
1000
0010
0100
0000
0001
0000
0010
0001
0100
0010
1000
0000
0010
1000
0001
0100
,
0010
0100
0010
0100
0001
0100
0010
1000
0100
0010
0001
0100
0010
0100
0001
0010
,
0100
1000
0100
0010
0001
0010
0001
1000
0100
1000
0100
0010
0001
0010
1000
0010
,
0002
0000
0000
0000
0023
0000
0230
0000
0300
0000
0200
0000
0320
0030
0002
2003
,
3200
0300
0000
0200
0320
0032
0203
2300
3020
0230
0302
2003
3020
0230
0320
0032
,
2003
3000
0100
0000
1000
0000
0010
0000
0100
0000
0001
0000
0010
0000
0001
0000
,
1000
0100
0001
1000
0100
0001
1000
0010
,
0001
1000
0010
0001
1000
0100
0001
0010
,
0100
0000
1000
0000
0010
0000
0001
0000
1000
0010
1000
0010
0100
0001
0100
0001
,
0101
0000
1010
0000
1000
0000
1000
0000
0001
0010
0100
1000
0100
0010
0001
1000
,
0001
1000
0100
1000
0010
0100
0010
1000
,
1001
0010
0100
0010
1001
0100
0010
0100
,
0010
1000
0010
0100
0001
0100
0010
1000
0010
0001
0010
1000
0100
0001
1000
0010
,
0100
0000
0000
1001
0000
0000
0000
0000
0000
0000
0100
0000
0010
0000
1000
0000
0100
0000
0010
0000
0001
0000
0010
0000
,
0100
1000
0010
0100
0001
0010
0100
1000
0100
0010
0100
1000
,
0010
0100
0001
0010
0100
0010
0001
0100
0010
1000
0100
0010
,
0011
0001
0010
0100
0010
0001
0101
0100
0010
0110
0010
1000
,
1001
0000
1001
0000
0000
0001
0100
0010
1000
0000
1010
0000
0000
1000
0100
0010
,
0001
0000
0011
0000
0000
0001
1000
0001
1000
0000
1001
0000
0000
1000
0001
1000
,
0001
0000
0010
0001
0010
0001
1000
0100
1000
0000
0010
0100
0010
0100
0001
0100
,
0001
0100
0010
1000
0010
1000
0100
1000
0100
0010
0100
0010
0001
0010
0001
0000
,
1001
0000
1001
0000
0000
0001
0100
0010
1000
0000
1010
0000
0000
1000
0010
0100
,
0001
0000
0011
0000
0000
0001
1000
0001
1000
0000
1001
0000
1000
0010
0100
0001
,
0000
0010
0100
0010
0001
0010
0001
0100
0010
0100
0010
1000
0001
1000
0001
1000
,
0100
0001
0100
1000
0010
0001
0010
1000
0100
0010
0100
1000
0010
0100
0010
0100
,
0220
0000
0000
0000
,
0000
0000
0000
0000
,
0000
0000
0000
0000
,
0000
0000
0000
0000
,
0000
0000
0000
0000
,
0000
0000
0000
0000
,
0000
0000
0000
0000
,
0000
0000
0000
0000
,
0000
0000
0000
0000
,
0000
0000
0000
0000
,
0000
0000
0000
0000
,
0000
0000
0000
0000
,
0000
0000
0000
0000
,
0000
0000
0000
0000
,
0000
0000
0000
0000
,
0000
0000
0000
0000
,
0000
0000
0000
0000
,
0000
0000
0000
0000
,
0000
0000
0000
0000
,
0000
0000
0000
0000
,
0000
0000
0000
0000
,
0000
0000
0000
0000
,
0000
0000
0000
0000
,
0000
0000
0000
0000
,
0000
0000
0000
0000
,
0000
0000
0000
0000
,
0000
0000
0000
0000
,
0000
0000
0000
0000
,
0000
0000
0000
0000
,
0000
0000
0000
0000
,
0000
0000
0000
0000
,
0000
0000
0000
0000
,
0000
0000
0000
0000
,
0000
0000
0000
0000
,
0000
0000
0000
0000
,
0000
0000
0000
0000
,
0000
0000
0000
0000
,
0000
0000
0000
0000
,
0000
0000
0000
0000
,
0000
0000
0000
0000
,
0000
0000
0000
0000
,
0000
0000
0000
0000
,
0000
0000
0000
0000
,
0000
0000
0000
0000
,
0000
0000
0000
0000
,
0000
0000
0000
0000
,
0000
0000
0000
0000
,
0000
0000
0000
0000
,
0000
0000
0000
0000
,
0000
0000
0000
0000
,
0000
0000
0000
0000
,
0000
0000
0000
0000
,
0000
0000
0000
0000
,
0000
0000
0000
0000
,
0000
0000
0000
0000
,
0000
0000
0000
0000
,
0000
0000
0000
0000
,
0000
0000
0000
0000
,
0000
0000
0000
0000
,
0000
0000
0000
0000
,
0000
0000
0000
0000
,
0000
0000
0000
0000
,
0000
0000
0000
0000
,
0000
0000
0000
0000
,
0000
0000
0000
0000
,
0000
0000
0000
0000
,
0000
0000
0000
0000
,
0000
0000
0000
0000
,
0000
0000
0000
0000
,
0000
0000
0000
0000
,
0000
0000
0000
0000
,
0000
0000
0000
0000
,
0000
0000
0000
0000
,
0000
0000
0000
0000
,
0000
0000
0000
0000
,
0000
0000
0000
0000
,
0000
0000
0000
0000
,
0000
0000
0000
0000
,
0000
0000
0000
0000
,
0000
0000
0000
0000
,
0000
0000
0000
0000
,
0000
0000
0000
0000
,
0000
0000
0000
0000
,
0000
0000
0000
0000
,
0000
0000
0000
0000
,
0000
0000
0000
0000
,
0000
0000
0000
0000
,
0000
0000
0000
0000
,
0000
0000
0000
0000
,
0000
0000
0000
0000
,
0000
0000
0000
0000
,
0000
0000
0000
0000
,
0000
0000
0000
0000
,
0000
0000
0000
0000
,
0000
0000
0000
0000
,
0000
0000
0000
0000
,
0000
0000
0000
0000
,
0000
0000
0000
0000
,
0000
0000
0000
0000
,
0000
0000
0000
0000
,
0000
0000
0000
0000
,
0000
0000
0000
0000
,
0000
0000
0000
0000
,
0330
0000
0000
0000
;

//---------------dance-single - TRICK----------------
#NOTES:
     dance-single:
     TRICK:
     Medium:
     7:
     0.479,0.562,0.580,0.051,0.000:
0000
0000
0000
0000
,
0000
0000
0000
0000
,
0000
0000
0000
0000
,
0000
0000
0000
0000
,
1010
1000
0000
0000
1000
0010
0100
0001
,
0100
0110
0100
1100
,
1001
0010
0110
0100
,
1001
0110
1001
0110
,
1001
0001
0000
0000
0001
0100
0010
1000
,
0100
0010
0110
0100
,
1001
0100
1100
1000
,
1001
0110
1001
0110
,
0010
0010
0000
1000
1000
1000
0000
0010
,
0010
0010
0000
0100
0100
0100
0000
0001
,
0001
0001
0000
0010
0010
0010
0000
0100
,
0100
0100
0000
1000
1000
1000
0000
0000
,
1001
0000
0000
0100
,
1001
0000
0000
0010
,
1001
0000
0000
0000
,
1000
0010
1000
0010
0100
0010
0100
0001
,
1001
0000
1001
0110
,
0010
1000
0100
0010
0001
0100
0010
1000
,
0100
0010
1000
0100
0010
0001
1000
0000
,
1010
0011
0110
1001
,
1001
0000
0011
0110
,
0010
0001
0100
0010
1000
0100
0010
0001
,
0100
0010
0001
0100
0010
0001
1000
0000
,
1010
0011
0110
1001
,
0100
0100
0000
0001
0001
0001
0000
0010
,
0010
0010
0000
1000
1000
1000
0000
0010
,
0010
0010
0000
0001
0001
0001
0000
0100
,
0100
0100
0000
0010
0010
0010
0000
0000
,
1001
0000
0000
1000
,
0110
0000
0000
0001
,
0110
0000
0000
0110
,
1001
0001
0010
0100
,
1001
0000
0010
0000
,
0101
0100
0101
1100
,
1000
0000
0110
0000
0010
0001
0010
1000
,
0010
0011
1100
1010
,
0101
1001
0010
0010
,
0100
0100
0100
0100
,
0100
0010
0101
0010
,
1100
0001
1010
1000
,
0010
1000
0100
0000
0100
0000
1001
0000
,
0001
0010
0100
0000
0100
0000
1001
0000
,
0100
1000
0001
0000
0100
0001
1000
0000
,
0100
1000
0100
0001
0010
0001
0100
1000
,
0010
0010
0010
0010
,
0200
0000
0300
0000
,
1000
1000
1000
1000
,
0002
0000
0003
0000
,
0001
0100
0010
1000
,
0100
0010
0001
0010
,
0100
0010
0001
0100
,
1000
0100
0001
0010
,
0100
1000
0010
0100
,
0001
1000
0100
0010
,
0001
0010
0100
1000
,
0001
1000
0001
1000
,
1001
1100
1100
0010
,
0011
0101
0101
0010
,
1010
0001
1000
0010
,
0100
0001
0010
0110
,
0001
1000
0001
0000
1000
0010
1000
0000
,
0100
0010
0001
0000
0010
0000
0010
0000
,
1000
0100
0001
0000
0010
0000
0010
0000
,
0011
1001
1010
1001
,
0020
0000
0000
0000
,
0000
0000
0000
0000
,
1030
0000
0000
0000
,
0001
0000
0000
0000
,
1000
0000
0001
0000
,
0010
0000
1000
0000
0100
0001
1000
0000
,
1001
1001
0000
0000
1000
0010
0100
0001
,
0010
0100
1000
0100
0010
0100
1000
0100
,
0001
0100
1000
0100
0010
0001
0100
0000
,
1100
1010
0011
0101
,
1001
0000
0020
0001
,
2030
0010
0100
3200
,
0001
1000
0310
0100
,
1000
0020
0001
0031
,
1001
0000
0000
0000
0100
0100
0000
0000
,
0010
0010
0000
0000
1000
1000
0000
0000
,
0001
0001
0000
0000
1000
1000
0000
0000
,
0010
0010
0000
0000
0100
0100
0000
0000
,
0001
0001
1000
0000
0010
0010
0100
0000
,
1000
1000
0010
0000
0001
0001
0100
0000
,
0010
0010
1000
0000
0010
0010
0001
0000
,
1001
1001
1001
1001
,
1001
0000
0000
0000
;

//---------------dance-single - BASIC----------------
#NOTES:
     dance-single:
     BASIC:
     Easy:
     4:
     0.296,0.429,0.294,0.161,0.000:
0000
0000
0000
0000
,
0000
0000
0000
0000
,
0000
0000
0000
0000
,
0000
0000
0000
0000
,
0010
0010
0000
0000
1000
0000
0100
0000
,
0010
0001
0100
1000
,
1001
0000
0110
0000
,
1001
0110
1001
0110
,
0010
0010
0000
0000
0001
0000
0010
0000
,
0100
0010
0001
0100
,
1001
0000
0110
0000
,
1001
0110
1001
0110
,
0020
0000
2030
0000
,
3020
0000
0230
0000
,
0302
0000
0023
0000
,
0230
0000
2300
0000
,
3001
0000
0000
0100
,
0100
0000
0000
0010
,
0010
0000
0000
0000
,
0010
0000
0100
0000
,
0100
0100
0000
0000
1000
0000
0010
0000
,
0100
0100
0001
0001
,
0010
0100
1000
0010
,
1001
1001
0110
1001
,
0100
0100
0000
0000
0001
0000
0010
0000
,
0100
0100
1000
1000
,
0010
0100
0001
0010
,
0110
0110
1001
1001
,
0200
0000
0302
0000
,
0023
0000
2030
0000
,
3020
0000
0032
0000
,
0203
0000
0320
0000
,
1030
0000
0000
1000
,
1000
0000
0000
0001
,
0001
0000
0000
0010
,
0010
0000
0010
0000
,
1001
0000
0010
0000
,
0010
1000
0010
0001
,
0200
0000
0310
0010
,
1001
1001
0010
1000
,
0100
0001
0010
0010
,
1000
0001
1000
0001
,
1000
0002
0003
2000
,
3000
0020
0030
0200
,
0301
0000
0000
0000
,
0010
0000
0100
0000
,
1000
0000
0001
0000
,
0100
0100
0110
1001
,
0110
0000
0000
0000
,
0000
0000
0000
0000
,
0000
0000
0000
0000
,
0000
0000
0000
0000
,
0001
0000
0010
0000
,
0100
0000
1000
0000
,
0100
0010
0001
0000
,
1000
0000
0001
0000
,
0100
0000
0010
0000
,
1000
0000
0100
0000
,
0001
0010
0100
0000
,
0010
0000
0100
0000
,
1000
1000
0010
0010
,
0100
0100
0001
0001
,
0010
0010
0100
0100
,
1000
1000
0001
1000
,
0020
0000
0000
0000
,
0130
0000
0010
0000
,
1000
0001
0010
0100
,
0010
0000
0100
0000
,
0010
0000
0000
0000
,
0000
0000
0000
0000
,
0010
0000
0000
0000
,
0000
0000
0000
0000
,
0100
0000
0000
0000
,
0010
0000
0100
0000
,
0001
0001
0000
0000
1000
0000
0010
0000
,
0100
0001
0010
1000
,
0001
1000
0010
0100
,
0110
0110
1001
0110
,
0010
0010
0000
0000
0100
0000
0000
0000
,
0010
0000
1000
0000
,
0001
0000
0010
0000
,
0010
0010
0100
0100
,
0001
0000
0001
0000
,
1000
0000
1000
0000
,
0001
0000
0010
0000
,
0010
0000
0100
0000
,
0110
0000
0110
0000
,
1001
0000
1001
0000
,
0110
0000
0110
0000
,
1001
0000
1001
1001
,
1001
0000
0000
0000
;

//---------------dance-double - ----------------
#NOTES:
     dance-double:
     :
     Hard:
     10:
     0.850,1.000,0.859,0.103,0.367:
10000000
01000000
00010000
00001000
00100000
01000000
00010000
00000010
,
00000100
00001000
00100000
01000000
00010000
00001000
00000100
00000010
,
00000001
00000100
00001000
00100000
01000000
10000000
00100000
00010000
,
00000100
00000000
00000001
00000000
00010000
00000000
00000100
00000000
00001000
00000000
00000100
00000001
00000010
00000000
00000100
00001000
,
00010000
00000000
01010000
00000000
00000000
00000000
00000000
00000000
01000000
10000000
01000000
00000000
00100000
00010000
00100000
00000000
,
00001000
00000010
00000001
00000100
00000010
00001000
00100000
01000000
,
10000000
01000000
00010000
00100000
00001000
00000100
00000001
00000010
,
00010000
00001000
00010000
00000000
00100000
01000000
00100000
00000000
00001000
01000000
00001000
00000000
00010000
00000010
00010000
00000000
,
00001000
00000000
00001100
00000000
00000000
00000000
00000000
00000000
10000000
00100000
10000000
00000000
00010000
00001000
00010000
00000000
,
00001000
00000010
00000001
00000100
00000010
00010000
00100000
10000000
,
00010000
01000000
10000000
00100000
00010000
00000010
00000100
00000001
,
00000010
00000100
00000010
00000000
00010000
00001000
00010000
00000000
01000000
10000000
01000000
00000000
00001000
00100000
00001000
00000000
,
11000000
11000000
00000000
00000000
00001100
00001100
00000000
00000000
,
00000011
00000011
00000000
00000000
00110000
00110000
00000000
00000000
,
10100000
10100000
00000000
00000000
00001010
00001010
00000000
00000000
,
00000101
00000101
00000000
00000000
01010000
01010000
00000000
01000000
,
10100000
00000000
00001000
00000010
00001000
00000010
00000100
00000000
,
00000011
00000000
00010000
00100000
00010000
00100000
01000000
00000000
,
11000000
00000000
00001000
00000100
00001000
00000100
00000010
00000000
,
00001100
00000001
00000010
00001000
01010000
10000000
00100000
00010000
,
10010000
00000000
10010000
00000000
00000000
00000000
00000000
00000000
00100000
01000000
00100000
00000000
00001000
00010000
00001000
00000000
,
00000100
00000010
00000001
00000100
00010000
01000000
10000000
00100000
,
00001000
00000100
00000010
00010000
00100000
01000000
00100000
00001000
,
00000100
00000010
00000100
00000000
00010000
00100000
00010000
00000000
10000000
01000000
10000000
00000000
00010000
00001000
00010000
00000000
,
00000100
00000000
00000101
00000000
00000000
00000000
00000000
00000000
00001000
00000100
00001000
00000000
01000000
00100000
01000000
00000000
,
10000000
00100000
00010000
10000000
01000000
00010000
00000100
00000010
,
00000001
00000100
00001000
00000001
00000010
00010000
01000000
00100000
,
10000000
00100000
10000000
00000000
00010000
01000000
00010000
00000000
00000100
00000010
00000100
00000000
00000001
00000100
00000001
00000000
,
00000011
00000011
00000000
00000000
00110000
00110000
00000000
00000000
,
11000000
11000000
00000000
00000000
00001100
00001100
00000000
00000000
,
00000101
00000101
00000000
00000000
01010000
01010000
00000000
00000000
,
10100000
10100000
00000000
00000000
00001010
00001010
00000000
00000100
,
00000011
00000000
00010000
01000000
00010000
01000000
00100000
00000000
,
11000000
00000000
00001000
00000010
00001000
00000010
00000100
00000000
,
00000011
00000000
00000001
00000100
00000001
00000100
00000010
00000000
,
00110000
10000000
01000000
00010000
00001010
00000001
00000100
00001000
,
02010000
00000000
00000000
00000000
00001000
00000000
03000000
00000000
00010200
00000000
00000000
00000000
00001000
00000000
00000300
00000010
,
00000110
00000110
01100000
01100000
,
10000000
01000000
10000000
01000000
00010000
00000100
00010000
00000100
,
00000010
00000001
00000010
00000001
00001000
00100000
00001000
00100000
,
10000000
01000000
00010000
01000000
10000000
00000000
00000000
00000000
00020000
00000000
00000000
00000000
00030200
00000000
00000000
00001300
,
00011000
00000000
00000000
00100000
01100000
00000000
00000000
10000000
10010000
00000000
00000000
00001000
00011000
00000000
00000000
00000010
,
00000110
00000000
00000000
00000000
00000001
00000100
00001000
00000100
00000001
00000000
00000000
00000000
00000100
00001000
00010000
00001000
,
00000100
00000000
00000000
00000000
00010000
00001000
00010000
01000000
00010000
00000000
00000000
00000000
01000000
00100000
10000000
00100000
,
01000000
00000000
00001000
00000000
00000100
00000000
00000001
00000000
00010000
00000000
01000000
00000000
00010000
00001000
00000010
00001000
,
00010000
00000000
00100000
00000000
10000000
00000000
00010000
00000000
00000100
00000000
00000001
00000000
00000010
00001000
00010000
00001000
,
00000010
00000001
00000100
00001000
01010000
00100000
10000000
01000000
,
00001010
01100000
10100000
00000110
,
00001002
00002003
00023000
00230000
,
10300000
02000000
00010000
00000000
00000000
00000000
00000000
00000000
,
23000000
30020000
00032000
00003020
,
00000031
00000020
00001000
00000000
00000000
00000000
00000000
00000000
,
00001030
00100000
10000000
00100000
01000000
00001000
00000100
00000001
,
00000100
00000010
00001000
00100000
10000000
00100000
00010000
00000100
,
00000001
00000100
00001000
00100000
00010000
00100000
10000000
01000000
,
10000000
01000000
00010000
00000100
00000010
00000001
00000010
00001000
,
00000100
00000001
00000100
00010000
00100000
10000000
00100000
01000000
,
00010000
01000000
10000000
00100000
00001000
00000010
00000001
00000100
,
00001000
00000100
00000001
00000010
00001000
00000010
00000001
00001000
,
00000010
00000001
00000010
00010000
00100000
10000000
00100000
01000000
,
01010000
01010000
00001000
00000100
00000101
00000101
00000010
00000001
,
00001100
00001100
00010000
01000000
10100000
10100000
00001000
00010000
,
01100000
01100000
10000000
01000000
00011000
00011000
00000010
00000001
,
00001100
00001100
00010000
00001000
00000101
00000101
00000010
00000100
,
00000001
00000010
00001000
00000000
00000010
00001000
00010000
00000000
00001000
00010000
01000000
00000000
00100000
00010000
00001000
00000000
,
00000001
00000000
00000100
00001000
00000010
00000000
00010000
00000000
01000000
10000000
00100000
00000000
00001000
00000100
00000001
00000010
,
00001000
00000000
00100000
10000000
00010000
00000000
00000010
00000001
00000100
00000000
00010000
00100000
01000000
00000000
00010000
00001000
,
00000100
00000001
00000010
00000000
00000100
00001000
00010000
00000000
01000000
00100000
10000000
00000000
00010000
00000100
00000010
00000000
,
00000100
00000001
00000100
00000001
00010000
00100000
00010000
00100000
10000000
00010000
10000000
00010000
00000100
00000001
00000100
00000001
,
00000010
00000100
00000010
00000100
00010000
01000000
00010000
01000000
10000000
00100000
10000000
00100000
00001000
00000001
00001000
00000001
,
00010000
01000000
00100000
00001000
00000001
00000010
00001000
01000000
,
00100000
10000000
01000000
00001000
00000010
00000100
00000001
00000010
,
00000100
00010000
00100000
01000000
10000000
00100000
00001000
00000010
,
00000001
00000000
00001000
00000000
00000100
00000000
00010000
00000000
01000000
10000000
00100000
00000000
00001000
00000010
00000001
00000000
,
00000101
00000000
00000101
00000000
00000000
00000000
00000000
00000000
00000100
00001000
00000100
00000000
00010000
00001000
00010000
00000000
,
00100000
00010000
00100000
10000000
00010000
00000100
00000001
00000100
,
00000010
00000001
00001000
00000010
00000100
00010000
01000000
10000000
,
00100000
01000000
00100000
00000000
00001000
00000100
00001000
00000000
00000001
00000010
00000001
00000000
00000100
00010000
00000100
00000000
,
01010000
00000000
00000000
01010000
00000000
00000000
00000000
00000000
00000000
00000000
00000000
00000000
10000000
00000000
00000000
00000000
01000000
00000000
00100000
00000000
00000000
00000000
00000100
00000000
,
00000001
00000000
00001000
00010000
00000000
10000000
00100000
00000000
00001000
00000100
00000000
00000010
,
00000001
00000000
00010000
10000000
00000000
01000000
00100000
00000000
00000001
00000010
00000000
00010000
,
01000000
00000000
00100000
10000000
00000000
00001000
00000100
00000000
00000010
00000001
00000000
00010000
,
10010000
10010000
00000000
00000000
10100000
10100000
00000000
00000000
,
00001010
00001010
00000000
00000000
00000101
00000101
00000000
00000000
,
01010000
01010000
00000000
00000000
11000000
11000000
00000000
00000000
,
00001100
00001100
00000000
00000000
00000011
00000011
00000000
00000000
,
00011000
00011000
00000000
00000000
01100000
01100000
00000000
00000000
,
10010000
10010000
00000000
00000000
00000110
00000110
00000000
00000000
,
00001001
00001001
00000000
00000000
00000110
00000110
00000000
00000000
,
10010000
10010000
00000000
00000000
11000000
11000000
00000000
00000000
,
00011000
00000000
00000000
00000000
;

//---------------dance-double - ----------------
#NOTES:
     dance-double:
     :
     Challenge:
     13:
     1.000,1.000,1.000,0.470,0.918: // measure 1
10000000
01000000
00010000
00001000
00100000
01000000
00010000
00000010
,  // measure 2
00000100
00001000
00100000
01000000
00010000
00001000
00000100
00000010
,  // measure 3
00000001
00000100
00001000
00100000
01000000
10000000
00100000
00010000
,  // measure 4
00000100
00000000
00000001
00000000
00010000
00000000
00000100
00000000
00001000
00000100
00000001
00000010
00000100
00010000
00001000
01000000
,  // measure 5
00100000
00000000
01100000
00000000
00000000
00000000
00000000
00000000
01000000
10000000
00010000
01000000
00100000
00010000
00001000
00000100
,  // measure 6
00000001
00000010
00000001
00000100
00000010
00001000
00100000
01000000
,  // measure 7
10010000
01000000
00010000
00110000
00001001
00000100
00000001
00001010
,  // measure 8
00010000
00000100
00000010
00001000
00100000
01000000
00010000
00100000
10000000
01000000
00010000
00001000
00000100
00000010
00010000
00000100
,  // measure 9
00001000
00000000
01001000
00000000
00000000
00000000
00000000
00000000
10000000
00100000
01000000
00001000
00010000
01000000
00100000
00001000
,  // measure 10
00000100
00000010
00000001
00000100
00000010
00010000
00100000
10000000
,  // measure 11
10010000
01000000
10000000
01100000
00011000
00000010
00000100
00001001
,  // measure 12
00000010
00000100
00010000
00001000
01000000
00010000
00001000
00100000
01000000
10000000
00100000
00001000
00010000
00100000
00001000
01000000
,  // measure 13
11000000
12000000
00010000
03010000
00001100
00001200
00000010
00000310
,  // measure 14
00000011
00000012
00001000
00001003
00110000
00210000
01000000
01300000
,  // measure 15
10100000
20100000
01000000
31000000
00001010
00002010
00000001
00003001
,  // measure 16
00000101
00000201
00001000
00001300
01010000
01020000
00100000
01030000
,  // measure 17
10200000
00000000
00000000
00000000
00301000
00000010
00000100
00000001
00001000
00000010
00000100
00000001
00001000
00000000
00000000
00000000
,  // measure 18
00000021
00000000
00000000
00000000
00010030
00100000
01000000
10000000
00010000
00100000
01000000
10000000
00010000
00000000
00000000
00000000
,  // measure 19
12000000
00000000
00000000
00000000
03001000
00000100
00000010
00000001
00001000
00000100
00000010
00000001
00001000
00000000
00000000
00000000
,  // measure 20
00001100
00000001
00000010
00001000
01010000
10000000
00100000
00010000
,  // measure 21
10010000
00000000
10010000
00000000
00000000
00000000
00000000
00000000
00100000
00001000
00010000
00000100
00001000
00000010
00000001
00000100
,  // measure 22
00010000
00000010
00000001
00000100
00010000
01000000
10000000
00100000
,  // measure 23
00001001
00000100
00000010
00010100
10100000
01000000
00100000
01001000
,  // measure 24
00000100
00000001
00001000
00000100
00010000
00100000
00001000
00010000
00100000
01000000
10000000
00100000
00010000
00001000
00000010
00000100
,  // measure 25
00000001
00000000
00000101
00000000
00000000
00000000
00000000
00000000
00001000
00000100
00000010
00010000
01000000
00100000
00010000
01000000
,  // measure 26
10000000
00100000
00010000
10000000
01000000
00010000
00000100
00000010
,  // measure 27
00001001
00000100
00001000
00000101
00001010
00010000
01000000
10100000
,  // measure 28
00010000
00100000
10000000
00010000
01000000
00100000
00010000
00001000
00000010
00000001
00001000
00000100
00000001
00000010
00001000
00000100
,  // measure 29
00000011
00000021
00000100
00000130
00110000
00120000
10000000
10030000
,  // measure 30
11000000
12000000
00010000
03010000
00001100
00002100
00000010
00003010
,  // measure 31
00000101
00000201
00001000
00001300
01010000
01020000
00100000
00130000
,  // measure 32
10100000
20100000
00010000
30010000
00001010
00002010
00000010
00003100
,  // measure 33
00000021
00000000
00000000
00000000
00010030
10000000
01000000
00100000
10000000
00010000
01000000
00100000
00010000
00000000
00000000
00000000
,  // measure 34
12000000
00000000
00000000
00000000
03001000
00000001
00000010
00000100
00000001
00001000
00000100
00000010
00000001
00000000
00000000
00000000
,  // measure 35
00000021
00000000
00000000
00000000
00000130
00001000
00000001
00000010
00001000
00000001
00000100
00001000
00000010
00000000
00000000
00000000
,  // measure 36
00110000
10000000
01000000
00010000
00001010
00000001
00000100
00001000
,  // measure 37
02010000
00000000
00000000
00000000
00001000
00000000
03000000
00000000
00010200
00000000
00000000
00000000
00001000
00000000
00000300
00000010
,  // measure 38
00000220
00000000
00000000
00000330
00000220
00000000
00000000
00000330
02200000
00000000
00000000
03300000
02200000
00000000
00000000
03300000
,  // measure 39
10000000
00000000
01000000
00000000
10000000
01000000
00100000
00010000
00010000
00000000
00000100
00000000
00010000
00000000
00000100
00000000
,  // measure 40
00000010
00000001
00000010
00000001
00001000
00000010
00001000
00000000
00001000
00100000
00001000
00000000
00001000
00100000
00001000
01000000
,  // measure 41
10000000
01000000
00010000
01000000
10000000
00000000
00000000
00000000
00020000
00000000
00000000
00000000
00030200
00000000
00000000
00001300
,  // measure 42
00011000
00000000
00000000
01100000
01100000
00000000
00000000
10010000
10010000
00000000
00000000
00011000
00011000
00000000
00000000
00000110
,  // measure 43
00000110
00000000
00000000
00000000
00000001
00000100
00001000
00000100
00001001
00000000
00000000
00000000
00000100
00001000
00010000
00001000
,  // measure 44
00010100
00000000
00000000
00000000
00010000
00001000
00010000
01000000
00110000
00000000
00000000
00000000
01000000
00100000
10000000
00100000
,  // measure 45
01020000
00000000
00001000
00000000
00030100
00000000
00000001
00000000
00010000
00000000
01000000
00000000
00010000
00001000
00000010
00001000
,  // measure 46
01020000
00000000
00100000
00000000
10030000
00000000
00010000
00000000
00000200
00000000
00000001
00000000
00000310
00001000
00010000
00001000
,  // measure 47
00000120
00000000
00000001
00000000
00000130
00000000
00001000
00000000
01010000
00000000
00100000
00000000
10000000
00100000
01000000
00010000
,  // measure 48
00001010
01100000
10100000
00000110
,  // measure 49
00001002
00002003
00023000
00230000
,  // measure 50
10300000
01000000
00100000
10000000
00010000
00000010
00000100
00001000
00000001
00000100
00000010
00000001
00001000
00100000
01000000
00010000
,  // measure 51
10000000
00100000
00010000
10000000
00010000
00000010
00000001
00001000
00000001
00000010
00001000
00010000
10000000
00100000
00010000
10000000
,  // measure 52
00100000
00001000
00010000
00001000
00000100
00000001
00000010
00001000
00000001
00000010
00010000
00000010
00001000
00100000
10000000
00100000
,  // measure 53
00001000
00100000
10000000
00100000
01000000
00001000
00000100
00000001
,  // measure 54
00000100
00000010
00001000
00100000
10000000
00100000
00010000
00000100
,  // measure 55
00000001
00000100
00001000
00100000
00010000
00100000
10000000
01000000
,  // measure 56
10000000
01000000
00010000
00000100
00000010
00000001
00000010
00001000
,  // measure 57
00000100
00000001
00000100
00010000
00100000
10000000
00100000
01000000
,  // measure 58
00010000
01000000
10000000
00100000
00001000
00000010
00000001
00000100
,  // measure 59
00001000
00000100
00000001
00000010
00001000
00000010
00000002
00001000
,  // measure 60
00000023
00000001
00000230
00010000
00200300
10000000
00310000
01000000
,  // measure 61
01010000
01020000
00001000
00030100
00000101
00000201
00000010
00000301
,  // measure 62
00001100
00002100
00010000
01003000
10100000
10200000
00001000
00310000
,  // measure 63
01100000
01200000
10000000
01300000
00011000
00012000
00000010
00003001
,  // measure 64
00001100
00001200
00010000
00001300
00000101
00000102
00000010
00000103
,  // measure 65
00001000
00000100
00000010
00000001
00001000
00000100
00010000
00000010
00010000
00001000
00100000
10000000
01000000
00010000
00001000
00000010
,  // measure 66
00000001
00000000
00000100
00001000
00000010
00000000
00010000
00000000
01000000
10000000
00100000
00000000
00001000
00000100
00000001
00000010
,  // measure 67
00001000
01000000
00100000
10000000
00010000
00001000
00000010
00000001
00000100
00001000
00010000
00100000
01000000
00010000
00001000
00000010
,  // measure 68
00000100
00000001
00000010
00010000
00000100
00001000
00010000
00100000
01000000
00100000
10000000
00010000
00001000
00000100
00000010
00001000
,  // measure 69
00000200
00000001
00001000
00000001
00020300
00100000
01000000
00100000
20030000
00010000
01000000
00010000
30000200
00000001
00001000
00000001
,  // measure 70
00000320
00000100
00000001
00000100
00020030
01000000
00100000
01000000
20030000
00100000
00010000
00100000
30002000
00000001
00000010
00000001
,  // measure 71
00013000
01000000
00100000
00001000
00000001
00000010
00001000
01000000
,  // measure 72
00100000
10000000
01000000
00001000
00000010
00000100
00000001
00000010
,  // measure 73
00000100
00010000
00100000
01000000
10000000
00100000
00001000
00000010
,  // measure 74
00000001
00000000
00001000
00000000
00000100
00000000
00010000
00000000
01000000
10000000
00010000
00100000
01000000
00001000
00000010
00001000
,  // measure 75
00000001
00000000
00000101
00000000
00000000
00000000
00000000
00000000
00000100
00000001
00001000
00000100
00010000
00001000
01000000
00010000
,  // measure 76
00100000
00010000
00100000
10000000
00010000
00000100
00000001
00000100
,  // measure 77
00001010
00000001
00001000
00000011
00001100
00010000
01000000
10010000
,  // measure 78
00100000
10000000
00100000
00010000
00001000
00000100
00010000
00000010
00000100
00000001
00001000
00000100
00000010
00010000
00000100
00001000
,  // measure 79
00010000
00000000
00000000
01010000
00000000
00000000
00000000
00000000
00000000
00000000
00000000
00000000
10000000
00000000
01000000
00000000
00100000
00000000
00001000
00000000
00000010
00000000
00010000
00000000
,  // measure 80
00000100
00001000
00000001
00000010
00000100
00010000
00001000
00100000
01000000
10000000
00010000
00100000
,  // measure 81
01000000
00010000
00000010
00000100
00000001
00001000
00000100
00000010
00000001
00000100
00000010
00010000
,  // measure 82
00000100
00100000
00001000
10000000
01000000
00100000
00010000
01000000
00000010
00010000
00001000
01000000
,  // measure 83
10010000
00000000
10010000
00000000
01000000
00010000
10000000
01000000
10100000
00000000
10100000
00000000
00010000
00000100
00000001
00000100
,  // measure 84
00001010
00000000
00001010
00000000
00000010
00000001
00001000
00000010
00000101
00000000
00000101
00000000
00010000
00001000
00100000
10000000
,  // measure 85
01010000
00000000
01010000
00000000
00100000
01000000
10000000
00100000
11000000
00000000
11000000
00000000
00010000
00100000
00001000
00000010
,  // measure 86
00001100
00000000
00001100
00000000
00000100
00000001
00001000
00000100
00000011
00000000
00000011
00000000
00010000
00000100
00001000
00100000
,  // measure 87
00011000
00000000
00011000
00000000
01000000
10000000
00100000
00010000
01100000
00000000
01100000
00000000
00100000
10000000
00010000
01000000
,  // measure 88
10010000
00000000
10010000
00000000
01000000
00001000
00000010
00001000
00000110
00000000
00000110
00000000
00001000
00000001
00000010
00000100
,  // measure 89
00001001
00000000
00001001
00000000
00000001
00000010
00010000
00001000
00000110
00000000
00000110
00000000
00001000
00010000
01000000
00100000
,  // measure 90
10010000
00000000
10010000
00000000
01000000
10000000
00100000
00010000
11000000
00000000
11000000
00000000
00010000
00100000
00001000
00010000
,  // measure 91
00002200
00000000
00000000
00000000
,  // measure 92
00000000
00000000
00000000
00000000
,  // measure 93
00000000
00000000
00000000
00000000
,  // measure 94
00000000
00000000
00000000
00000000
,  // measure 95
00000000
00000000
00000000
00000000
,  // measure 96
00000000
00000000
00000000
00000000
,  // measure 97
00000000
00000000
00000000
00000000
,  // measure 98
00000000
00000000
00000000
00000000
,  // measure 99
00000000
00000000
00000000
00000000
,  // measure 100
00000000
00000000
00000000
00000000
,  // measure 101
00000000
00000000
00000000
00000000
,  // measure 102
00000000
00000000
00000000
00000000
,  // measure 103
00000000
00000000
00000000
00000000
,  // measure 104
00000000
00000000
00000000
00000000
,  // measure 105
00000000
00000000
00000000
00000000
,  // measure 106
00000000
00000000
00000000
00000000
,  // measure 107
00000000
00000000
00000000
00000000
,  // measure 108
00000000
00000000
00000000
00000000
,  // measure 109
00000000
00000000
00000000
00000000
,  // measure 110
00000000
00000000
00000000
00000000
,  // measure 111
00000000
00000000
00000000
00000000
,  // measure 112
00000000
00000000
00000000
00000000
,  // measure 113
00000000
00000000
00000000
00000000
,  // measure 114
00000000
00000000
00000000
00000000
,  // measure 115
00000000
00000000
00000000
00000000
,  // measure 116
00000000
00000000
00000000
00000000
,  // measure 117
00000000
00000000
00000000
00000000
,  // measure 118
00000000
00000000
00000000
00000000
,  // measure 119
00000000
00000000
00000000
00000000
,  // measure 120
00000000
00000000
00000000
00000000
,  // measure 121
00000000
00000000
00000000
00000000
,  // measure 122
00000000
00000000
00000000
00000000
,  // measure 123
00000000
00000000
00000000
00000000
,  // measure 124
00000000
00000000
00000000
00000000
,  // measure 125
00000000
00000000
00000000
00000000
,  // measure 126
00000000
00000000
00000000
00000000
,  // measure 127
00000000
00000000
00000000
00000000
,  // measure 128
00000000
00000000
00000000
00000000
,  // measure 129
00000000
00000000
00000000
00000000
,  // measure 130
00000000
00000000
00000000
00000000
,  // measure 131
00000000
00000000
00000000
00000000
,  // measure 132
00000000
00000000
00000000
00000000
,  // measure 133
00000000
00000000
00000000
00000000
,  // measure 134
00000000
00000000
00000000
00000000
,  // measure 135
00000000
00000000
00000000
00000000
,  // measure 136
00000000
00000000
00000000
00000000
,  // measure 137
00000000
00000000
00000000
00000000
,  // measure 138
00000000
00000000
00000000
00000000
,  // measure 139
00000000
00000000
00000000
00000000
,  // measure 140
00000000
00000000
00000000
00000000
,  // measure 141
00000000
00000000
00000000
00000000
,  // measure 142
00000000
00000000
00000000
00000000
,  // measure 143
00000000
00000000
00000000
00000000
,  // measure 144
00000000
00000000
00000000
00000000
,  // measure 145
00000000
00000000
00000000
00000000
,  // measure 146
00000000
00000000
00000000
00000000
,  // measure 147
00000000
00000000
00000000
00000000
,  // measure 148
00000000
00000000
00000000
00000000
,  // measure 149
00000000
00000000
00000000
00000000
,  // measure 150
00000000
00000000
00000000
00000000
,  // measure 151
00000000
00000000
00000000
00000000
,  // measure 152
00000000
00000000
00000000
00000000
,  // measure 153
00000000
00000000
00000000
00000000
,  // measure 154
00000000
00000000
00000000
00000000
,  // measure 155
00000000
00000000
00000000
00000000
,  // measure 156
00000000
00000000
00000000
00000000
,  // measure 157
00000000
00000000
00000000
00000000
,  // measure 158
00000000
00000000
00000000
00000000
,  // measure 159
00000000
00000000
00000000
00000000
,  // measure 160
00000000
00000000
00000000
00000000
,  // measure 161
00000000
00000000
00000000
00000000
,  // measure 162
00000000
00000000
00000000
00000000
,  // measure 163
00000000
00000000
00000000
00000000
,  // measure 164
00000000
00000000
00000000
00000000
,  // measure 165
00000000
00000000
00000000
00000000
,  // measure 166
00000000
00000000
00000000
00000000
,  // measure 167
00000000
00000000
00000000
00000000
,  // measure 168
00000000
00000000
00000000
00000000
,  // measure 169
00000000
00000000
00000000
00000000
,  // measure 170
00000000
00000000
00000000
00000000
,  // measure 171
00000000
00000000
00000000
00000000
,  // measure 172
00000000
00000000
00000000
00000000
,  // measure 173
00000000
00000000
00000000
00000000
,  // measure 174
00000000
00000000
00000000
00000000
,  // measure 175
00000000
00000000
00000000
00000000
,  // measure 176
00000000
00000000
00000000
00000000
,  // measure 177
00000000
00000000
00000000
00000000
,  // measure 178
00000000
00000000
00000000
00000000
,  // measure 179
00000000
00000000
00000000
00000000
,  // measure 180
00000000
00000000
00000000
00000000
,  // measure 181
00000000
00000000
00000000
00000000
,  // measure 182
00000000
00000000
00000000
00000000
,  // measure 183
00000000
00000000
00000000
00000000
,  // measure 184
00000000
00000000
00000000
00000000
,  // measure 185
00000000
00000000
00000000
00000000
,  // measure 186
00000000
00000000
00000000
00000000
,  // measure 187
00000000
00000000
00000000
00000000
,  // measure 188
00000000
00000000
00000000
00000000
,  // measure 189
00000000
00000000
00000000
00000000
,  // measure 190
00000000
00000000
00000000
00000000
,  // measure 191
00000000
00000000
00000000
00000000
,  // measure 192
00000000
00000000
00000000
00000000
,  // measure 193
00000000
00000000
00000000
00000000
,  // measure 194
00000000
00003300
00000000
00000000
00000000
00000000
00000000
00000000
00000000
00000000
00000000
00000000
00000000
00000000
00000000
00000000
00000000
00000000
00000000
00000000
00000000
00000000
00000000
00000000
00000000
00000000
00000000
00000000
00000000
00000000
00000000
00000000
00000000
00000000
00000000
00000000
00000000
00000000
00000000
00000000
00000000
00000000
00000000
00000000
00000000
00000000
00000000
00000000
00000000
00000000
00000000
00000000
00000000
00000000
00000000
00000000
00000000
00000000
00000000
00000000
00000000
00000000
00000000
00000000
;
