#TITLE:Bird Sprite;
#SUBTITLE:-D.K.R. mix-;
#ARTIST:ツナマヨちゃん in hcm;
#TITLETRANSLIT:;
#SUBTITLETRANSLIT:;
#ARTISTTRANSLIT:;
#CREDIT:;
#BANNER:Bird Sprite -D.K.R. mix-.png;
#BACKGROUND:Bird Sprite -D.K.R. mix--bg.png;
#LYRICSPATH:;
#CDTITLE:cdtitle.png;
#MUSIC:Bird Sprite -D.K.R. mix-.mp3;
#OFFSET:-1.640;
#SAMPLESTART:36.400;
#SAMPLELENGTH:12.000;
#SELECTABLE:YES;
#DISPLAYBPM:*;
#BPMS:0.000=146.000,36.000=-146.000,44.000=146.000,56.000=-146.000,64.000=146.000,76.000=-146.000,84.000=146.000,96.000=-146.000,104.000=146.000,116.000=-146.000,124.000=146.000,136.000=-146.000,144.000=146.000,156.000=-146.001,164.000=146.000,176.000=-146.001,184.000=146.000,196.000=-146.000,204.000=146.000,216.000=-146.000,224.000=146.000,236.000=-146.000,244.000=146.000,256.000=-146.000,264.000=146.000,276.000=-146.000,284.000=146.000,296.000=-146.000,304.000=146.000,316.000=-146.000,324.000=146.000,336.000=-146.000,344.000=146.000,353.000=-146.000,361.000=146.000,370.000=-146.000,378.000=146.000,387.000=-146.000,395.000=146.000,404.000=-146.000,412.000=146.000,421.000=-146.000,429.000=146.000,438.000=-146.000,446.000=146.000,455.000=-146.000,463.000=146.000,472.000=-146.000,480.000=146.000,489.500=-146.000,497.500=146.000,506.000=-146.000,514.000=146.000,522.750=-146.000,530.750=146.000,540.000=-146.000,548.000=146.000,558.000=-146.000,566.000=146.000,575.000=-146.000,583.000=146.000,592.000=-146.000,600.000=146.000,609.500=-146.001,617.500=146.000,626.000=-146.000,634.000=146.000,642.750=-146.000,650.750=146.000,659.500=-146.000,667.500=146.000,676.000=-146.000,684.000=146.000,694.000=-146.000,702.000=146.000,711.000=-146.001,719.000=146.000,728.000=-146.001,736.000=146.000,745.000=-146.000,753.000=146.000,762.000=-146.000,770.000=146.000,779.000=-146.000,787.000=146.000,796.000=-146.000,804.000=146.000,813.000=-146.000,821.000=146.000,830.000=-146.000,838.000=146.000,847.000=-146.000,855.000=146.000,864.000=-146.000,872.000=146.000,881.000=-146.000,889.000=146.000,898.000=-146.000,906.000=146.000,915.000=-146.000,923.000=146.000,932.000=120000.000,1476.000=36.500,1484.000=-146.000,1492.000=146.000,1500.000=150.000,1500.250=170.000,1500.500=180.000,1501.000=200.000,1501.500=220.000,1502.000=240.001,1502.500=260.001,1503.000=280.000,1503.500=290.000,1504.000=300.000,1504.500=280.000,1505.000=270.000,1505.250=260.000,1505.750=250.000,1506.000=240.000,1506.125=230.000,1506.250=210.000,1506.375=200.000,1506.500=180.000,1506.625=170.000,1506.750=160.000,1506.875=150.000,1507.000=140.000,1507.125=130.000,1507.250=120.000,1507.375=105.000,1507.500=100.000,1507.625=89.000,1507.750=79.000,1507.875=78.000,1508.500=36.500,1510.750=-36.500,1518.750=36.500,1526.750=18.250,1527.750=-18.250,1535.750=18.250,1543.750=9.125,1544.000=-146.000,1552.000=146.000,1562.000=-146.000,1570.000=146.000,1579.000=-146.000,1587.000=146.000,1596.000=-146.000,1604.000=146.000,1613.000=-146.000,1621.000=146.000,1630.000=-146.000,1638.000=146.000,1647.000=-146.000,1655.000=146.000,1664.000=-146.000,1672.000=146.000,1682.000=-146.000,1690.000=146.000,1699.000=-146.000,1707.000=146.000,1716.000=-146.000,1724.000=146.000,1733.000=-146.000,1741.000=146.000,1750.000=-146.000,1758.000=146.000,1767.000=-146.000,1775.000=146.000,1784.000=-146.000,1792.000=146.000,1801.000=-146.000,1809.000=146.000,1818.000=-146.000,1826.000=146.000,1835.000=-146.001,1843.000=146.000,1852.000=-146.001,1860.000=146.000,1869.000=-146.001,1877.000=146.000,1886.000=-146.001,1894.000=146.000,1903.000=-146.001,1911.000=146.000,1920.000=-146.001,1928.000=146.000,1937.000=-146.001,1945.000=146.000,1954.000=-146.001,1962.000=146.000,1971.000=-146.001,1979.000=146.000,1988.000=-146.001,1996.000=146.000,2005.000=-146.001,2013.000=146.000,2022.000=-146.001,2030.000=146.000,2039.000=-146.001,2047.000=146.000,2056.000=-146.001,2064.000=146.000,2073.000=-146.001,2081.000=146.000,2090.000=-146.001,2098.000=146.000,2107.000=-146.001,2115.000=146.000,2124.000=-146.001,2132.000=146.000,2144.000=-146.001,2152.000=146.000,2164.000=-146.001,2172.000=146.000,2184.000=-146.001,2192.000=146.000,2204.000=-146.001,2212.000=146.000,2224.000=-146.001,2232.000=146.000,2244.000=-146.001,2252.000=146.000,2264.000=-146.001,2272.000=146.000,2284.000=-146.001,2292.000=146.000,2301.000=-146.001,2309.000=146.000,2318.000=-146.001,2326.000=146.000,2335.000=-146.001,2343.000=146.000,2352.000=-146.001,2360.000=146.000,2369.000=-146.000,2377.000=146.000,2386.000=-146.000,2394.000=146.000,2403.000=-146.000,2411.000=146.000,2420.000=-146.000,2428.000=146.000,2437.000=-146.000,2445.000=146.000,2454.000=-146.000,2462.000=146.000,2471.000=-146.000,2479.000=146.000,2488.000=-146.001,2496.000=146.000,2505.000=-146.001,2513.000=146.000,2522.000=-146.001,2530.000=146.000,2539.000=-146.001,2547.000=146.000,2556.000=-146.001,2564.000=146.000,2573.000=-146.001,2581.000=146.000,2590.000=-146.001,2598.000=146.000,2607.000=-146.001,2615.000=146.000,2624.000=-146.001,2632.000=146.000,2641.000=-146.001,2649.000=146.000,2658.000=-146.001,2666.000=146.000,2675.000=-146.001,2683.000=146.000,2692.000=-146.001,2700.000=146.000,2709.000=-146.001,2717.000=146.000,2726.000=-146.001,2734.000=146.000,2743.000=-146.001,2751.000=146.000,2760.000=-146.001,2768.000=146.000,2777.500=-146.001,2785.500=146.000,2793.750=-146.000,2801.750=146.000,2810.000=-146.000,2818.000=146.000,2826.250=-146.000,2834.250=146.000,2842.500=-146.000,2850.500=146.000,2858.750=-146.000,2866.750=146.000,2875.000=-146.000,2883.000=146.000,2891.250=-146.000,2899.250=146.000,2907.500=-146.000,2915.500=146.000,2923.750=-146.000,2931.750=146.001,2940.000=-146.000,2972.000=146.000,3004.000=2006.020;
#STOPS:963.980=0.396
,995.980=0.806
,1027.980=0.806
,1059.980=0.806
,1091.980=0.806
,1123.980=0.806
,1155.980=0.806
,1187.980=0.806
,1219.980=0.806
,1251.980=0.806
,1283.980=0.806
,1315.980=0.806
,1347.980=0.806
,1379.980=0.806
,1411.980=0.806
,1443.980=0.805
,1475.980=0.396
;
#BGCHANGES:;

//---------------dance-single - Hyper Challenge Mode----------------
#NOTES:
     dance-single:
     Hyper Challenge Mode:
     Challenge:
     15:
     1.000,1.000,1.000,1.000,1.000: // measure 1
0000
0000
0000
0000
,  // measure 2
0000
0000
0000
0000
,  // measure 3
0000
0000
0000
0000
,  // measure 4
0000
0000
0000
0000
,  // measure 5
0000
0000
0000
0000
,  // measure 6
0000
0000
0000
0000
,  // measure 7
0000
0000
0000
0000
,  // measure 8
0000
0000
0000
0000
,  // measure 9
0000
0000
0000
0000
,  // measure 10
1000
0010
1000
0100
,  // measure 11
0010
0100
0100
0010
,  // measure 12
0100
0001
1000
0001
,  // measure 13
1000
0000
0000
0000
,  // measure 14
0000
0010
0100
0100
,  // measure 15
0010
0001
1000
0001
,  // measure 16
1000
0100
1000
0100
,  // measure 17
0001
1000
0100
1000
,  // measure 18
0100
0000
0000
0000
,  // measure 19
0000
0100
0001
1000
,  // measure 20
0010
0100
0001
0100
,  // measure 21
0001
0100
1000
0100
,  // measure 22
0001
0100
0100
0010
,  // measure 23
1000
0000
0000
0000
,  // measure 24
0000
0100
1000
0010
,  // measure 25
0001
0001
0001
0100
,  // measure 26
0100
1010
0100
0101
,  // measure 27
1000
0001
0010
0100
,  // measure 28
0100
0000
0000
0000
,  // measure 29
0000
0100
0100
1000
,  // measure 30
1010
0001
0100
0010
,  // measure 31
1000
0100
0100
0001
,  // measure 32
0100
1000
0010
0100
,  // measure 33
0001
0000
0000
0000
,  // measure 34
0000
0100
0100
0001
,  // measure 35
1010
0100
1100
1000
,  // measure 36
0001
0100
0010
1000
,  // measure 37
1100
1000
0010
0100
,  // measure 38
0001
0000
0000
0000
,  // measure 39
0000
0100
1100
1000
,  // measure 40
0001
0010
0100
1000
,  // measure 41
0010
0110
0100
0100
,  // measure 42
0001
1000
0010
1000
,  // measure 43
0100
0000
0000
0000
,  // measure 44
0000
0010
1000
0001
,  // measure 45
0010
0000
0100
0000
,  // measure 46
1000
0000
0001
0000
,  // measure 47
0100
0000
1000
0000
,  // measure 48
0001
0000
0000
0000
,  // measure 49
0000
1000
0100
0001
,  // measure 50
1000
0000
0010
0000
,  // measure 51
1000
0000
0001
0000
,  // measure 52
0100
0000
1000
0000
,  // measure 53
0010
0000
0000
0000
,  // measure 54
0000
0001
0010
0100
,  // measure 55
1000
0000
0001
0000
,  // measure 56
0100
0000
1000
0000
,  // measure 57
0010
0000
0010
0000
,  // measure 58
1000
0000
0000
0000
,  // measure 59
0000
0010
0001
1000
,  // measure 60
0100
0000
1000
0000
,  // measure 61
0010
0000
0010
0000
,  // measure 62
1000
0000
0001
0000
,  // measure 63
0100
0000
0000
0000
,  // measure 64
0000
0100
1000
0100
,  // measure 65
0010
0000
0010
0000
,  // measure 66
1000
0000
0001
0000
,  // measure 67
0100
0000
1000
0000
,  // measure 68
0001
0000
0000
0000
,  // measure 69
0000
0100
0010
0001
,  // measure 70
1000
0000
0001
0000
,  // measure 71
0100
0000
1000
0000
,  // measure 72
0001
0000
1000
0000
,  // measure 73
0010
0000
0000
0000
,  // measure 74
0000
0101
0001
1010
,  // measure 75
0100
0000
1000
0000
,  // measure 76
0001
0000
1000
0000
,  // measure 77
0010
0000
1000
0000
,  // measure 78
0000
0000
0000
0000
,  // measure 79
0000
1100
1000
0011
,  // measure 80
0001
0000
0010
0000
,  // measure 81
1000
0000
0000
0000
,  // measure 82
0000
0000
0000
0000
,  // measure 83
0000
0000
0000
0000
,  // measure 84
0000
0011
0010
1100
,  // measure 85
1000
0000
0000
0000
,  // measure 86
0000
0000
0000
0000
,  // measure 87
0000
0000
0000
0000
,  // measure 88
0000
0000
0000
0000
,  // measure 89
0000
0100
0000
0000
,  // measure 90
0000
0000
0000
0000
,  // measure 91
0000
0000
0000
0000
,  // measure 92
0000
0000
0000
0000
,  // measure 93
0000
0000
0001
0000
,  // measure 94
0000
0000
0000
0000
,  // measure 95
0000
0000
0000
0000
,  // measure 96
0000
0000
0000
0000
,  // measure 97
0000
0000
0000
0010
,  // measure 98
0000
0000
0000
0000
,  // measure 99
0000
0000
0000
0000
,  // measure 100
0000
0000
0000
0000
,  // measure 101
0000
0000
0000
0000
,  // measure 102
1000
0000
0000
0000
,  // measure 103
0000
0000
0000
0000
,  // measure 104
0000
0000
0000
0000
,  // measure 105
0000
0000
0000
0000
,  // measure 106
0000
0100
0000
0000
,  // measure 107
0000
0000
0000
0000
,  // measure 108
0000
0000
0000
0000
,  // measure 109
0000
0000
0000
0000
,  // measure 110
0000
0000
0001
0000
,  // measure 111
0000
0000
0000
0000
,  // measure 112
0000
0000
0000
0000
,  // measure 113
0000
0000
0000
0000
,  // measure 114
0000
0000
0000
0010
,  // measure 115
0000
0000
0000
0000
,  // measure 116
0000
0000
0000
0000
,  // measure 117
0000
0000
0000
0000
,  // measure 118
0000
0000
0000
0000
,  // measure 119
0010
0000
0000
0000
,  // measure 120
0000
0000
0000
0000
,  // measure 121
0000
0000
0000
0000
,  // measure 122
0000
0000
0000
0000
,  // measure 123
0000
0000
0000
0100
0000
0000
0000
0000
,  // measure 124
0000
0000
0000
0000
,  // measure 125
0000
0000
0000
0000
,  // measure 126
0000
0000
0000
0000
,  // measure 127
0000
0000
0001
0000
,  // measure 128
0000
0000
0000
0000
,  // measure 129
0000
0000
0000
0000
,  // measure 130
0000
0000
0000
0000
,  // measure 131
0000
0000
0000
0000
0000
0000
0000
0000
0000
0000
0000
0010
0000
0000
0000
0000
,  // measure 132
0000
0000
0000
0000
,  // measure 133
0000
0000
0000
0000
,  // measure 134
0000
0000
0000
0000
,  // measure 135
0000
0000
0000
0000
0000
0000
0000
0000
0000
0000
0000
0000
0000
0000
1000
0100
,  // measure 136
0002
0000
0000
0000
,  // measure 137
0000
0000
0000
0000
,  // measure 138
0000
0000
0000
0000
,  // measure 139
0000
0000
0000
0000
,  // measure 140
0000
0000
0103
0000
,  // measure 141
0000
0000
0000
0000
,  // measure 142
0000
0000
0000
0000
,  // measure 143
0000
0000
0000
0000
,  // measure 144
0000
0000
0000
0001
,  // measure 145
0000
0000
0000
0000
,  // measure 146
0000
0000
0000
0000
,  // measure 147
0100
0000
0000
0000
,  // measure 148
0000
0000
0000
0000
,  // measure 149
1000
0000
0000
0000
,  // measure 150
0000
0000
0000
0000
,  // measure 151
0000
0000
0000
0000
,  // measure 152
0000
0000
0000
0000
,  // measure 153
0000
0000
0000
1000
0000
0000
0000
0000
,  // measure 154
0000
0000
0000
0000
,  // measure 155
0000
0000
0000
0000
,  // measure 156
0000
0000
0000
0000
,  // measure 157
0000
0000
0100
0000
,  // measure 158
0000
0000
0000
0000
,  // measure 159
0000
0000
0000
0000
,  // measure 160
0000
0000
0000
0000
,  // measure 161
0000
0000
0000
0000
0000
0000
0000
0000
0000
0000
0000
0010
0000
0000
0000
0000
,  // measure 162
0000
0000
0000
0000
,  // measure 163
0000
0000
0000
0000
,  // measure 164
0000
0000
0000
0000
,  // measure 165
0000
0000
0000
0000
0000
0000
0000
0001
,  // measure 166
0000
0000
0000
0000
,  // measure 167
0000
0000
0000
0000
,  // measure 168
0000
0000
0000
0000
,  // measure 169
0000
0000
0000
0000
,  // measure 170
0100
0000
0000
0000
,  // measure 171
0000
0000
0000
0000
,  // measure 172
0000
0000
0000
0000
,  // measure 173
0000
0000
0000
0000
,  // measure 174
0000
0000
0100
0000
,  // measure 175
0000
0000
0000
0000
,  // measure 176
0000
0000
0000
0000
,  // measure 177
0000
0000
0000
0000
,  // measure 178
0000
0000
0000
1000
,  // measure 179
0000
0000
0000
0000
,  // measure 180
0000
0000
0000
0000
,  // measure 181
0000
0000
0000
0000
,  // measure 182
0000
0000
0000
0000
,  // measure 183
0100
0000
0000
0000
,  // measure 184
0000
0000
0000
0000
,  // measure 185
0000
0000
0000
0000
,  // measure 186
0000
0000
0000
0000
,  // measure 187
0000
0001
0000
0000
,  // measure 188
0000
0000
0000
0000
,  // measure 189
0000
0000
0000
0000
,  // measure 190
0000
0000
0000
0000
,  // measure 191
0000
0000
0100
0000
,  // measure 192
0000
0000
0000
0000
,  // measure 193
0000
0000
0000
0000
,  // measure 194
0000
0000
0000
0000
,  // measure 195
0000
0000
0000
1000
,  // measure 196
0000
0000
0000
0000
,  // measure 197
0000
0000
0000
0000
,  // measure 198
0000
0000
0000
0000
,  // measure 199
0000
0000
0000
0000
,  // measure 200
0001
0010
0100
1000
0001
0010
0100
1000
,  // measure 201
0001
0010
0100
1000
0001
0010
0100
1000
,  // measure 202
0001
0000
0000
0000
,  // measure 203
0000
0000
0000
0000
,  // measure 204
0000
0100
0010
1000
0001
0010
0100
1000
,  // measure 205
0001
0010
0100
1000
0001
0010
0100
1000
,  // measure 206
0001
0000
0000
0000
,  // measure 207
0000
0000
0000
0000
,  // measure 208
0000
0000
0000
0100
0010
0010
0100
1000
,  // measure 209
0001
0010
0100
1000
0001
0010
0100
1000
,  // measure 210
0001
0000
0000
0000
,  // measure 211
0000
0000
0000
0000
,  // measure 212
0000
0000
0000
0000
0000
1000
0100
1000
,  // measure 213
0001
0010
0100
1000
0001
0010
0100
1000
,  // measure 214
0001
0000
0000
0000
,  // measure 215
0000
0000
0000
0000
,  // measure 216
0000
0000
0000
0000
0000
0000
0000
1000
,  // measure 217
0010
0010
0100
1000
0001
0010
0100
1000
,  // measure 218
0001
0000
0000
0000
,  // measure 219
0000
0000
0000
0000
,  // measure 220
0000
0000
0000
0000
,  // measure 221
0000
0100
0001
1000
0001
0010
0100
1000
,  // measure 222
0001
0000
0000
0000
,  // measure 223
0000
0000
0000
0000
,  // measure 224
0000
0000
0000
0000
,  // measure 225
0000
0000
0000
0010
0100
0010
0100
1000
,  // measure 226
0001
0000
0000
0000
,  // measure 227
0000
0000
0000
0000
,  // measure 228
0000
0000
0000
0000
,  // measure 229
0000
0000
0000
0000
0000
1000
0010
1000
,  // measure 230
0001
0000
0000
0000
,  // measure 231
0000
0000
0000
0000
,  // measure 232
0000
0000
0000
0000
,  // measure 233
0000
0000
0000
0000
0000
0000
0000
0001
,  // measure 234
0100
0000
0000
0000
,  // measure 235
0000
0000
0000
0000
,  // measure 236
0000
0000
0000
0000
,  // measure 237
0000
0000
0000
0000
,  // measure 238
0000
0000
0000
0000
,  // measure 239
0000
0000
0000
0000
,  // measure 240
0000
0000
0000
0000
,  // measure 241
0000
0000
0000
0000
,  // measure 242
1000
0000
0000
0000
,  // measure 243
0000
0000
0000
0000
,  // measure 244
0000
0000
0000
0000
,  // measure 245
0000
0000
0000
0000
,  // measure 246
0000
0000
0000
0000
,  // measure 247
0000
0000
0000
0000
,  // measure 248
0000
0000
0000
0000
,  // measure 249
0000
0000
0000
0000
,  // measure 250
0100
0000
0000
0000
,  // measure 251
0000
0000
0000
0000
,  // measure 252
0000
0000
0000
0000
,  // measure 253
0000
0000
0000
0000
,  // measure 254
0000
0000
0000
0000
,  // measure 255
0000
0000
0000
0000
,  // measure 256
0000
0000
0000
0000
,  // measure 257
0000
0000
0000
0000
,  // measure 258
0010
0000
0000
0000
,  // measure 259
0000
0000
0000
0000
,  // measure 260
0000
0000
0000
0000
,  // measure 261
0000
0000
0000
0000
,  // measure 262
0000
0000
0000
0000
,  // measure 263
0000
0000
0000
0000
,  // measure 264
0000
0000
0000
0000
,  // measure 265
0000
0000
0000
0000
,  // measure 266
1000
0000
0000
0000
,  // measure 267
0000
0000
0000
0000
,  // measure 268
0000
0000
0000
0000
,  // measure 269
0000
0000
0000
0000
,  // measure 270
0000
0000
0000
0000
,  // measure 271
0000
0000
0000
0000
,  // measure 272
0000
0000
0000
0000
,  // measure 273
0000
0000
0000
0000
,  // measure 274
0001
0000
0000
0000
,  // measure 275
0000
0000
0000
0000
,  // measure 276
0000
0000
0000
0000
,  // measure 277
0000
0000
0000
0000
,  // measure 278
0000
0000
0000
0000
,  // measure 279
0000
0000
0000
0000
,  // measure 280
0000
0000
0000
0000
,  // measure 281
0000
0000
0000
0000
,  // measure 282
0100
0000
0000
0000
,  // measure 283
0000
0000
0000
0000
,  // measure 284
0000
0000
0000
0000
,  // measure 285
0000
0000
0000
0000
,  // measure 286
0000
0000
0000
0000
,  // measure 287
0000
0000
0000
0000
,  // measure 288
0000
0000
0000
0000
,  // measure 289
0000
0000
0000
0000
,  // measure 290
0100
0000
0000
0000
,  // measure 291
0000
0000
0000
0000
,  // measure 292
0000
0000
0000
0000
,  // measure 293
0000
0000
0000
0000
,  // measure 294
0000
0000
0000
0000
,  // measure 295
0000
0000
0000
0000
,  // measure 296
0000
0000
0000
0000
,  // measure 297
0000
0000
0000
0000
,  // measure 298
0010
0000
0000
0000
,  // measure 299
0000
0000
0000
0000
,  // measure 300
0000
0000
0000
0000
,  // measure 301
0000
0000
0000
0000
,  // measure 302
0000
0000
0000
0000
,  // measure 303
0000
0000
0000
0000
,  // measure 304
0000
0000
0000
0000
,  // measure 305
0000
0000
0000
0000
,  // measure 306
1000
0000
0000
0000
,  // measure 307
0000
0000
0000
0000
,  // measure 308
0000
0000
0000
0000
,  // measure 309
0000
0000
0000
0000
,  // measure 310
0000
0000
0000
0000
,  // measure 311
0000
0000
0000
0000
,  // measure 312
0000
0000
0000
0000
,  // measure 313
0000
0000
0000
0000
,  // measure 314
0100
0000
0000
0000
,  // measure 315
0000
0000
0000
0000
,  // measure 316
0000
0000
0000
0000
,  // measure 317
0000
0000
0000
0000
,  // measure 318
0000
0000
0000
0000
,  // measure 319
0000
0000
0000
0000
,  // measure 320
0000
0000
0000
0000
,  // measure 321
0000
0000
0000
0000
,  // measure 322
0010
0000
0000
0000
,  // measure 323
0000
0000
0000
0000
,  // measure 324
0000
0000
0000
0000
,  // measure 325
0000
0000
0000
0000
,  // measure 326
0000
0000
0000
0000
,  // measure 327
0000
0000
0000
0000
,  // measure 328
0000
0000
0000
0000
,  // measure 329
0000
0000
0000
0000
,  // measure 330
0001
0000
0000
0000
,  // measure 331
0000
0000
0000
0000
,  // measure 332
0000
0000
0000
0000
,  // measure 333
0000
0000
0000
0000
,  // measure 334
0000
0000
0000
0000
,  // measure 335
0000
0000
0000
0000
,  // measure 336
0000
0000
0000
0000
,  // measure 337
0000
0000
0000
0000
,  // measure 338
0001
0000
0000
0000
,  // measure 339
0000
0000
0000
0000
,  // measure 340
0000
0000
0000
0000
,  // measure 341
0000
0000
0000
0000
,  // measure 342
0000
0000
0000
0000
,  // measure 343
0000
0000
0000
0000
,  // measure 344
0000
0000
0000
0000
,  // measure 345
0000
0000
0000
0000
,  // measure 346
0100
0000
0000
0000
,  // measure 347
0000
0000
0000
0000
,  // measure 348
0000
0000
0000
0000
,  // measure 349
0000
0000
0000
0000
,  // measure 350
0000
0000
0000
0000
,  // measure 351
0000
0000
0000
0000
,  // measure 352
0000
0000
0000
0000
,  // measure 353
0000
0000
0000
0000
,  // measure 354
0010
0000
0000
0000
,  // measure 355
0000
0000
0000
0000
,  // measure 356
0000
0000
0000
0000
,  // measure 357
0000
0000
0000
0000
,  // measure 358
0000
0000
0000
0000
,  // measure 359
0000
0000
0000
0000
,  // measure 360
0000
0000
0000
0000
,  // measure 361
0000
0000
0000
0000
,  // measure 362
1001
0000
0000
0000
,  // measure 363
0000
0000
0000
0000
,  // measure 364
0000
0000
0000
0000
,  // measure 365
0000
0000
0000
0000
,  // measure 366
0000
0000
0000
0000
,  // measure 367
0000
0000
0000
0000
,  // measure 368
0000
0000
0000
0000
,  // measure 369
0000
0000
0000
0000
,  // measure 370
1000
0100
0000
1000
0000
0000
1000
0000
1000
0000
0000
1000
0000
0000
1000
0000
0000
0000
0000
0000
0000
0000
0000
0000
0000
0000
0000
0000
0000
0000
0000
0000
0001
0100
0000
0001
0000
0000
0001
0000
0001
0000
0000
0001
0000
0000
0001
0000
0000
0000
0000
0000
0000
0000
0000
0000
0000
0000
0000
0000
0000
0000
0000
0000
,  // measure 371
1000
0100
0000
1000
0000
0000
1000
0000
1000
0000
0000
1000
0000
0000
1000
0000
0000
0000
0000
0000
0000
0000
0000
0000
0000
0000
0000
0000
0000
0000
0000
0000
0001
0100
0000
0001
0000
0000
0001
0000
0001
0000
0000
0001
0000
0000
0001
0000
0000
0000
0000
0000
0000
0000
0000
0000
0000
0000
0000
0000
0000
0000
0000
0000
,  // measure 372
0020
0000
0000
0000
,  // measure 373
0000
0000
0000
0000
,  // measure 374
0000
0000
0000
0000
,  // measure 375
0000
0000
0000
0000
,  // measure 376
0000
0000
0000
0000
,  // measure 377
0000
0000
0000
0000
,  // measure 378
0000
0000
1030
0000
0000
1000
0000
0001
0000
1000
0000
0100
0000
0000
0000
0000
,  // measure 379
0000
0000
0000
0000
,  // measure 380
0000
0000
0000
0000
,  // measure 381
0000
0000
0000
0000
,  // measure 382
0000
0000
0000
0000
0000
0000
0000
0000
0000
0000
0000
0000
0000
0100
0000
0100
,  // measure 383
0000
0000
0000
0000
,  // measure 384
0000
0000
0000
0000
,  // measure 385
0000
0000
0000
0000
,  // measure 386
0000
0000
0000
0000
,  // measure 387
0100
0000
0000
0000
,  // measure 388
0000
0000
0000
0000
,  // measure 389
0000
0000
0000
0000
,  // measure 390
0000
0000
0000
0000
,  // measure 391
0000
0000
1001
1001
,  // measure 392
1001
0000
0000
0000
,  // measure 393
0000
0000
0000
0000
,  // measure 394
0000
0000
0000
0000
,  // measure 395
0000
0000
0000
0110
,  // measure 396
1001
0000
0000
0000
,  // measure 397
0000
0000
0000
0000
,  // measure 398
0000
0000
0000
0000
,  // measure 399
0000
0000
0000
0000
,  // measure 400
1001
0000
0000
0000
,  // measure 401
0000
0000
0000
0000
,  // measure 402
0000
0000
0000
0000
,  // measure 403
0000
0000
0000
0000
,  // measure 404
0000
0100
0000
0000
,  // measure 405
0000
0000
0000
0000
,  // measure 406
0000
0000
0000
0000
,  // measure 407
0000
0000
0000
0000
,  // measure 408
0000
0000
0001
0001
,  // measure 409
0001
0000
0000
0000
,  // measure 410
0000
0000
0000
0000
,  // measure 411
0000
0000
0000
0000
,  // measure 412
0000
0000
0000
0010
,  // measure 413
0010
0000
0000
0000
,  // measure 414
0000
0000
0000
0000
,  // measure 415
0000
0000
0000
0000
,  // measure 416
0000
0000
0000
0000
,  // measure 417
0100
0000
0000
0000
,  // measure 418
0000
0000
0000
0000
,  // measure 419
0000
0000
0000
0000
,  // measure 420
0000
0000
0000
0000
,  // measure 421
0000
0000
0000
0000
1000
0000
0000
0000
0001
0000
0001
0010
1000
0000
0100
0000
,  // measure 422
0001
0000
0000
0000
,  // measure 423
0000
0000
0000
0000
,  // measure 424
0000
0000
0000
0000
,  // measure 425
0000
0000
0000
0000
0000
0000
0000
0000
0000
0000
0001
0100
1000
0000
0010
0000
,  // measure 426
0001
0000
0000
0000
,  // measure 427
0000
0000
0000
0000
,  // measure 428
0000
0000
0000
0000
,  // measure 429
0000
0000
0000
0000
0000
0000
0000
0100
,  // measure 430
0001
0000
0000
0000
,  // measure 431
0000
0000
0000
0000
,  // measure 432
0000
0000
0000
0000
,  // measure 433
0000
0000
0000
0000
,  // measure 434
0000
0100
0000
0000
,  // measure 435
0000
0000
0000
0000
,  // measure 436
0000
0000
0000
0000
,  // measure 437
0000
0000
0000
0000
,  // measure 438
0000
0000
1000
1000
,  // measure 439
1000
0000
0000
0000
,  // measure 440
0000
0000
0000
0000
,  // measure 441
0000
0000
0000
0000
,  // measure 442
0000
0000
0000
0100
,  // measure 443
0100
0000
0000
0000
,  // measure 444
0000
0000
0000
0000
,  // measure 445
0000
0000
0000
0000
,  // measure 446
0000
0000
0000
0000
,  // measure 447
0010
0000
0000
0000
,  // measure 448
0000
0000
0000
0000
,  // measure 449
0000
0000
0000
0000
,  // measure 450
0000
0000
0000
0000
,  // measure 451
0000
0000
0000
0000
1000
0000
1000
0100
0001
0000
0010
0000
1000
0000
0100
0000
,  // measure 452
0010
0000
0000
0000
,  // measure 453
0000
0000
0000
0000
,  // measure 454
0000
0000
0000
0000
,  // measure 455
0000
0000
0000
0000
0000
0000
1000
0010
0001
0000
0100
0000
1000
0000
0010
0000
,  // measure 456
0001
0000
0000
0000
,  // measure 457
0000
0000
0000
0000
,  // measure 458
0000
0000
0000
0000
,  // measure 459
0000
0000
0000
0000
0000
0010
1000
0100
,  // measure 460
1000
0000
0000
0000
,  // measure 461
0000
0000
0000
0000
,  // measure 462
0000
0000
0000
0000
,  // measure 463
0000
0000
0000
0000
0000
0000
0000
0010
,  // measure 464
0001
0000
0000
0000
,  // measure 465
0000
0000
0000
0000
,  // measure 466
0000
0000
0000
0000
,  // measure 467
0000
0000
0000
0000
,  // measure 468
0000
0100
1010
0011
,  // measure 469
0101
0000
0000
0000
,  // measure 470
0000
0000
0000
0000
,  // measure 471
0000
0000
0000
0000
,  // measure 472
0000
0000
1000
0000
,  // measure 473
0000
0000
0000
0000
,  // measure 474
0000
0000
0000
0000
,  // measure 475
0000
0000
0000
0000
,  // measure 476
0000
0000
0010
0001
,  // measure 477
0000
0000
0000
0000
,  // measure 478
0000
0000
0000
0000
,  // measure 479
0000
0000
0000
0000
,  // measure 480
0000
0000
0000
0010
,  // measure 481
0001
0000
0000
0000
,  // measure 482
0000
0000
0000
0000
,  // measure 483
0000
0000
0000
0000
,  // measure 484
0000
0000
0000
0000
,  // measure 485
0100
1000
0101
0011
,  // measure 486
1010
0000
0000
0000
,  // measure 487
0000
0000
0000
0000
,  // measure 488
0000
0000
0000
0000
,  // measure 489
0000
0000
0100
0000
,  // measure 490
0000
0000
0000
0000
,  // measure 491
0000
0000
0000
0000
,  // measure 492
0000
0000
0000
0000
,  // measure 493
0000
0000
0001
0010
,  // measure 494
0000
0000
0000
0000
,  // measure 495
0000
0000
0000
0000
,  // measure 496
0000
0000
0000
0000
,  // measure 497
0000
0000
0000
0001
,  // measure 498
0010
0000
0000
0000
,  // measure 499
0000
0000
0000
0000
,  // measure 500
0000
0000
0000
0000
,  // measure 501
0000
0000
0000
0000
,  // measure 502
1000
0000
0000
0000
1000
0000
1000
0100
0001
0000
0000
0000
0110
0000
0000
0000
,  // measure 503
1000
0010
0100
0001
1000
0010
0100
0001
,  // measure 504
1001
0000
0000
0000
,  // measure 505
0000
0000
0000
0000
,  // measure 506
0000
0000
0000
0000
0000
0000
1000
0010
0001
0000
0000
0000
1001
0000
0000
0000
,  // measure 507
1000
0010
0100
0001
1000
0010
0100
0001
,  // measure 508
1001
0000
0000
0000
,  // measure 509
0000
0000
0000
0000
,  // measure 510
0000
0000
0000
1000
,  // measure 511
1000
0010
0100
0001
1000
0010
0100
0001
,  // measure 512
1001
0000
0000
0000
,  // measure 513
0000
0000
0000
0000
,  // measure 514
0000
0000
0000
0000
,  // measure 515
1000
0010
0100
0001
1000
0010
0100
0001
,  // measure 516
1001
0000
0000
0000
,  // measure 517
0000
0000
0000
0000
,  // measure 518
0000
0000
0000
0000
,  // measure 519
0000
0001
0100
0001
1000
0010
0100
0001
,  // measure 520
1001
0000
0000
0000
,  // measure 521
0000
0000
0000
0000
,  // measure 522
0000
0000
0000
0000
,  // measure 523
0000
0000
0000
0010
1000
0010
0100
0001
,  // measure 524
1001
0000
0000
0000
,  // measure 525
0000
0000
0000
0000
,  // measure 526
0000
0000
0000
0000
,  // measure 527
0000
0000
0000
0000
0000
0001
0100
0001
,  // measure 528
1001
0000
0000
0000
,  // measure 529
0000
0000
0000
0000
,  // measure 530
0000
0000
0000
0000
,  // measure 531
0000
0000
0000
0000
0000
0000
0000
0010
,  // measure 532
1001
1000
1000
1000
0100
0100
0010
0001
,  // measure 533
0100
0100
0100
0100
0100
1000
0100
0001
,  // measure 534
0100
0100
0100
0000
1100
0000
1000
0000
,  // measure 535
1100
0000
0000
0000
,  // measure 536
0000
1000
0010
1000
0100
0100
0010
0001
,  // measure 537
0100
0100
0100
0100
0100
1000
0100
0001
,  // measure 538
0100
0100
0100
0000
1100
0000
1000
0000
,  // measure 539
1100
0000
0000
0000
,  // measure 540
0000
0000
0000
0000
,  // measure 541
0000
0100
0020
0100
0130
1000
0100
0001
,  // measure 542
0100
0100
0100
0000
1100
0000
1000
0000
,  // measure 543
1100
0000
0000
0000
0100
0000
0100
0001
0100
0000
1000
0000
0010
0000
0100
0000
,  // measure 544
0001
0000
0000
0000
,  // measure 545
0000
0000
0000
0000
,  // measure 546
0000
0010
0100
0000
1100
0000
0010
0000
,  // measure 547
0011
0000
0000
0000
0100
0000
0100
0001
0100
0000
1000
0000
0010
0000
0100
0000
,  // measure 548
0001
0000
0000
0000
0100
0000
0000
0000
0100
1000
0000
0000
1000
0100
0000
0000
,  // measure 549
0001
0010
0000
0000
0000
0000
0000
0000
0000
0000
0000
0000
0000
0000
0000
0000
,  // measure 550
0000
0000
0000
0000
,  // measure 551
0000
0000
0000
0000
0100
0000
0010
1000
0010
0000
1000
0000
0100
0000
0010
0000
,  // measure 552
0001
0000
0000
0000
0100
0000
0000
0000
0100
1000
0000
0000
1000
0100
0000
0000
,  // measure 553
0001
0010
0000
0000
0100
0000
0000
0000
0100
0010
0000
0000
0010
0100
0000
0000
,  // measure 554
0100
1000
0000
0000
0000
0000
0000
0000
0000
0000
0000
0000
0000
0000
0000
0000
,  // measure 555
0000
0000
0000
0000
,  // measure 556
0000
0000
0000
0000
0100
0000
0000
0000
0001
0100
0000
0000
0100
0010
0000
0000
,  // measure 557
0010
1000
0000
0000
0100
0000
0000
0000
0100
0010
0000
0000
0010
0100
0000
0000
,  // measure 558
0100
1000
0000
0000
0100
0000
1000
0001
0100
0000
0000
0000
2000
0000
0000
0000
,  // measure 559
3001
0000
0000
0000
,  // measure 560
0000
0000
0000
0000
,  // measure 561
0000
1000
0000
0000
0100
0000
0000
0000
0100
0001
0000
0000
0001
0010
0000
0000
,  // measure 562
1000
0100
0000
0000
0010
0000
1000
0001
0100
0000
0000
0000
2000
0000
0000
0000
,  // measure 563
3001
2010
3100
0110
,  // measure 564
1001
0000
0000
0000
,  // measure 565
0000
0000
0000
0000
,  // measure 566
0000
0100
0000
0000
0010
0000
1000
0010
0100
0000
0000
0000
0002
0000
0000
0000
,  // measure 567
1003
2010
3100
0110
,  // measure 568
1001
1000
0100
1000
0100
1000
0100
1000
,  // measure 569
0100
0000
0000
0000
,  // measure 570
0000
0000
0000
0000
,  // measure 571
0000
1020
0130
0101
,  // measure 572
1001
0002
0013
0002
0013
0002
0013
0002
,  // measure 573
0013
0000
0000
0000
,  // measure 574
0000
0000
0000
0000
,  // measure 575
0000
0000
0000
0000
,  // measure 576
0000
2000
0010
3002
0013
0002
0013
0002
,  // measure 577
0013
0000
0000
0000
,  // measure 578
0000
0000
0000
0000
,  // measure 579
0000
0000
0000
0000
,  // measure 580
0000
0000
0000
0200
0010
0302
0013
0002
,  // measure 581
0013
0000
0000
0000
,  // measure 582
0000
0000
0000
0000
,  // measure 583
0000
0000
0000
0000
,  // measure 584
0000
0000
0000
0000
0000
2000
0010
3002
,  // measure 585
0013
0000
0000
0000
,  // measure 586
0000
0000
0000
0000
,  // measure 587
0000
0000
0000
0000
,  // measure 588
0000
0000
0000
0000
0000
0000
0000
0200
,  // measure 589
0010
2300
3010
2000
3010
2000
3010
2000
,  // measure 590
3010
0000
0000
0000
,  // measure 591
0000
0000
0000
0000
,  // measure 592
0000
0000
0000
0000
,  // measure 593
0000
0002
0010
2003
3010
2000
3010
2000
,  // measure 594
3010
0000
0000
0000
,  // measure 595
0000
0000
0000
0000
,  // measure 596
0000
0000
0000
0000
,  // measure 597
0000
0000
0000
0200
0010
2300
3010
2000
,  // measure 598
3010
0000
0000
0000
,  // measure 599
0000
0000
0000
0000
,  // measure 600
0000
0000
0000
0000
,  // measure 601
0000
0000
0000
0000
0000
0002
0010
2003
,  // measure 602
3010
0000
0000
0000
,  // measure 603
0000
0000
0000
0000
,  // measure 604
0000
0000
0000
0000
,  // measure 605
0000
0000
0000
0000
0000
0000
0000
0200
,  // measure 606
0010
0302
1000
0023
0100
0032
1000
0023
,  // measure 607
0100
0030
0000
0000
0000
0000
0000
0000
,  // measure 608
0000
0000
0000
0000
,  // measure 609
0000
0000
0000
0000
,  // measure 610
0000
2000
0001
3020
0100
0032
1000
0023
,  // measure 611
0100
0030
0000
0000
0000
0000
0000
0000
,  // measure 612
0000
0000
0000
0000
,  // measure 613
0000
0000
0000
0000
,  // measure 614
0000
0000
0000
0200
0010
0302
1000
0023
,  // measure 615
0100
0030
0000
0000
0000
0000
0000
0000
,  // measure 616
0000
0000
0000
0000
,  // measure 617
0000
0000
0000
0000
,  // measure 618
0000
0000
0000
0000
0000
2000
0001
3020
,  // measure 619
0100
0030
0000
0000
0000
0000
0000
0000
,  // measure 620
0000
0000
0000
0000
,  // measure 621
0000
0000
0000
0000
,  // measure 622
0000
0000
0000
0000
0000
0000
0000
0200
,  // measure 623
0010
0000
0000
0000
0000
0000
0000
0300
0200
0000
0000
0000
0000
0000
0000
0300
0010
0000
0000
0000
0000
0000
0000
0000
0200
0000
0000
0000
0000
0000
0000
0000
0310
0000
0000
0000
0000
0000
0000
0000
0200
0000
0000
0000
0000
0000
0000
0000
0310
0000
0000
0000
0000
0000
0000
0000
0200
0000
0000
0000
0000
0000
0000
0000
,  // measure 624
0310
0000
0000
0000
,  // measure 625
0000
0000
0000
0000
,  // measure 626
0000
0000
0000
0000
,  // measure 627
0000
2000
0010
3200
0310
0200
0310
0200
,  // measure 628
0310
0000
0000
0000
,  // measure 629
0000
0000
0000
0000
,  // measure 630
0000
0000
0000
0000
,  // measure 631
0000
0000
0000
0002
0010
0203
0310
0200
,  // measure 632
0310
0000
0000
0000
,  // measure 633
0000
0000
0000
0000
,  // measure 634
0000
0000
0000
0000
,  // measure 635
0000
0000
0000
0000
0000
2000
0010
3200
,  // measure 636
0310
0000
0000
0000
,  // measure 637
0000
0000
0000
0000
,  // measure 638
0000
0000
0000
0000
,  // measure 639
0000
0000
0000
0000
0000
0000
0000
0002
,  // measure 640
0010
2003
3002
0023
0230
2300
3200
0320
,  // measure 641
0032
0003
0000
0000
0000
0000
0000
0000
,  // measure 642
0000
0000
0000
0000
,  // measure 643
0000
0000
0000
0000
,  // measure 644
0000
0002
0203
0320
0230
2300
3200
0320
,  // measure 645
0032
0003
0000
0000
0000
0000
0000
0000
,  // measure 646
0000
0000
0000
0000
,  // measure 647
0000
0000
0000
0000
,  // measure 648
0000
0000
0000
2000
3002
2003
3200
0320
,  // measure 649
0032
0003
0000
0000
0000
0000
0000
0000
,  // measure 650
0000
0000
0000
0000
,  // measure 651
0000
0000
0000
0000
,  // measure 652
0000
0000
0000
0000
0000
0020
0032
0203
,  // measure 653
0302
0003
0000
0000
0000
0000
0000
0000
,  // measure 654
0000
0000
0000
0000
,  // measure 655
0000
0000
0000
0000
,  // measure 656
0000
0000
0000
0000
0000
0000
0000
0020
,  // measure 657
2030
3200
0320
0032
0023
0230
2300
3002
,  // measure 658
2003
3000
0000
0000
0000
0000
0000
0000
,  // measure 659
0000
0000
0000
0000
,  // measure 660
0000
0000
0000
0000
,  // measure 661
0000
0002
0203
0302
0023
0230
2300
3002
,  // measure 662
2003
3000
0000
0000
0000
0000
0000
0000
,  // measure 663
0000
0000
0000
0000
,  // measure 664
0000
0000
0000
0000
,  // measure 665
0000
0000
0000
0020
2030
3200
2300
3002
,  // measure 666
2003
3000
0000
0000
0000
0000
0000
0000
,  // measure 667
0000
0000
0000
0000
,  // measure 668
0000
0000
0000
0000
,  // measure 669
0000
0000
0000
0000
0000
0002
0023
0032
,  // measure 670
2003
3000
0000
0000
0000
0000
0000
0000
,  // measure 671
0000
0000
0000
0000
,  // measure 672
0000
0000
0000
0000
,  // measure 673
0000
0000
0000
0000
0000
0000
0000
0200
,  // measure 674
2300
3200
0302
0023
2030
3200
0302
0023
,  // measure 675
2030
0000
3000
0000
0000
0000
1000
0001
0100
0010
1000
0100
0010
0001
0010
0100
,  // measure 676
1000
0000
0000
0000
,  // measure 677
0000
0000
0000
0000
,  // measure 678
0000
0002
2003
3020
2030
3200
0302
0023
,  // measure 679
2030
0000
3000
0000
0000
0000
1000
0001
0100
0010
1000
0100
0010
0001
0010
0100
,  // measure 680
1000
0000
0000
0000
,  // measure 681
0000
0000
0000
0000
,  // measure 682
0000
0000
0000
0002
0023
0230
0302
0023
,  // measure 683
2030
0000
3000
0000
0000
0000
1000
0001
0100
0010
1000
0100
0010
0001
0010
0100
,  // measure 684
1000
0000
0000
0000
,  // measure 685
0000
0000
0000
0000
,  // measure 686
0000
0000
0000
0000
0000
2000
3200
0320
,  // measure 687
2030
0000
3000
0000
0000
0000
1000
0001
0100
0010
1000
0100
0010
0001
0010
0100
,  // measure 688
1000
0000
0000
0000
,  // measure 689
0000
0000
0000
0000
,  // measure 690
0000
0000
0000
0000
0000
0000
0000
0020
,  // measure 691
0032
0000
0003
0000
0000
0000
1000
0001
0100
0010
1000
0100
0010
0001
0010
0100
,  // measure 692
1000
0000
0000
0000
,  // measure 693
0000
0000
0000
0000
,  // measure 694
0000
0000
0000
0000
,  // measure 695
0000
0000
0000
0000
0000
0000
0000
0000
0000
0000
0000
0000
0000
0000
0000
0000
0001
0000
0000
0000
0000
0000
0000
0000
1MMM
MMMM
MMMM
MMMM
MMM1
MMMM
MMMM
MMMM
M1MM
MMMM
MMMM
MMMM
MM1M
MMMM
MMMM
MMMM
1MMM
MMMM
MMMM
MMMM
M1MM
MMMM
MMMM
MMMM
MM1M
MMMM
MMMM
MMMM
MMM1
MMMM
MMMM
MMMM
MM1M
MMMM
MMMM
M0MM
M1MM
MMMM
MMMM
MMMM
,  // measure 696
1MMM
MMMM
MMMM
MMMM
MMMM
MMMM
MMMM
MMMM
MMMM
MMMM
MMMM
MMMM
MMMM
MMMM
MMMM
MMMM
0000
0000
0000
0000
0000
0000
0000
0000
0000
0000
0000
0000
0000
0000
0000
0000
0000
0000
0000
0000
0000
0000
0000
0000
0000
0000
0000
0000
0000
0000
0000
0000
0000
0000
0000
0000
0000
0000
0000
0000
0000
0000
0000
0000
0000
0000
0000
0000
,  // measure 697
0000
0000
0000
0000
,  // measure 698
0000
0000
0000
0000
,  // measure 699
0000
0000
0000
0000
0000
0000
0000
0001
0000
0000
0000
0000
0000
0000
0000
0000
,  // measure 700
0000
0000
0000
0000
,  // measure 701
0000
0000
0000
0000
,  // measure 702
0000
0000
0000
0000
,  // measure 703
0000
0000
0100
0000
,  // measure 704
0000
0000
0000
0000
,  // measure 705
0000
0000
0000
0000
,  // measure 706
0000
0000
0000
0000
,  // measure 707
0000
0000
0000
0000
0000
0000
0000
0000
0000
0010
0000
0000
0000
0000
0000
0000
,  // measure 708
0000
0000
0000
0000
,  // measure 709
0000
0000
0000
0000
,  // measure 710
0000
0000
0000
0000
,  // measure 711
0000
0000
0000
0000
0000
1000
0000
0000
,  // measure 712
0000
0000
0000
0000
,  // measure 713
0000
0000
0000
0000
,  // measure 714
0000
0000
0000
0000
,  // measure 715
0000
0000
0000
0000
0000
0000
0000
0000
0000
0000
0000
0100
0000
0000
0000
0000
,  // measure 716
0000
0000
0000
0000
,  // measure 717
0000
0000
0000
0000
,  // measure 718
0000
0000
0000
0000
,  // measure 719
0000
0000
0000
0010
,  // measure 720
0000
0000
0000
0000
,  // measure 721
0000
0000
0000
0000
,  // measure 722
0000
0000
0000
0000
,  // measure 723
0000
0000
0000
0000
0000
0000
0000
0000
0000
0000
0000
0000
0000
0001
0000
0000
,  // measure 724
0000
0000
0000
0000
,  // measure 725
0000
0000
0000
0000
,  // measure 726
0000
0000
0000
0000
,  // measure 727
0000
0000
0000
0000
0000
0000
0000
0010
,  // measure 728
0000
0000
0000
0000
,  // measure 729
0000
0000
0000
0000
,  // measure 730
0000
0000
0000
0000
,  // measure 731
0000
0000
0000
0000
0000
0000
0000
0000
0000
0000
0000
0000
0000
0000
0000
0100
,  // measure 732
0000
0000
0000
0000
,  // measure 733
0000
0000
0000
0000
,  // measure 734
0000
0000
0000
0000
,  // measure 735
0000
0000
0000
0000
,  // measure 736
0000
0000
0000
0000
,  // measure 737
0000
0000
0000
0000
,  // measure 738
0000
0000
0000
0000
,  // measure 739
0000
0000
0000
0000
,  // measure 740
0000
0000
0000
0000
,  // measure 741
0000
0000
0000
0000
,  // measure 742
0000
0000
0000
0000
,  // measure 743
0110
0110
0110
0110
0110
0110
0110
0110
1001
1001
1001
1001
1001
1001
1001
1001
1001
1001
1001
1001
0000
0000
0000
0000
0000
0000
0000
0000
0000
0000
0000
0000
0000
0000
0000
0110
0110
0110
0110
0110
0110
0110
0110
0000
1001
1001
1001
1001
1001
1001
1001
1001
1001
1001
1001
1001
1001
1001
1001
1001
1001
1001
1001
1001
,  // measure 744
1001
1001
1001
1001
1001
1001
1001
1001
1001
1001
1001
1001
1001
1001
1001
1001
1001
1001
1001
1001
1001
1001
1001
1001
1001
1001
1001
1001
1001
1001
1001
1001
1001
1001
1001
1001
1001
1001
1001
1001
1001
1001
1001
1001
1001
1001
1001
1001
1001
1001
1001
1001
1001
1001
1001
1001
0110
0110
0110
0110
0110
0110
0110
0110
,  // measure 745
0110
0000
0000
0000
0000
0000
0000
0000
0000
0000
0000
0000
0000
0000
0000
0000
0000
0000
0000
0000
0000
0000
0110
0110
0110
0110
0110
0110
0110
0110
1111
1001
1001
1001
1001
1001
1001
1001
1001
1001
1001
1001
1001
1001
1001
1001
1001
1001
1001
0000
0000
0000
0000
0000
0000
0000
0000
0000
0000
0000
0000
0000
1111
1111
,  // measure 746
1111
1111
0101
0101
0101
0101
0101
0101
0101
0101
0101
0101
0101
0101
0101
0101
0101
0101
0101
0101
0101
0101
1101
1101
1101
1001
1001
1001
1001
1001
1001
1001
1001
1001
1001
1010
1010
1010
1010
0000
0000
0000
0000
0000
0000
0000
0000
0000
0000
0000
0000
0000
0000
1001
1001
1001
1001
1001
1001
1001
1001
1001
1001
0000
,  // measure 747
0110
0110
0110
0110
0110
0110
0000
0000
0000
0000
0000
0000
0000
0000
0000
0000
0000
0000
0000
0000
0000
0000
0000
0000
0000
0000
0000
0000
0000
0000
0000
0000
0000
0000
0000
0000
0000
0000
0000
0000
0000
0000
0000
0000
0000
0000
0000
0000
0000
0000
0000
0000
0000
0000
0000
0000
0000
0000
0000
0000
0000
0000
0000
0000
,  // measure 748
0000
0000
0000
0000
,  // measure 749
0000
0000
0000
0000
,  // measure 750
0000
0000
0000
0000
,  // measure 751
0000
0000
0000
0000
,  // measure 752
2000
0000
0000
0000
,  // measure 753
0000
0000
0000
0000
,  // measure 754
3000
0000
0000
0000
:
a=Boost=20.000000,
;
