#TITLE:Atomic Bomb;
#SUBTITLE:;
#ARTIST:Mad-Script;
#TITLETRANSLIT:;
#SUBTITLETRANSLIT:;
#ARTISTTRANSLIT:;
#CREDIT:;
#BANNER:Atomic Bomb.png;
#BACKGROUND:Atomic Bomb-bg.png;
#LYRICSPATH:;
#CDTITLE:cdtitle.png;
#MUSIC:Atomic Bomb.mp3;
#OFFSET:-2.000;
#SAMPLESTART:68.000;
#SAMPLELENGTH:12.000;
#SELECTABLE:YES;
#BPMS:0.000=120.000;
#STOPS:;
#BGCHANGES:;

//---------------dance-single - BASIC----------------
#NOTES:
     dance-single:
     BASIC:
     Easy:
     2:
     0.172,0.195,0.296,0.085,0.000:
0000
0000
0000
0000
,
0000
0000
0000
0000
,
0000
0000
0000
0000
,
0000
0000
0000
0000
,
0000
0000
0000
0000
,
0001
0000
0110
0000
,
1000
0000
0110
0000
,
0001
0000
0110
0000
,
1000
0000
0110
0000
,
0001
0000
0110
0000
,
1000
0000
0110
0000
,
0001
0000
0110
0000
,
1000
0000
0110
0000
,
1000
0000
0110
0000
,
1000
0000
0110
0000
,
0001
0000
0110
0000
,
0001
0000
0110
0000
,
1000
0000
1000
0000
,
1000
0000
1000
0000
,
0001
0000
0001
0000
,
0001
0000
0001
0000
,
0010
0000
0010
0000
,
0010
0000
0010
0000
,
0100
0000
0100
0000
,
0100
0000
0100
0000
,
0000
0100
0000
0001
,
0000
1000
0000
0010
,
0000
0100
0000
0010
,
0000
0010
0000
0010
,
0000
0010
0000
0010
,
0000
0100
0000
0100
,
0000
1001
0000
0010
,
0000
0010
0000
1001
,
2002
0000
3003
0000
,
0010
0000
0000
0000
,
2002
0000
3003
0000
,
0010
0000
0000
0000
,
2002
0000
3003
0000
,
0010
0000
0000
0000
,
2002
0000
3003
0000
,
0010
0000
0000
0000
,
1000
0000
0001
0000
,
0110
0000
1001
0000
,
0001
0000
1000
0000
,
0110
0000
1001
0000
,
1000
0000
0001
0000
,
0110
0000
1001
0000
,
0001
0000
1000
0000
,
0110
0000
1001
0000
,
1000
0000
1001
0000
,
0001
0000
0110
0000
,
1000
0000
0110
0000
,
0001
0000
1001
0000
,
1000
0000
1001
0000
,
0001
0000
0110
0000
,
1000
0000
0110
0000
,
0001
0000
1001
0000
,
2002
0000
3003
0000
;

//---------------dance-single - TRICK----------------
#NOTES:
     dance-single:
     TRICK:
     Medium:
     6:
     0.361,0.437,0.389,0.127,0.000:
0000
0000
0000
0000
,
0000
0000
0000
0000
,
0000
0000
0000
0000
,
0000
0000
0000
0000
,
0000
0000
0000
0000
,
0001
0000
0001
0100
1001
0000
1000
0001
,
1000
0000
1000
0100
1001
0000
0100
0000
,
0001
0000
0001
0100
1001
0000
1000
0001
,
1000
0000
1000
0100
1001
0000
0100
0000
,
0001
0000
0001
0010
1001
0000
1000
0001
,
1000
0000
1000
0010
1001
0000
0010
0000
,
0001
0000
0001
0010
1001
0000
1000
0001
,
1000
0000
1000
0010
1001
0000
0010
0000
,
0001
0000
0001
0100
0011
0000
1000
0100
,
1000
0000
1000
0100
1010
0000
1001
0000
,
0001
0000
0001
0100
0011
0000
1000
0100
,
1000
0000
1000
0100
1010
0000
1001
0000
,
0020
0100
0000
0001
,
0000
1000
0000
0100
,
0000
0001
0000
0001
,
0000
0100
0000
1000
,
0031
0000
0010
0000
,
0100
0000
1001
0000
,
0100
0000
0010
0000
,
0011
0000
0100
0000
,
1001
0010
0100
0001
,
0100
1000
0010
0100
,
0001
0100
1000
0010
,
0001
0010
0010
0100
,
0100
0010
1000
0100
,
0001
0010
0010
0100
,
0000
1001
0000
0010
,
0000
0010
0100
0110
,
1001
0000
0000
1000
0000
0000
0000
0000
,
0010
0001
0100
1000
0100
0001
0010
0000
,
1001
0000
0000
0001
0000
0000
0000
0000
,
0010
1000
0100
0001
0100
1000
0010
0000
,
1001
0000
0000
1000
0000
0000
0000
0000
,
0010
0001
0010
1000
0010
0001
0010
0000
,
1001
0000
0000
0001
0000
0000
0000
0000
,
0010
1000
0010
0001
0010
1000
0010
0000
,
1000
0000
0100
0001
0101
0000
0010
0000
,
0110
0000
0010
0001
0001
0100
0100
0010
,
0001
0000
1000
0100
1100
0000
0001
0000
,
0011
0000
0100
0100
0010
0010
1000
0100
,
0001
0000
1000
0100
0101
0000
0010
0000
,
0110
0000
0001
0001
0100
0100
1000
0010
,
0001
0000
1000
0100
1001
0000
0010
0000
,
0110
0001
2002
3003
,
0002
0100
0103
1000
2001
0000
3010
1000
,
0002
0103
0110
1001
,
2000
0100
3100
0001
1002
0000
0013
0001
,
2000
3100
0110
1001
,
0020
0100
0130
0001
1002
0000
1003
0100
,
0002
1003
0110
1001
,
0020
0100
0130
1000
2001
0000
3001
0100
,
2000
3001
0110
1001
,
1001
0000
0000
1001
0000
0000
0000
0000
;

//---------------dance-single - HEAVY----------------
#NOTES:
     dance-single:
     HEAVY:
     Hard:
     9:
     0.574,0.683,0.567,0.068,0.338:
0000
0000
0000
0000
,
0000
0000
0000
0000
,
0000
0000
0000
0000
,
0000
0000
0000
0000
,
0000
0000
0000
0000
,
0001
0000
0000
0100
1000
0000
0100
0000
1001
0000
0000
0000
1000
0000
0001
0000
,
0110
0000
0000
0000
1000
0000
0100
0000
1001
0000
0000
0010
0100
0000
1001
0000
,
1000
0000
0000
0100
0001
0000
0100
0000
1001
0000
0000
0000
0001
0000
1000
0000
,
0110
0000
0000
0000
0001
0000
0100
0000
1001
0000
0000
0010
0100
0000
1001
0000
,
0001
0000
0000
0100
0001
0000
0010
0000
1100
0000
0000
0000
1000
0000
0010
0000
,
0101
0000
0000
0000
1000
0000
0010
0000
1001
0000
0000
0100
1000
0000
1001
0000
,
1000
0000
0000
1000
0100
0000
0010
0000
0101
0000
0000
0000
0001
0000
0100
0000
,
1010
0000
0000
0000
0001
0000
0010
0000
1001
0000
0000
0100
0001
0000
1001
0000
,
0001
0000
0100
0001
0100
0000
0100
0000
1001
0000
0000
0000
0010
0000
0100
0000
,
1001
0000
0000
0000
0001
0000
0100
0000
1010
0000
1000
0001
1000
0000
1001
0000
,
1000
0000
0100
1000
0100
0000
0100
0000
1001
0000
0000
0000
0010
0000
0100
0000
,
1001
0000
0000
0000
1000
0000
0100
0000
0011
0000
0001
1000
0001
0000
1001
0000
,
1000
0000
0000
0100
0010
0000
0000
0000
0001
0000
0000
0000
0001
0000
0000
0100
,
0010
0000
0000
0000
1000
0000
0000
0000
1000
0000
0000
0100
0010
0000
0000
0000
,
0001
0000
0000
0000
0001
0000
0000
0100
0010
0000
0000
0000
1000
0000
0000
0000
,
1000
0000
0000
0100
0010
0000
0000
0000
0001
0000
0000
0000
0001
0000
0000
0000
,
1000
0000
0000
0100
0000
0000
0000
0000
0010
0000
0000
0001
0000
0100
0000
0000
,
0010
0000
0000
1000
0000
0000
0000
0000
0001
0000
0000
0100
0000
0010
0000
0000
,
0100
0000
0000
0010
0000
0100
0000
0000
1000
0000
0000
0100
0000
0001
0000
0000
,
0010
0000
0000
0100
0000
1000
0000
0000
0100
0000
1000
0000
0001
0000
0100
0000
,
1001
1000
0010
0100
0001
0010
0001
0100
,
0010
1000
0100
1000
0010
0100
0001
0100
,
0001
0010
0100
1000
0100
0010
0100
0001
,
1000
0001
0100
0010
0100
0001
0100
1000
,
1001
0010
0100
0010
0001
1000
0100
0010
,
0001
0100
0010
1000
0010
0100
0001
1000
,
0010
0100
0001
0100
0010
1000
0100
1000
,
0010
0001
0010
1000
0100
0010
0110
0000
,
0001
0001
0000
0000
0000
0000
1000
1000
0000
0000
0000
0000
0000
0000
0000
0000
,
0010
0010
0000
0001
0001
0000
1000
1000
0000
0100
0100
0000
0010
0010
0001
1000
,
1000
0001
0000
0000
0000
0000
1000
1000
0000
0000
0000
0000
0000
0000
0000
0000
,
0010
0010
0000
1000
1000
0000
0001
0001
0000
0100
0100
0000
0010
0010
1000
0001
,
0001
1000
0000
0000
0000
0000
1000
0001
0000
0000
0000
0000
0000
0000
0000
0000
,
0010
0100
0000
0100
1000
0000
1000
0010
0000
0010
0100
0000
0010
0100
0001
1000
,
0010
0001
0000
0000
0000
0000
0010
1000
0000
0000
0000
0000
0000
0000
0000
0000
,
0010
0001
0000
0001
0010
0000
0010
1000
0000
1000
0100
0010
0001
0100
0010
1000
,
0001
0000
0100
0001
0100
0000
0001
0000
0101
0000
0000
0000
0010
0000
1000
0000
,
1010
1000
0100
0001
0001
0100
1100
1000
,
1000
0000
0100
1000
0100
0000
1000
0000
1100
0000
0000
0000
0010
0000
0001
0000
,
0011
0001
0100
0100
1000
1000
0100
0101
,
0001
0000
0100
0001
0100
0000
0001
0000
0101
0000
0000
0000
0010
0000
1000
0000
,
1010
1000
0100
0001
0001
0100
1100
1000
,
1000
0000
0100
1000
0100
0000
1000
0000
1100
0000
0000
0000
0010
0000
0001
0000
,
0011
0001
0100
0100
1000
1000
0100
0101
,
0001
0000
0010
0100
1000
0000
0010
0000
2001
0000
0000
0000
3010
0000
1000
0000
,
0101
0000
0001
0010
0100
0000
1001
0000
0110
0010
1000
0000
1001
0000
1001
0000
,
1000
0000
0100
0010
0001
0000
0010
0000
1002
0000
0000
0000
0013
0000
0001
0000
,
1100
0000
1000
0010
0100
0000
1001
0000
0110
0010
0001
0000
1001
0000
1001
0000
,
0010
0000
0100
1000
0100
0000
0001
0000
1002
0000
0000
0000
1003
0000
1010
0000
,
0101
0000
0001
0010
0100
0000
1001
0000
1010
0010
0100
0000
1001
0000
0110
0000
,
0010
0000
0100
0001
0100
0000
1000
0000
2001
0000
0000
0000
3001
0000
0011
0000
,
1100
0000
1000
0010
0100
0000
1001
0000
0011
0010
0100
0000
1001
0000
1001
0000
,
1002
2000
0000
0000
3003
0000
2001
0002
0000
0000
3003
0000
0000
0000
0000
0000
;

//---------------dance-single - ONI----------------
#NOTES:
     dance-single:
     ONI:
     Challenge:
     10:
     0.926,1.000,1.000,0.846,0.867:
0000
0000
0000
0000
,
0000
0000
0000
0000
,
0000
0000
0000
0000
,
0000
0000
0000
0000
,
0000
0000
0000
0000
,
0001
0010
0001
0100
1000
0000
0100
0000
1001
0000
0000
0000
0110
0000
1001
0000
,
0110
0010
0100
0010
1000
0000
0110
0000
1001
1000
0001
0010
0100
0000
1001
0000
,
1000
0010
1000
0100
0001
0000
0100
0000
1001
0000
0000
0000
0110
0000
1001
0000
,
0110
0200
0000
0310
0001
0010
0100
0000
1001
1000
0001
0010
0100
0000
1001
0000
,
1001
0000
0001
0100
0001
0000
0010
0000
1100
0000
0000
0000
1010
0000
1001
0000
,
0101
0001
1000
0010
1000
0000
1010
0000
1001
1000
0010
0100
0001
0000
1001
0000
,
1000
0000
0100
1000
0100
0000
0010
0000
0101
0000
0000
0000
0011
0000
1001
0000
,
1010
2000
0000
3010
0001
0010
1000
0000
1001
0001
0010
0100
1000
0000
1001
0000
,
0101
0000
0100
0001
0100
0000
0101
0000
2002
0000
3003
0000
0110
0000
0110
0000
,
1001
1000
0010
1000
0001
0000
0101
0000
1010
0010
1000
0001
1000
0000
1001
0000
,
1001
0000
0100
1000
0100
0000
1100
0000
2002
0000
3003
0000
0110
0000
1001
0000
,
1001
0002
0000
0013
1000
0010
0001
0000
1001
0000
0001
1000
0001
0000
1001
0000
,
1001
0000
0000
0100
0010
0001
0000
0001
0000
0001
0000
0001
0100
0010
0000
1000
,
0000
1000
0000
1000
0100
0010
0000
0001
0000
0001
0000
0100
0010
0000
1000
0000
,
0001
0000
0000
0010
0100
0001
0000
0100
0000
0010
0000
0001
1000
0100
0000
1000
,
0000
0010
0000
0100
0010
1000
0000
0001
0000
0100
0000
0010
1000
0000
0001
0000
,
1001
0000
0000
1100
0000
0110
0000
0000
0110
0000
0000
0101
0000
0110
0000
0000
,
1001
0000
0000
1100
0000
1001
0000
0000
0101
0000
0000
0110
0000
1010
0000
0000
,
1100
0000
0000
1001
0000
0011
0000
0000
1001
0000
0000
1010
0000
0101
0000
0000
,
0011
0000
0000
0110
0000
1001
0000
0000
1001
0000
1000
0010
0100
0001
1000
0001
,
1001
0000
0000
1000
0010
0000
1000
0000
0001
0010
0000
0001
0100
0010
0000
0000
,
1000
0000
0000
0010
0100
0001
0010
0000
0100
1000
0000
0001
0010
0100
0010
0000
,
0001
0000
0100
0010
1000
0100
0000
0100
0001
0000
0100
1000
0010
1000
0000
0010
,
1000
0000
0001
0100
0010
0100
0000
0010
1000
0000
0001
0100
0010
1000
0001
1000
,
1001
0000
0000
0001
0010
0000
0001
0000
1000
0010
0000
1000
0100
0010
0000
0000
,
0001
0000
0000
0010
0100
1000
0010
0000
0100
0001
0000
1000
0010
0100
0010
0000
,
1000
0000
0100
0010
0001
0100
0000
0100
1000
0000
0100
0001
0010
0001
0000
0010
,
0001
0000
1000
0100
0010
0100
0000
0010
0001
0000
1000
0100
0010
0001
1000
0001
,
0020
0000
0030
0000
0000
0000
0000
0000
0000
0000
0000
0000
0020
0000
0000
0000
0000
0000
0000
0000
0000
0000
0000
0000
0000
0000
0000
0000
0000
0000
0000
0000
0000
0000
0000
0000
0000
0000
0000
0000
0000
0000
0000
0000
0000
0000
0000
0000
0000
0000
0000
0000
0000
0000
0000
0000
0000
0000
0000
0000
0000
0000
0000
0000
0000
0000
0000
0000
0000
0000
0000
0000
0200
0000
0300
0000
0000
0000
0000
0000
0000
0000
0000
0000
0200
0000
0000
0000
0000
0000
0000
0000
0000
0000
0000
0000
0000
0000
0000
0000
0000
0000
0000
0000
0000
0000
0000
0000
0000
0000
0000
0000
0000
0000
0000
0000
0000
0000
0000
0000
0000
0000
0000
0000
0000
0000
0000
0000
0000
0000
0000
0000
0000
0000
0000
0000
0000
0000
0000
0000
0000
0000
0000
0000
0030
0000
0000
0000
0000
0000
0000
0000
0000
0000
0000
0000
0000
0000
0000
0000
0000
0000
0000
0000
0000
0000
0000
0000
0000
0000
0000
0000
0000
0000
0000
0000
0000
0000
0000
0000
0000
0000
0000
0000
0000
0000
0000
0000
0000
0000
0000
0000
,
0320
0000
0030
0000
0000
0000
0000
0000
0000
0000
0000
0000
0020
0000
0000
0000
0000
0000
0000
0000
0000
0000
0000
0000
0000
0000
0000
0000
0000
0000
0000
0000
0000
0000
0000
0000
0032
0000
0003
0000
0000
0000
0000
0000
0000
0000
0000
0000
0002
0000
0000
0000
0000
0000
0000
0000
0000
0000
0000
0000
0000
0000
0000
0000
0000
0000
0000
0000
0000
0000
0000
0000
2003
0000
3000
0000
0000
0000
0000
0000
0000
0000
0000
0000
2000
0000
0000
0000
0000
0000
0000
0000
0000
0000
0000
0000
0000
0000
0000
0000
0000
0000
0000
0000
0000
0000
0000
0000
3200
0000
0300
0000
0000
0000
0000
0000
0000
0000
0000
0000
0200
0000
0000
0000
0000
0000
0000
0000
0000
0000
0000
0000
0000
0000
0000
0000
0000
0000
0000
0000
0000
0000
0000
0000
0320
0000
0030
0000
0000
0000
0000
0000
0000
0000
0000
0000
0020
0000
0000
0000
0000
0000
0000
0000
0000
0000
0000
0000
0002
0000
0003
0000
0000
0000
0000
0000
0000
0000
0000
0000
2030
0000
3000
0000
0000
0000
0000
0000
0000
0000
0000
0000
,
0002
0000
0003
0000
0000
0000
0000
0000
0000
0000
0000
0000
0002
0000
0000
0000
0000
0000
0000
0000
0000
0000
0000
0000
0000
0000
0000
0000
0000
0000
0000
0000
0000
0000
0000
0000
0000
0000
0000
0000
0000
0000
0000
0000
0000
0000
0000
0000
0000
0000
0000
0000
0000
0000
0000
0000
0000
0000
0000
0000
0000
0000
0000
0000
0000
0000
0000
0000
0000
0000
0000
0000
2000
0000
3000
0000
0000
0000
0000
0000
0000
0000
0000
0000
2000
0000
0000
0000
0000
0000
0000
0000
0000
0000
0000
0000
0000
0000
0000
0000
0000
0000
0000
0000
0000
0000
0000
0000
0000
0000
0000
0000
0000
0000
0000
0000
0000
0000
0000
0000
0000
0000
0000
0000
0000
0000
0000
0000
0000
0000
0000
0000
0000
0000
0000
0000
0000
0000
0000
0000
0000
0000
0000
0000
0003
0000
0000
0000
0000
0000
0000
0000
0000
0000
0000
0000
0000
0000
0000
0000
0000
0000
0000
0000
0000
0000
0000
0000
0000
0000
0000
0000
0000
0000
0000
0000
0000
0000
0000
0000
0000
0000
0000
0000
0000
0000
0000
0000
0000
0000
0000
0000
,
3020
0000
0030
0000
0000
0000
0000
0000
0000
0000
0000
0000
0020
0000
0000
0000
0000
0000
0000
0000
0000
0000
0000
0000
0000
0000
0000
0000
0000
0000
0000
0000
0000
0000
0000
0000
2030
0000
3000
0000
0000
0000
0000
0000
0000
0000
0000
0000
2000
0000
0000
0000
0000
0000
0000
0000
0000
0000
0000
0000
0000
0000
0000
0000
0000
0000
0000
0000
0000
0000
0000
0000
3002
0000
0003
0000
0000
0000
0000
0000
0000
0000
0000
0000
0002
0000
0000
0000
0000
0000
0000
0000
0000
0000
0000
0000
0000
0000
0000
0000
0000
0000
0000
0000
0000
0000
0000
0000
0203
0000
0300
0000
0000
0000
0000
0000
0000
0000
0000
0000
0200
0000
0000
0000
0000
0000
0000
0000
0000
0000
0000
0000
0000
0000
0000
0000
0000
0000
0000
0000
0000
0000
0000
0000
0320
0000
0030
0000
0000
0000
0000
0000
0000
0000
0000
0000
0020
0000
0000
0000
0000
0000
0000
0000
0000
0000
0000
0000
2000
0000
3000
0000
0000
0000
0000
0000
0000
0000
0000
0000
0032
0000
0003
0000
0000
0000
0000
0000
0000
0000
0000
0000
,
2000
0000
3000
0000
0000
0000
0000
0000
0000
0000
0000
0000
0002
0000
0000
0000
0000
0000
0000
0000
0000
0000
0000
0000
0000
0000
0000
0000
0000
0000
0000
0000
0000
0000
0000
0000
0003
0000
0000
0000
0000
0000
0000
0000
0000
0000
0000
0000
0000
0000
0000
0000
0000
0000
0000
0000
0000
0000
0000
0000
0000
0000
0000
0000
0000
0000
0000
0000
0000
0000
0000
0000
0002
0000
0003
0000
0000
0000
0000
0000
0000
0000
0000
0000
2000
0000
0000
0000
0000
0000
0000
0000
0000
0000
0000
0000
0000
0000
0000
0000
0000
0000
0000
0000
0000
0000
0000
0000
3000
0000
0000
0000
0000
0000
0000
0000
0000
0000
0000
0000
0000
0000
0000
0000
0000
0000
0000
0000
0000
0000
0000
0000
0000
0000
0000
0000
0000
0000
0000
0000
0000
0000
0000
0000
0010
0000
0000
0000
0000
0000
0000
0000
0000
0000
0000
0000
0100
0000
0000
0000
0000
0000
0000
0000
0000
0000
0000
0000
0001
0000
0000
0000
0000
0000
0000
0000
0000
0000
0000
0000
1000
0000
0000
0000
0000
0000
0000
0000
0000
0000
0000
0000
,
0020
0000
0030
0000
0000
0000
0000
0000
0000
0000
0000
0000
0200
0000
0300
0000
0000
0000
0000
0000
0000
0000
0000
0000
0000
0000
0000
0000
0000
0000
0000
0000
0000
0000
0000
0000
0200
0000
0300
0000
0000
0000
0000
0000
0000
0000
0000
0000
2000
0000
3000
0000
0000
0000
0000
0000
0000
0000
0000
0000
0000
0000
0000
0000
0000
0000
0000
0000
0000
0000
0000
0000
2000
0000
3000
0000
0000
0000
0000
0000
0000
0000
0000
0000
0020
0000
0030
0000
0000
0000
0000
0000
0000
0000
0000
0000
0000
0000
0000
0000
0000
0000
0000
0000
0000
0000
0000
0000
0020
0000
0030
0000
0000
0000
0000
0000
0000
0000
0000
0000
0200
0000
0300
0000
0000
0000
0000
0000
0000
0000
0000
0000
0000
0000
0000
0000
0000
0000
0000
0000
0000
0000
0000
0000
0020
0000
0030
0000
0000
0000
0000
0000
0000
0000
0000
0000
0200
0000
0300
0000
0000
0000
0000
0000
0000
0000
0000
0000
0002
0000
0003
0000
0000
0000
0000
0000
0000
0000
0000
0000
2000
0000
3000
0000
0000
0000
0000
0000
0000
0000
0000
0000
,
0020
0000
0030
0000
0000
0000
0000
0000
0000
0000
0000
0000
0002
0000
0003
0000
0000
0000
0000
0000
0000
0000
0000
0000
0000
0000
0000
0000
0000
0000
0000
0000
0000
0000
0000
0000
0000
0000
0000
0000
0000
0000
0000
0000
0000
0000
0000
0000
0000
0000
0000
0000
0000
0000
0000
0000
0000
0000
0000
0000
0000
0000
0000
0000
0000
0000
0000
0000
0000
0000
0000
0000
0020
0000
0030
0000
0000
0000
0000
0000
0000
0000
0000
0000
2000
0000
3000
0000
0000
0000
0000
0000
0000
0000
0000
0000
0000
0000
0000
0000
0000
0000
0000
0000
0000
0000
0000
0000
0000
0000
0000
0000
0000
0000
0000
0000
0000
0000
0000
0000
0000
0000
0000
0000
0000
0000
0000
0000
0000
0000
0000
0000
0010
0000
0000
0000
0000
0000
0000
0000
0000
0000
0000
0000
1000
0000
0000
0000
0000
0000
0000
0000
0000
0000
0000
0000
0010
0000
0000
0000
0000
0000
0000
0000
0000
0000
0000
0000
1000
0000
0000
0000
0000
0000
0000
0000
0000
0000
0000
0000
0100
0000
0000
0000
0000
0000
0000
0000
0000
0000
0000
0000
,
0020
0000
0030
0000
0000
0000
0000
0000
0000
0000
0000
0000
0002
0000
0003
0000
0000
0000
0000
0000
0000
0000
0000
0000
0000
0000
0000
0000
0000
0000
0000
0000
0000
0000
0000
0000
0002
0000
0003
0000
0000
0000
0000
0000
0000
0000
0000
0000
0020
0000
0030
0000
0000
0000
0000
0000
0000
0000
0000
0000
0000
0000
0000
0000
0000
0000
0000
0000
0000
0000
0000
0000
0020
0000
0030
0000
0000
0000
0000
0000
0000
0000
0000
0000
2000
0000
3000
0000
0000
0000
0000
0000
0000
0000
0000
0000
0000
0000
0000
0000
0000
0000
0000
0000
0000
0000
0000
0000
2000
0000
3000
0000
0000
0000
0000
0000
0000
0000
0000
0000
0200
0000
0300
0000
0000
0000
0000
0000
0000
0000
0000
0000
0020
0000
0030
0000
0000
0000
0000
0000
0000
0000
0000
0000
0002
0000
0003
0000
0000
0000
0000
0000
0000
0000
0000
0000
0200
0000
0300
0000
0000
0000
0000
0000
0000
0000
0000
0000
0020
0000
0030
0000
0000
0000
0000
0000
0000
0000
0000
0000
2000
0000
3000
0000
0000
0000
0000
0000
0000
0000
0000
0000
,
2002
3003
0000
0000
0000
0000
0000
0000
0000
0000
0000
0000
0000
0000
0000
0000
0000
0000
0000
0000
0000
0000
0000
0000
0001
0000
0000
0000
0000
0000
0000
0000
0000
0000
0000
0000
0100
0000
0000
0000
0000
0000
0000
0000
0000
0000
0000
0000
0001
0000
0000
0000
0000
0000
0000
0000
0000
0000
0000
0000
0000
0000
0000
0000
0000
0000
0000
0000
0000
0000
0000
0000
1001
0000
0000
0000
0000
0000
0000
0000
0000
0000
0000
0000
0000
0000
0000
0000
0000
0000
0000
0000
0000
0000
0000
0000
1100
0000
0000
0000
0000
0000
0000
0000
0000
0000
0000
0000
0000
0000
0000
0000
0000
0000
0000
0000
0000
0000
0000
0000
0000
0000
0000
0000
0000
0000
0000
0000
0000
0000
0000
0000
0000
0000
0000
0000
0000
0000
0000
0000
0000
0000
0000
0000
1010
0000
0000
0000
0000
0000
0000
0000
0000
0000
0000
0000
0000
0000
0000
0000
0000
0000
0000
0000
0000
0000
0000
0000
1001
0000
0000
0000
0000
0000
0000
0000
0000
0000
0000
0000
0000
0000
0000
0000
0000
0000
0000
0000
0000
0000
0000
0000
,
0101
0001
1000
0010
1000
0000
1010
0000
1001
1000
0010
0100
0001
0000
1001
0000
,
1000
0000
0100
1000
0100
0000
1001
0000
0101
0000
0000
0000
0011
0000
1001
0000
,
1010
2000
0000
3010
0001
0010
1000
0000
1001
0001
0010
0100
1000
0000
1001
0000
,
0101
0000
0100
0001
0100
0000
0101
0000
2002
0000
3003
0000
0110
0000
0110
0000
,
1001
1000
0010
1000
0001
0000
0101
0000
1010
0010
1000
0001
1000
0000
1001
0000
,
1001
0000
0100
1000
0100
0000
1100
0000
2002
0000
3003
0000
0110
0000
1001
0000
,
1001
0002
0000
0013
1000
0010
0001
0000
1001
0000
0001
1000
0001
0000
1001
0000
,
1001
0000
0001
1000
1001
0000
0110
0000
2002
0000
3003
0000
0110
0000
0101
0000
,
1010
1000
0010
0100
0010
1000
1001
0000
0110
0010
1000
0001
1001
0000
1001
0000
,
1001
0000
1000
0001
1001
0000
0110
0000
2002
0000
3003
0000
0110
0000
1100
0000
,
0011
0002
0000
0103
0010
0001
1001
0000
0110
0010
1000
0001
1001
0000
1001
0000
,
1001
0000
1000
0100
1001
0000
0110
0000
2002
0000
3003
0000
0110
0000
1100
0000
,
0011
0001
0010
0100
0010
0001
1001
0000
1010
0010
0100
0001
1001
0000
0110
0000
,
1001
0000
0001
0100
1001
0000
0110
0000
2002
0000
3003
0000
0110
0000
0101
0000
,
1010
2000
0000
3010
0100
1000
1001
0000
0110
0100
0001
1000
1001
0000
2002
3003
,
2002
3000
0000
0000
2000
0000
0000
0000
0000
0000
3003
0000
0000
0000
2002
0000
0000
0000
0000
0000
0000
0000
3003
0000
2002
0003
0000
0000
0002
0000
0000
0000
0000
0000
0000
0000
0000
0000
0000
0000
3003
0000
0000
0000
0000
0000
0000
0000
0000
0000
0000
0000
0000
0000
0000
0000
0000
0000
0000
0000
0000
0000
0000
0000
;

//---------------dance-double - ----------------
#NOTES:
     dance-double:
     :
     Hard:
     9:
     0.550,0.561,0.711,0.220,0.195: // measure 1
00000000
00000000
00000000
00000000
,  // measure 2
00000000
00000000
00000000
00000000
,  // measure 3
00000000
00000000
00000000
00000000
,  // measure 4
00000000
00000000
00000000
00000000
,  // measure 5
00000000
00000000
00000000
00000000
,  // measure 6
10000000
01000000
00010000
00000000
00000000
00000000
01000000
00000000
01100000
00000000
00000000
00000000
00001000
00000000
00010000
00000000
,  // measure 7
00000010
00000000
00000000
00000100
00000010
00000000
00001000
00000000
00001001
00000000
00000100
00000000
00000110
00000000
00000000
00000000
,  // measure 8
00001100
00000000
00000000
00010000
00000100
00000000
00000010
00000000
00001100
00000000
00000000
00000000
00000000
00000000
00000001
00000000
,  // measure 9
00000101
00000000
00001010
00000000
00010000
00001000
00011000
00000000
,  // measure 10
00100000
00000000
00010000
00100000
01000000
00000000
10000000
00000000
11000000
00000000
00000000
00000000
00100000
00000000
01000000
00000000
,  // measure 11
00110000
00000000
01000000
00010000
00011000
00001000
00000110
00000000
,  // measure 12
00001001
00000000
00000100
00000010
00000001
00000000
00000100
00000000
00001010
00000000
00000000
00000000
00001000
00000000
01000000
00000000
,  // measure 13
00110000
00000000
00000000
00000000
11000000
00000000
01000000
00000000
01100000
00000000
00000000
00010000
00001000
00000000
00010000
00000000
,  // measure 14
00010010
00000000
00001100
00000001
00001100
00000000
00000011
00000100
,  // measure 15
00001010
00000000
00000100
00010000
00001000
00000000
00000000
00000000
00101000
00000000
00010000
00000000
11000000
00000000
00000000
00000000
,  // measure 16
01000000
00000000
00001000
00010000
00100000
00000000
01000000
00000000
01100000
00000000
00000000
00000000
10000000
00000000
01000000
00000000
,  // measure 17
01100000
00010000
00011000
00000000
00000110
00000000
00010000
00000010
,  // measure 18
00000120
00000001
00001000
00000100
,  // measure 19
00020030
00001000
01000000
00100000
,  // measure 20
02030000
00010000
00100000
10000000
,  // measure 21
03020000
00000000
00100000
00000000
00001000
00000000
01000000
00030000
,  // measure 22
00010000
00001000
00000100
00000010
00000000
00001000
00001001
00000000
,  // measure 23
00000001
00000100
00000010
00010000
00000000
00001000
01001000
00000000
,  // measure 24
00010000
00001000
01000000
00100000
00010000
10000000
00100000
00000000
,  // measure 25
02001000
00000000
00000000
03010000
00001000
00000100
00000001
00000000
,  // measure 26
00000010
00001000
00000101
00001000
00000001
00000100
00001010
00010000
,  // measure 27
00001000
00000100
00011000
00001000
00000100
00010000
00101000
00010000
,  // measure 28
01000000
00100000
01010000
10000000
01000000
00010000
00101000
00010000
,  // measure 29
00001000
00000100
00010010
00001000
00000001
00000100
00001010
00010000
,  // measure 30
00000100
00000000
00000110
00000000
00001001
00000100
00000110
00000000
,  // measure 31
00011000
00000000
00000110
00000000
00011000
00100000
01100000
00000000
,  // measure 32
10010000
01000000
01010000
00000000
00001000
01000000
01100000
00000000
,  // measure 33
12000000
00000000
00000000
03100000
00001000
00010000
00010100
00000100
,  // measure 34
00000020
00000200
00000000
00000000
00000330
00000000
00000200
00000002
00000000
00000000
00000000
00000000
00000000
00000000
00000303
00000000
,  // measure 35
00001000
00000100
00000000
00000100
00010000
00000000
00011000
00000000
00001000
00100000
00000000
00100000
00010000
00000000
10010000
00000000
,  // measure 36
20000000
02000000
00000000
00000000
33000000
00000000
02000000
00200000
00000000
00000000
00000000
00000000
00000000
00000000
03300000
00000000
,  // measure 37
00100000
00001000
00000000
00001000
00010000
00000000
00011000
00000000
00010000
00000010
00000000
00000010
00000100
00000000
00000101
00000000
,  // measure 38
00000002
00000020
00000000
00000000
00000033
00000000
00000200
00002000
00000000
00000000
00000000
00000000
00000000
00000000
00003300
00000000
,  // measure 39
00010000
00001000
00000000
00001000
00100000
00000000
01100000
00000000
01000000
10000000
00000000
10000000
00010000
00000000
01010000
00000000
,  // measure 40
02000000
00002000
00000000
00000000
03003000
00000000
00000020
00000200
00000000
00000000
00000000
00000000
00000000
00000000
00000330
00000000
,  // measure 41
00000001
00001000
00000000
00001000
00000100
00000000
00001100
00000000
00000100
00010000
00000000
00010000
00000010
00000000
00000110
00000000
,  // measure 42
00000010
00000000
00000100
00001000
00000010
00000000
00010000
00000000
00011000
00000000
00000000
00000000
00100000
00000000
01000000
00000000
,  // measure 43
11000000
00000000
00000000
10000000
01000000
00000000
00100000
00000000
00101000
00000000
00000000
00000000
00001000
00000000
00010000
00000000
,  // measure 44
00000010
00000000
00000100
00000001
00001000
00000000
00000100
00000000
00000110
00000000
00000000
00000000
00000001
00000000
00000100
00000000
,  // measure 45
00001010
00000000
00000000
00000100
00010000
00000000
00000000
00000000
00001000
00000000
00100000
00000000
00010000
00000000
10000000
00000000
,  // measure 46
01000000
00000000
00000000
01000000
00100000
00000000
00001000
00000000
00010000
00000000
00000000
00000000
00000010
00000000
00000100
00000000
,  // measure 47
00001001
00000000
00000100
00000010
00000110
00001000
00001100
00000000
,  // measure 48
00010000
00000000
00001000
00010000
00001000
00000000
00000000
00000000
00100000
00010000
00100000
00000000
11000000
00000000
00000000
00000000
,  // measure 49
01100000
00000000
00011000
00000000
00000110
00001000
00011000
00000000
,  // measure 50
00000100
00000000
00000000
00000010
00000001
00000000
00000000
00000000
00001000
00000000
00000000
00000000
00000110
00000000
00000100
00000000
,  // measure 51
00010100
00000000
00010000
00001000
00101000
00000000
00100000
00010000
,  // measure 52
10000000
00000000
01000000
00010000
00001000
00000000
00010000
00000000
01000000
00000000
00000000
00000000
00100000
00000000
00001000
00000000
,  // measure 53
00011000
00000000
00010010
00000000
00000100
00000010
00001000
00000001
,  // measure 54
00000110
00000000
00001001
00000100
00000110
00000000
00010000
00000010
,  // measure 55
00011000
00000000
00101000
00000000
00010000
10000000
01100000
00000000
,  // measure 56
00010000
00000000
00001000
00000000
00000100
00000000
00000010
00000000
00001000
00000001
00000010
00000000
00000100
00000000
00000000
00000000
,  // measure 57
00001000
00000000
00000010
00010000
00001000
00000000
00000000
00000000
00100000
00010000
10000000
00000000
01000000
00000000
00010000
00000000
,  // measure 58
00002000
00000200
00000000
00000000
00003300
00000000
00000002
00000200
00000000
00000000
00000303
00000000
00000000
00000000
00000000
00000000
;

//---------------dance-double - ----------------
#NOTES:
     dance-double:
     :
     Easy:
     4:
     0.302,0.390,0.482,0.068,0.000: // measure 1
00000000
00000000
00000000
00000000
,  // measure 2
00000000
00000000
00000000
00000000
,  // measure 3
00000000
00000000
00000000
00000000
,  // measure 4
00000000
00000000
00000000
00000000
,  // measure 5
00000000
00000000
00000000
00000000
,  // measure 6
00001000
01000000
01001000
00000000
,  // measure 7
00010000
00010100
00000100
00000010
,  // measure 8
00001001
00000100
00000010
00000000
,  // measure 9
00001100
00010000
00001000
00000100
,  // measure 10
00011000
01000000
00100000
00000000
,  // measure 11
00110000
00000000
11000000
00100000
,  // measure 12
01000000
01001000
00100000
00000000
,  // measure 13
00011000
00000010
00000110
00001001
,  // measure 14
00001200
00000000
00010300
00000101
,  // measure 15
00010000
00000100
00010000
00001000
,  // measure 16
12000000
00000000
03010000
11000000
,  // measure 17
00001000
01000000
00010000
00001100
,  // measure 18
00010010
00000000
00000100
00000000
,  // measure 19
00001000
00000000
01000000
00000000
,  // measure 20
10100000
00000000
01000000
00000000
,  // measure 21
00010000
00000000
00000100
00000000
,  // measure 22
00000110
00000001
00000110
00001000
,  // measure 23
00010000
01100000
10000000
01100000
,  // measure 24
00011000
00000010
00000101
00000010
,  // measure 25
00010000
00001100
00010000
01100000
,  // measure 26
10000000
02000000
00100000
03100000
,  // measure 27
00010000
00002000
00000100
00003100
,  // measure 28
00000010
00000002
00001000
00001003
,  // measure 29
00000100
00020000
00000010
00030010
,  // measure 30
00001000
01000000
00100000
01100000
,  // measure 31
10000000
01000000
00010000
00011000
,  // measure 32
01000000
00001000
00000010
00010010
,  // measure 33
00000010
00000000
00000100
00000101
,  // measure 34
00010000
00000000
00000000
00001000
00000000
00000000
00000000
00000000
,  // measure 35
01100000
01100000
10010000
10010000
,  // measure 36
01000000
00000000
00000000
00001000
00000000
00000000
00000000
00000000
,  // measure 37
00011000
00011000
00000110
00000110
,  // measure 38
00001000
00000000
00000000
01000000
00000000
00000000
00000000
00000000
,  // measure 39
00110000
00110000
11000000
11000000
,  // measure 40
00010000
00000000
00000000
01000000
00000000
00000000
00000000
00000000
,  // measure 41
01001000
01001000
00010100
00010100
,  // measure 42
00000010
00000110
00001001
00000100
,  // measure 43
00000110
00010000
00001000
00100000
,  // measure 44
01000000
10000000
01100000
00001000
,  // measure 45
00010000
00000110
00000001
00000100
,  // measure 46
00010010
00000100
00001000
00000010
,  // measure 47
00010000
00011000
00100000
01000000
,  // measure 48
00101000
01000000
00010000
00000000
,  // measure 49
00100000
01100000
10000000
00010000
,  // measure 50
01000000
01000000
00001000
00001000
,  // measure 51
00010000
00000010
00000100
00000110
,  // measure 52
00000100
00000100
00000001
00000001
,  // measure 53
00001000
00000010
00010000
00011000
,  // measure 54
00100000
01000000
00001000
00010000
,  // measure 55
00001000
01000000
10000000
00100000
,  // measure 56
00001000
00010000
00000100
00000010
,  // measure 57
00000100
00000001
00000010
00010000
,  // measure 58
00002000
00000000
00000000
00000200
00000000
00003300
00000000
00000000
;

//---------------dance-double - ----------------
#NOTES:
     dance-double:
     :
     Medium:
     6:
     0.342,0.341,0.415,0.186,0.000: // measure 1
00000000
00000000
00000000
00000000
,  // measure 2
00000000
00000000
00000000
00000000
,  // measure 3
00000000
00000000
00000000
00000000
,  // measure 4
00000000
00000000
00000000
00000000
,  // measure 5
00000000
00000000
00000000
00000000
,  // measure 6
01000000
00000000
10000000
01000000
01100000
00000000
00010000
00000000
,  // measure 7
00001000
00000100
00000010
00000000
00001000
00000000
00001001
00000000
,  // measure 8
00000011
00000000
00000100
00001000
00000010
00000000
00010010
00000000
,  // measure 9
00000100
00000000
00011000
00000000
00001000
00100000
00010000
00000000
,  // measure 10
10000000
01000000
00010000
00000000
00001000
00000000
01001000
00000000
,  // measure 11
00100000
00000000
00001000
01000000
00100000
00000000
00110000
00000000
,  // measure 12
00011000
00000000
00001000
00000100
00000001
00000000
00000110
00000000
,  // measure 13
00000100
00000000
00001100
00000000
00000001
00000100
00001000
00000000
,  // measure 14
00000020
00000000
00000000
00000100
00000130
00000000
00010000
00001000
,  // measure 15
00010000
00000000
01000000
01100000
,  // measure 16
00200000
00000000
00000000
00010000
00310000
00000000
10000000
01000000
,  // measure 17
20000000
00000000
00010000
30100000
,  // measure 18
02000000
00000000
00001000
03001000
,  // measure 19
00020000
00000000
00000100
00030100
,  // measure 20
00000020
00000000
00000001
00000031
,  // measure 21
00020000
00000000
00000010
00030010
,  // measure 22
00002000
01000000
00103000
01100000
,  // measure 23
20000000
01000000
30100000
01100000
,  // measure 24
00020000
00001000
00130000
00101000
,  // measure 25
00020000
00000000
00001000
00030100
,  // measure 26
00000010
00000110
00000001
00001000
,  // measure 27
00000100
00010100
00001000
00100000
,  // measure 28
00010000
10010000
10000000
00100000
,  // measure 29
01000000
01001000
00010000
01000000
,  // measure 30
00100000
00101000
00010000
00001000
,  // measure 31
00000100
00000110
00000001
00000100
,  // measure 32
00001000
00011000
00000010
00000100
,  // measure 33
00011000
00000000
01000000
00100000
,  // measure 34
20000000
00000000
00000000
00020000
00000000
00000000
30030000
00000000
,  // measure 35
01000000
00011000
00000100
00000010
,  // measure 36
00000002
00000000
00000000
00000200
00000000
00000000
00000303
00000000
,  // measure 37
00001000
00010100
00000010
00000100
,  // measure 38
00020000
00000000
00000000
00002000
00000000
00000000
00033000
00000000
,  // measure 39
01000000
00110000
01000000
10000000
,  // measure 40
00200000
00000000
00000000
20000000
00000000
00000000
30300000
00000000
,  // measure 41
00010000
01010000
00001000
00010000
,  // measure 42
00000110
00000100
00001000
00000011
,  // measure 43
00000100
00001000
00010000
00000000
01000000
00000000
01100000
00000000
,  // measure 44
10000000
00010000
00100000
00000000
01000000
00000000
01010000
00000000
,  // measure 45
00001000
00000000
00010000
00001000
00000100
00000000
00000110
00000000
,  // measure 46
00000001
00000010
00000100
00001000
00000010
00000100
00000001
00000000
,  // measure 47
00001000
00001100
00010000
00011000
,  // measure 48
00100000
01000000
00010000
00100000
01000000
10000000
00100000
00000000
,  // measure 49
01000000
01010000
10000000
11000000
,  // measure 50
01100000
00001000
00010000
00001100
,  // measure 51
00000110
00000001
00000010
00000100
,  // measure 52
00010100
00001000
01000000
01001000
,  // measure 53
00100000
00110000
11000000
00110000
,  // measure 54
11000000
01000000
00010000
01001000
,  // measure 55
00010000
00100000
00001000
00011000
,  // measure 56
00000110
00000001
00000010
00001100
,  // measure 57
00000210
00000000
00010000
00001300
,  // measure 58
00000002
00000000
00000000
00000200
00000000
00000303
00000000
00000000
;

//---------------dance-double - ----------------
#NOTES:
     dance-double:
     :
     Challenge:
     12:
     0.997,1.000,0.973,0.973,1.000: // measure 1
00000000
00000000
00000000
00000000
,  // measure 2
00000000
00000000
00000000
00000000
,  // measure 3
00000000
00000000
00000000
00000000
,  // measure 4
00000000
00000000
00000000
00000000
,  // measure 5
00000000
00000000
00000000
00000000
,  // measure 6
01000000
10000000
01000000
00010000
01100000
00010000
00100000
00000000
00102000
00000000
00000000
00000000
00013000
00000000
00000100
00000010
,  // measure 7
00001002
00000100
00000013
00000100
00002001
00000010
00003100
00000000
00020100
00001000
01030000
00100000
00010000
00100000
01000000
00000000
,  // measure 8
00010000
01000000
10000000
01000000
00010000
00100000
01000000
00000000
12000000
00000000
00000000
00000000
03020000
00000000
01000000
00000000
,  // measure 9
00130000
00010000
10000000
01000000
00010000
00002000
00000100
00000000
00000001
00003100
00001000
00010000
01000000
00100000
10000000
01000000
,  // measure 10
01100000
00100000
10000000
00010000
01000000
00001000
00010000
00000000
00012000
00000000
00000000
00000000
00003200
00000000
00000001
00000000
,  // measure 11
00001300
00000100
00000001
00000010
00010000
00000100
00000010
00000001
00000100
00001000
00010000
01000000
00100000
00010000
10000000
01000000
,  // measure 12
00010000
00100000
10000000
01000000
00001000
00100000
01000000
00000000
01020000
00000000
00000000
00000000
00230000
00000000
00001000
00000000
,  // measure 13
01300000
00100000
00000000
00010000
02000000
10000000
00100000
00000000
03001000
01000000
00100000
00010000
00001000
00000010
00000100
00000000
,  // measure 14
00010010
00001000
00000100
00000010
00010100
00001000
00000010
00000000
00000201
00000000
00000000
00000000
00002300
00000000
00000100
00000000
,  // measure 15
00013000
00000100
00000010
00010000
00001000
00100000
01000000
00000000
00010000
10000000
01000000
00100000
00010000
00001000
00000100
00000010
,  // measure 16
00001000
00000001
00000100
00000010
00010000
00001000
00000100
00000000
00001200
00000000
00000000
00000000
00020300
00000000
00001000
00000000
,  // measure 17
00130000
00010000
00000000
10000000
00200000
00010000
01000000
00000000
00301000
00100000
10000000
01000000
00010000
00100000
01000000
00000000
,  // measure 18
10020000
01000000
00032000
00000100
00023000
01000000
00032000
00000100
,  // measure 19
00023000
00100000
00032000
00000010
00023000
00100000
00032000
00000010
,  // measure 20
00023000
01000000
00032000
00000100
00023000
01000000
00032000
00000100
,  // measure 21
00023000
00000000
00100000
00000000
00032000
00000000
00000010
00000000
00023000
00000000
00100000
00000000
00032000
00000010
00003100
00001000
,  // measure 22
01010000
00000000
01000000
12000000
00000000
00010000
00000000
03000000
10010000
00000000
01000000
01100000
00000000
00202000
00000000
00303000
,  // measure 23
00000110
00000000
00001000
00001002
00000000
00000100
00000000
00000003
00001100
00000000
00010000
00010010
00000000
00020200
00000000
00030300
,  // measure 24
00011000
00000000
00010000
00110000
00000000
20200000
00000000
30300000
11000000
00000000
01000000
01010000
00000000
00022000
00000000
00033000
,  // measure 25
00000110
00000000
00001000
00001001
00000000
00002200
00000000
00003300
00010100
00000000
00010000
00001000
01000000
00010000
01000000
10000000
,  // measure 26
00100000
00010000
01000000
10010000
01000000
00010000
00001000
00000110
00000001
00001000
00000001
00000110
00001000
00010000
00001000
00010100
,  // measure 27
00000010
00000100
00001000
00010100
00100000
01000000
00100000
01010000
10000000
00100000
01000000
10100000
00010000
00001000
00000100
00001010
,  // measure 28
00000100
00000001
00000010
00001100
00010000
00000010
00000100
00001010
00000100
00000001
00001000
00000110
00001000
00010000
01000000
00110000
,  // measure 29
01000000
10000000
00100000
01010000
00100000
10000000
00010000
11000000
00100000
01000000
00010000
00101000
00000100
00000001
00001000
00000110
,  // measure 30
00001001
00001000
00000000
00000001
00000101
00000010
00001000
00000000
01010000
01000000
00000000
00100000
01100000
00010000
00001000
00000000
,  // measure 31
00110000
00100000
00000000
01000000
01100000
01000000
10000000
00000000
00110000
00010000
00000000
00001000
01001000
00010000
00100000
00000000
,  // measure 32
00010100
00000100
00000000
00000001
00000011
00001000
00000100
00000000
00001010
00000010
00000000
00000001
00000101
00000010
00001000
00000000
,  // measure 33
00011000
00001000
00000000
00100000
01100000
00000000
00010000
00100000
10000000
11000000
00000000
00010000
01010000
00001000
00010000
00001000
,  // measure 34
00000110
00000220
00000000
00000000
00000000
00000330
00001100
00002200
00000000
00000000
00000000
00000000
00000000
00000000
00000000
00003300
,  // measure 35
00011000
00011000
00000000
00100000
01000000
00100000
01000000
00100000
00011000
00011000
00000000
00000100
00000010
00000100
00000010
00000100
,  // measure 36
00010100
00020200
00000000
00000000
00000000
00030300
01010000
02020000
00000000
00000000
00000000
00000000
00000000
00000000
00000000
03030000
,  // measure 37
00011000
00011000
00000000
00000010
00000100
00000010
00000100
00000010
00011000
00011000
00000000
01000000
00100000
01000000
00100000
01000000
,  // measure 38
01010000
02020000
00000000
00000000
00000000
03030000
00001010
00002020
00000000
00000000
00000000
00000000
00000000
00000000
00000000
00003030
,  // measure 39
00011000
00011000
00000000
01000000
00100000
01000000
00100000
01000000
00011000
00011000
00000000
00000010
00000100
00000010
00000100
00000010
,  // measure 40
00010010
00020020
00000000
00000000
00000000
00030030
01001000
02002000
00000000
00000000
00000000
00000000
00000000
00000000
00000000
03003000
,  // measure 41
00011000
00011000
00000000
00000100
00000010
00000100
00000010
00000100
00011000
00011000
00000000
00100000
01000000
00100000
01000000
00100000
,  // measure 42
01010000
00000000
10000000
01000000
00001000
00100000
01000000
00000000
01010000
00000000
00000000
00000000
00011000
00000000
00000010
00000000
,  // measure 43
00000101
00000000
00001000
00000100
00000010
00000001
00000100
00000000
00000010
00001100
00010000
00000100
00011000
01000000
00100000
00000000
,  // measure 44
10010000
00000000
01000000
00100000
00011000
00000010
00000100
00000000
00001200
00000000
00000000
00000000
00000301
00000000
00000100
00000000
,  // measure 45
00000010
00001001
00000100
00000010
00001100
00010000
00000100
00000000
00001000
00110000
01000000
00100000
11000000
00010000
00100000
00000000
,  // measure 46
20000000
00000000
30010000
01000000
00200000
00000000
00310000
00000010
00002000
00000000
00003100
00000010
00000002
00000000
00001003
00000100
,  // measure 47
00000020
00000000
00000031
00001000
00000200
00000000
00010300
00000100
00002000
00000000
00003100
00001000
00200000
00000000
00310000
10000000
,  // measure 48
02000000
00000000
03100000
00001000
02000000
00000000
13000000
01000000
00020000
00000000
00130000
00001000
00020000
00000000
00031000
00000010
,  // measure 49
00000200
00000000
00000301
00000100
00002000
00000000
00013000
00000010
00000200
00000000
00001300
00010000
02000000
00100000
13000000
01000000
,  // measure 50
00200000
00000000
00301000
00010000
00000020
00000000
00000130
00001000
00000020
00000000
00000031
00000100
00002000
00000000
00013000
00100000
,  // measure 51
02000000
00000000
03010000
00001000
00000200
00000000
00000310
00001000
02000000
00000000
03010000
10000000
02000000
00000000
03010000
00001000
,  // measure 52
00000020
00000000
00000031
00000100
00000020
00000000
00001030
00010000
00000200
00000000
00010300
00100000
02000000
00000000
13000000
00010000
,  // measure 53
02000000
00000000
03100000
10000000
02000000
00000000
03001000
00010000
02000000
00000000
03010000
00100000
00002000
00000000
00013000
00000100
,  // measure 54
00000020
00000000
00001030
00000001
00000200
00000000
00000310
00010000
00000200
00000000
00001300
00010000
00000200
00000000
00010300
00000100
,  // measure 55
00000020
00000000
00000031
00001000
00000020
00000000
00010030
00000000
00000020
00000100
00001030
00010000
02000000
00010000
13000000
00010000
,  // measure 56
00200000
00000000
10300000
01000000
00200000
00000000
00301000
00010000
00200000
00000000
00310000
00001000
00000200
00000000
00000310
00001000
,  // measure 57
00000200
00000000
00000301
00000100
00002000
00000000
00013000
00000010
00000200
00000000
00001300
00010000
02000000
00000000
00020000
03030000
,  // measure 58
00001100
00022000
00000000
00000000
00000000
00033000
01010000
00022000
00000000
00000000
00033000
00000000
00000000
00000000
00000000
00000000
;

//---------------dance-single - ----------------
#NOTES:
     dance-single:
     :
     Beginner:
     1:
     0.103,0.145,0.093,0.000,0.000:
0000
0000
0000
0000
,
0000
0000
0000
0000
,
0000
0000
0000
0000
,
0000
0000
0000
0000
,
0000
0000
0000
0000
,
0001
0000
1000
0000
,
1000
0000
1000
0000
,
0001
0000
1000
0000
,
1000
0000
1000
0000
,
0001
0000
1000
0000
,
1000
0000
1000
0000
,
0001
0000
1000
0000
,
0001
0000
0001
0000
,
0100
0000
0010
0000
,
0010
0000
0010
0000
,
0100
0000
0010
0000
,
0010
0000
0010
0000
,
0100
0000
0000
0000
,
0000
0000
0000
0000
,
0000
0000
0000
0000
,
0000
0000
0000
0000
,
0100
0000
0010
0000
,
0010
0000
0010
0000
,
0100
0000
0010
0000
,
0010
0000
0010
0000
,
1000
0000
0001
0000
,
1000
0000
0001
0000
,
0100
0000
0010
0000
,
0100
0000
0010
0000
,
0001
0000
1000
0000
,
0010
0000
0100
0000
,
1000
0000
0100
0000
,
0010
0000
0001
0000
,
1001
0000
0000
0000
,
0110
0000
0000
0000
,
0110
0000
0000
0000
,
1001
0000
0000
0000
,
1001
0000
0000
0000
,
0110
0000
0000
0000
,
0110
0000
0000
0000
,
1001
0000
0000
0000
,
1000
0000
0000
0000
,
0001
0000
0000
0000
,
1000
0000
0000
0000
,
0001
0000
0000
0000
,
0100
0000
0000
0000
,
0110
0000
0000
0000
,
0010
0000
0000
0000
,
0110
0000
0000
0000
,
1000
0000
0000
0000
,
0100
0000
0000
0000
,
0001
0000
0000
0000
,
0010
0000
0000
0000
,
1000
0000
0000
0000
,
0001
0000
0000
0000
,
0010
0000
0000
0000
,
0100
0000
0000
0000
,
1001
0000
0000
0000
;
