#TITLE:Arcadia;
#SUBTITLE:;
#ARTIST:HaL feat. riri;
#TITLETRANSLIT:;
#SUBTITLETRANSLIT:;
#ARTISTTRANSLIT:;
#CREDIT:;
#BANNER:Arcadia.png;
#BACKGROUND:Arcadia-bg.png;
#LYRICSPATH:;
#CDTITLE:cdtitle.png;
#MUSIC:Arcadia.mp3;
#OFFSET:0.000;
#SAMPLESTART:101.000;
#SAMPLELENGTH:12.000;
#SELECTABLE:YES;
#BPMS:0.000=120.000;
#STOPS:;
#BGCHANGES:;

//---------------dance-single - BASIC----------------
#NOTES:
     dance-single:
     BASIC:
     Easy:
     3:
     0.210,0.341,0.192,0.089,0.000:
0000
0000
0000
0000
,
0000
0000
0000
0000
,
0000
0000
0000
0000
,
0000
0000
0000
0000
,
0000
0000
0000
0000
,
0000
0000
0000
0000
,
0000
0000
0000
0000
,
0000
0000
0000
0000
,
0000
0000
0000
0000
,
0000
0000
0000
0000
,
0001
0000
0010
0000
,
1000
0000
0010
0000
,
0001
0000
0010
0000
,
1000
0000
0010
0000
,
0001
0000
0010
0000
,
1000
0000
0100
0000
,
0001
0000
0010
0000
,
0010
0000
0100
0100
,
1001
0000
0000
0000
,
0000
0000
0100
0100
,
0010
0000
0000
0000
,
0000
0000
0001
1000
,
0010
0000
0000
0000
,
0000
0000
1000
0001
,
0100
0000
0000
0000
,
0000
0000
0010
0010
,
0100
0001
0100
0010
,
0100
0010
1000
0100
,
1000
0010
0100
0001
,
0010
0100
0100
0000
,
1001
0110
1001
0110
,
0110
0100
0100
0001
,
1000
0010
0100
0010
,
0010
1000
0100
0001
,
1001
1000
0010
0100
,
0010
0100
0001
0010
,
0100
0010
0100
1000
,
2000
3200
0320
0032
,
0103
0010
0100
0001
,
0010
0001
0100
0010
,
1000
0100
0100
0010
,
0002
0023
0230
2300
,
3010
0100
0010
0100
,
0100
0100
0010
0001
,
0100
0100
1000
0100
,
0002
0203
2300
3020
,
0130
0001
0010
0001
,
0100
0010
0100
0100
,
0010
1000
0100
0010
,
1001
1001
0000
0000
,
1001
0000
0110
0000
,
1001
0000
0010
0010
,
1001
0000
0110
0000
,
1001
0000
0100
0000
,
1001
0000
0110
0000
,
1001
0000
0100
0100
,
1001
0000
0110
0000
,
1001
0000
0010
0000
,
0010
0010
0010
0010
,
0100
0100
0100
0100
,
0001
0001
0001
0001
,
1000
1000
1000
1000
,
1001
0000
0000
0000
,
0110
0000
0000
0000
,
1001
0000
0000
0000
,
1001
0000
0000
0000
,
1001
0000
0000
0000
;

//---------------dance-single - TRICK----------------
#NOTES:
     dance-single:
     TRICK:
     Medium:
     5:
     0.314,0.365,0.384,0.037,0.000:
0000
0000
0000
0000
,
0000
0000
0000
0000
,
0000
0000
0000
0000
,
0000
0000
0000
0000
,
0000
0000
0000
0000
,
1001
0000
0000
0000
,
1001
0000
0000
0000
,
0110
0000
1001
0000
,
0110
0010
0010
0010
,
1001
0000
0000
0000
,
0001
0010
0010
0100
0020
0000
0000
0000
,
1000
0000
0031
0000
,
1000
0100
0010
0000
0001
0000
1010
0000
,
0100
0000
0010
0000
,
0001
0010
0010
0000
,
1000
0100
0100
0000
,
0001
0010
1000
0100
,
0010
0001
0100
0100
,
1001
0000
0010
0010
0000
0000
0100
0000
,
0100
0000
1001
0000
0100
0000
0100
0010
,
0010
0100
0000
0010
,
0000
0000
0000
0001
0001
0000
1000
0000
,
0010
0000
0100
0100
0000
0000
0010
0000
,
0100
0000
0100
0000
1001
0000
0001
0100
,
0100
0010
0000
0010
,
0000
1000
0000
0000
0010
0000
0010
0000
,
0100
0010
1000
0000
0100
0000
0010
0000
,
0011
0010
1010
0100
,
1001
0000
0010
0100
0001
0000
1000
0100
,
0010
0100
0100
0000
,
1010
0101
0011
1100
,
1001
0000
0010
0000
0010
0000
0001
0100
,
1000
0000
0010
0000
0100
0000
0010
0010
,
0010
1000
0100
0001
,
1001
0000
1000
1000
0010
0000
0101
0000
,
0010
0000
1100
0000
0001
0100
1000
0000
,
0100
0000
0010
0001
0100
0000
1000
0000
,
0011
1010
1100
0101
,
1001
0000
0010
0100
0100
0000
0001
0000
,
0010
1000
0001
0000
0010
0001
1000
0000
,
1000
0100
0100
0010
,
0001
0010
0001
1000
0010
0001
1000
0010
,
0001
0100
0010
0011
,
1010
0100
0100
1001
,
0200
0010
1300
0101
,
0010
1010
0100
0011
,
0110
0000
0001
0010
0100
0000
1000
0010
,
0100
0110
1001
0001
,
0001
0010
0100
1000
,
1001
1001
0020
0000
,
0130
0100
0100
0100
,
1001
0000
0000
0020
0000
0000
0000
0030
,
1001
0100
0100
0010
,
0010
0000
1000
0100
0001
0000
0000
0000
,
0010
0010
0010
0010
,
1001
0000
0000
0200
0000
0000
0000
0300
,
1001
0010
1010
0100
,
0101
0000
0010
0100
1000
0100
0001
0000
,
0010
0010
0010
1001
,
0100
0100
0100
1001
,
0001
0001
0001
0011
,
1000
1000
1000
1100
,
1001
1000
0100
1000
,
0110
0001
0010
0001
,
1001
0010
0100
0010
,
1001
0100
0010
0100
,
1001
0000
0000
0000
;

//---------------dance-single - HEAVY----------------
#NOTES:
     dance-single:
     HEAVY:
     Hard:
     7:
     0.430,0.414,0.406,0.133,0.081:
0000
0000
0000
0000
,
1001
0000
0000
1000
0010
0000
0000
0100
,
0001
0000
0001
0010
,
0100
0000
0000
0010
0000
0000
0000
0010
,
0100
0000
0110
0010
,
2002
0000
0000
3003
,
1001
0000
0000
0000
,
0110
0010
1001
0100
,
0110
0000
0010
0000
0010
0000
0010
0010
,
1001
1000
0010
0100
0010
1000
0100
0010
,
0001
0010
0010
0100
0010
0010
0001
0100
,
0010
0000
0000
0001
0000
0000
0010
0000
0000
1000
0000
0000
0000
0000
0000
0000
,
1000
0100
0010
0010
0001
0010
0100
0100
,
0010
0000
0000
1000
0000
0000
0010
0000
0000
0001
0000
0000
0000
0000
0000
0000
,
0001
1000
0010
0100
0020
0000
0100
0000
,
1030
0100
0001
0000
0021
0000
1000
0000
,
0230
0000
1300
0100
,
0110
0000
1001
0000
0100
0001
0100
1000
,
1001
0000
0010
0010
0000
1000
0100
0001
,
0000
0010
0100
0100
0010
1000
0100
0010
,
0001
0010
0100
0010
0000
0001
0010
0100
,
0000
1000
0100
0001
0001
0000
1001
0000
,
0110
0010
0100
0100
0000
0010
0100
0001
,
0000
0010
1000
0100
1000
0010
0100
0010
,
1000
0100
0010
0001
0000
0010
0100
0000
,
0100
1000
0000
0010
0100
0010
1000
0001
,
0100
0010
1000
0010
0000
0100
0100
0010
,
0000
0100
0001
1000
0100
0010
0100
0001
,
1001
0000
0010
0100
0000
0001
1000
0100
,
0000
0010
0100
0001
0000
0010
1000
0000
,
1000
0010
0100
0001
0010
1000
0110
0000
,
1001
0000
0020
0000
0030
0000
1000
0100
,
0001
0010
0010
0100
0100
0010
0010
0000
,
0110
1010
0110
0011
,
1001
0020
0030
0100
,
0001
0000
1020
0000
0001
0130
1000
0000
,
1200
0000
0310
0001
0200
0000
1000
0000
,
0301
1010
0100
0101
,
2000
0000
3010
0100
0020
0000
0230
0000
,
0001
0000
2300
0000
3010
0001
0200
0000
,
1000
0000
0310
0010
0011
0000
0010
0000
,
1010
0101
0011
1100
,
1001
0000
0100
0010
2000
0000
0001
0000
,
3100
0000
0021
0000
0100
0000
1030
0100
,
0001
0000
0010
1000
0100
0000
0101
0000
,
0010
1010
0100
0011
,
1010
0000
0000
0010
0100
0000
0010
1000
,
0001
0100
0010
0100
1100
0000
1000
0100
,
0010
0000
0000
0000
0001
0100
0000
0000
0100
1000
0000
0000
1000
0010
0000
0000
,
1001
1001
0020
0030
,
0100
1000
0000
0000
0100
0001
0000
0000
0010
1000
0000
0000
0010
0001
0000
0000
,
1001
0000
0000
0010
1000
0100
0001
0010
,
0100
0000
0000
0000
1000
0010
0000
0000
1000
0100
0000
0000
0001
0010
0000
0000
,
0001
0100
0000
0000
1000
0000
0100
0000
0001
0000
0000
0000
1001
0000
0000
0000
,
0010
0001
0000
0000
0100
1000
0000
0000
0010
1000
0000
0000
0100
0001
0000
0000
,
1001
0000
0000
0100
0001
0010
1000
0100
,
0010
0000
0000
0000
0001
0010
0000
0000
0010
1000
0000
0000
0100
0001
0000
0000
,
0100
1000
0010
0100
1000
0010
1001
0000
,
1001
0000
0010
0100
0010
0000
0110
0000
,
0001
0010
0100
0000
1000
0010
0100
0000
,
1001
1001
0110
0110
,
0001
0001
1000
1000
,
0110
0000
0010
0000
,
1001
0000
0100
0000
,
0110
0000
0010
0000
,
1001
0000
0100
0000
,
1001
0000
0000
0000
;

//---------------dance-single - ONI----------------
#NOTES:
     dance-single:
     ONI:
     Challenge:
     10:
     0.767,0.901,0.672,0.111,0.738:
0000
0000
0000
0000
,
1001
0000
0001
0000
1000
0000
0010
0100
0000
0100
0001
0000
0110
0000
0100
0000
,
1001
0000
1000
0000
0010
0000
0100
0001
0000
0001
1000
0000
0010
0000
0100
0000
,
1001
0000
0110
0000
0100
0000
0010
1000
0000
1000
0100
0000
0011
0000
1100
0000
,
0100
0000
0010
0000
0101
0000
0001
0100
0000
0100
1000
0000
0110
0000
0110
0000
,
2002
0000
0000
3003
,
1001
0000
0000
0000
,
1010
0000
0101
0000
,
1001
0000
0010
0000
0010
0000
0010
0010
,
0110
0000
0000
0100
0000
0000
0001
0000
0000
0010
0000
0000
0100
0000
0000
1000
0000
0000
0100
0000
0010
0000
0100
0000
0010
0000
0000
0000
0000
0000
0001
0000
0000
0000
0000
0000
0010
0000
0000
0100
0000
0000
0010
0000
0000
0001
0000
0000
,
1001
0010
0010
0110
0020
1000
0031
0100
,
0210
0000
0000
0001
0000
0000
0010
0000
0000
1000
0000
0000
0301
0000
0100
0000
,
1100
0100
0100
0011
0002
0100
0013
1000
,
0210
0000
0000
1000
0000
0000
0010
0000
0000
0001
0000
0000
0310
0000
0100
0000
,
0101
0000
0001
0000
0010
0000
0100
0010
0000
0010
0001
0000
0001
0000
0100
0000
,
1000
0100
0001
0000
0001
0000
0010
0000
1010
0000
1000
0000
0100
0000
0000
0000
,
0100
0000
0010
0000
0100
0000
0001
1000
0000
1000
0010
0000
0100
0000
0010
0000
,
0110
0000
0000
0000
0000
0000
1001
0000
0000
0000
0000
0000
0100
0010
0100
0010
0100
0010
1000
0001
1000
0001
1000
0001
,
1001
0000
0010
0020
0000
1000
1000
0001
,
0030
0010
1000
0200
0010
0010
1300
0100
,
0110
0020
0100
0100
0000
0031
0010
2000
,
0000
0001
3001
0100
0100
0000
0010
0010
,
0110
0020
0100
0100
0030
0010
0100
0102
,
0000
0013
1000
0100
0201
0001
0301
1010
,
1100
0100
0010
0002
0000
1003
0200
0000
,
0301
1001
0000
0110
0100
0110
0010
0110
,
0100
0000
0010
0000
1000
0000
0010
0100
0000
0100
0010
0000
0110
0000
0101
0000
,
0001
0000
1000
0000
0100
0000
0010
1000
0000
1000
0010
0000
0100
0000
1100
0000
,
1001
0000
0010
0000
0010
0000
0100
0001
0000
0001
0010
0000
1000
0000
0100
0000
,
0101
0000
0001
0000
0100
0000
0001
0100
0000
1000
0010
0000
0001
0000
0011
0000
,
0001
0100
0001
0100
0001
0000
0100
0010
0100
0010
0100
0000
0001
1000
0001
1000
0001
0000
0110
0000
0000
0000
0000
0000
,
1001
0000
1000
0000
0010
0000
0100
0001
0000
1000
0010
0000
1000
0010
0100
0010
,
1000
0010
1010
0100
0101
0010
1001
0000
,
0010
0000
0100
0000
0010
0000
0100
0000
0000
0001
0000
0000
0100
0000
0000
0010
0000
0000
1000
0000
0000
0100
0000
0000
0010
0000
0000
0000
0000
0000
0010
0000
0000
0100
0000
0000
1000
0000
0100
0000
1000
0000
0010
0000
0000
0000
0000
0000
,
1010
1000
0010
0100
0001
0100
0010
1000
0100
0010
0001
0000
0010
0100
1000
0100
,
0010
0000
0000
0100
0010
0100
1000
0100
0010
0001
0010
0000
0100
1000
0001
0100
,
0010
0000
0000
0100
0001
0010
0100
1000
0010
0100
0010
0000
1000
0010
0100
0001
,
0010
0000
0000
0100
1000
0100
0010
0001
0100
0010
1000
0000
0001
0100
1000
0100
,
0001
0000
0000
1000
0100
0010
0001
0010
0100
1000
0010
0000
0100
0010
0001
1000
,
0100
0000
0000
0001
1000
0100
0001
0100
1000
0010
0100
0000
0001
0010
1000
0010
,
0001
0000
0000
0100
0010
1000
0010
0100
0001
0010
0100
0000
1000
0010
1000
0010
,
0001
0000
0000
0010
1000
0001
1000
0100
0010
0100
1000
0000
0001
1000
0010
0100
,
0001
0000
0000
0010
0001
0100
1000
0100
0001
0010
0100
0000
0010
1000
0010
0001
,
0100
0000
0000
0010
1000
0100
1000
0010
0100
0001
0010
0000
0001
0010
0100
1000
,
0001
0000
0000
0100
0010
1000
0100
0001
0100
0010
0001
0000
0100
0010
1000
0100
,
0010
0000
0000
0001
0100
1000
0100
0010
0100
1000
0001
0000
1000
0100
0010
0100
,
0001
0000
0000
0010
0100
1000
0010
0100
0010
1000
0001
0000
0100
0010
0100
0001
,
1000
0000
0000
0001
0100
0010
1000
0100
0010
0100
1000
0000
0100
1000
0100
0010
,
0001
1000
0010
0100
1000
0100
0001
0010
0100
0001
0100
1000
0010
0100
0001
0000
,
1001
0000
0000
0000
1001
0000
0000
0000
0010
0100
0010
0100
0010
0100
0010
0100
,
0110
0000
0100
0001
0010
1000
0010
0001
,
1001
0000
0000
0110
1000
0110
0001
0110
,
1000
0000
0000
0000
0010
0100
0010
0000
1000
0100
1000
0000
0001
0010
0001
0000
,
0100
0010
0100
0000
1000
0000
0100
0000
0001
0000
0000
0000
1001
0000
0100
0000
,
0011
0110
1010
0101
,
1001
0000
0000
1001
0010
1001
0100
1001
,
0010
0100
0010
0000
1000
0100
1000
0000
0001
0100
1000
0000
1000
0010
0001
0000
,
0100
1000
0010
0000
0010
0001
0100
0000
0110
0000
0110
0000
1001
0000
1001
0000
,
1100
0000
0000
0100
0000
0000
0010
0000
0000
0001
0000
0000
0100
0000
0000
0010
0000
0000
0100
0000
0010
0000
0100
0000
0010
0000
0000
0100
0000
0000
0001
0000
0000
0010
0000
0000
0100
0000
0000
1000
0000
0000
1100
0000
0000
0000
0000
0000
,
1001
0001
0100
0010
1000
0100
0010
0100
1000
0010
0100
0001
0010
0001
0100
0010
,
0110
0000
0000
0100
0000
0000
0001
0000
0000
0100
0000
0000
0010
0000
0000
1000
0000
0000
0100
0000
0010
0000
0100
0000
0010
0000
0000
0100
0000
0000
0001
0000
0000
0100
0000
0000
0010
0000
0000
0001
0000
0000
1000
0000
0000
0001
0000
0000
,
1001
1000
0010
0100
0001
0010
0001
1000
0100
1000
0001
0010
0001
0100
0010
0100
,
0110
0110
0110
0110
,
1001
1001
1001
1001
,
0110
0110
0110
0110
,
0011
1100
1010
0101
,
1001
0000
0000
0000
;

//---------------dance-double - ----------------
#NOTES:
     dance-double:
     :
     Hard:
     7:
     0.387,0.414,0.214,0.015,0.000: // measure 1
00000000
00000000
00000000
00000000
,  // measure 2
11000000
00000000
00000000
00000000
00000000
00000000
00000000
00010000
,  // measure 3
01000000
00000000
00000000
00000000
00001000
00000000
00000000
00010000
,  // measure 4
00000100
00000000
00000000
00000000
00000010
00000000
00000000
00000001
,  // measure 5
00000100
00001000
00010000
01000000
,  // measure 6
01100000
00000000
00000000
00000000
,  // measure 7
10010000
00000000
00000000
00000000
,  // measure 8
01010000
00000000
00011000
00000000
,  // measure 9
00001100
00000101
00000011
00001010
,  // measure 10
00011000
00000000
00000000
00000000
,  // measure 11
00100000
00010000
10000000
01000000
00000000
01000000
00010000
00000000
,  // measure 12
00001000
00010000
00000100
00000010
00000000
00000001
00000100
00000000
,  // measure 13
00000010
00001000
00000001
00000100
00000000
00001000
00010000
00000000
,  // measure 14
00000100
00010000
00001000
00000000
00100000
00010000
00000000
10000000
,  // measure 15
01000000
00010000
00001000
00000000
00010000
01000000
00000000
00010000
,  // measure 16
00100000
00001000
00010000
00000000
00000010
00000100
00000000
00000001
,  // measure 17
00001000
00000000
00000100
00010000
00000000
00001000
00000000
00000010
,  // measure 18
00000000
00001000
00010000
00100000
10000000
01000000
00010000
00001000
,  // measure 19
00011000
00000000
00010000
00000000
00000100
00000010
00000000
00000001
,  // measure 20
00000100
00000000
00000010
00000000
00010000
00001000
00000000
01010000
,  // measure 21
01010000
00000000
10000000
00000000
01000000
00100000
01000000
00000000
,  // measure 22
00010000
00000000
00001000
00000100
00000000
00000010
00001000
00000000
,  // measure 23
00000101
00000000
00000010
00001000
00000000
00000001
00000010
00000000
,  // measure 24
00000100
00001000
00000000
00010000
00000000
00001000
00010000
01010000
,  // measure 25
01010000
00000000
10000000
01000000
00000000
00100000
01000000
00100000
,  // measure 26
00000000
00011000
00000000
00000110
00000000
00000101
00000000
00001100
,  // measure 27
00010000
00001000
00010000
01000000
10000000
01000000
00100000
01000000
,  // measure 28
00000000
00001000
00010000
00001000
00000100
00000001
00000010
00000100
,  // measure 29
00000000
00001000
00000001
00000100
00000010
00010000
00001000
00100000
,  // measure 30
00000000
01000000
10000000
01000000
00100000
00001000
00010000
00000000
,  // measure 31
01000000
00100000
00001000
00010000
00000000
00000010
00000100
00000000
,  // measure 32
00000001
00000010
00000100
00010000
00001000
00000000
01000000
00100000
,  // measure 33
10000000
01000000
00010000
00001000
00000100
00000001
00001000
00000100
,  // measure 34
00000020
00000001
00000000
00000031
00002000
00000100
00000000
00003100
,  // measure 35
00010000
00000000
00010000
00000000
00010000
01000000
10000000
00000000
,  // measure 36
00100000
00000000
01000000
00010000
00001000
00000000
00000100
00000010
,  // measure 37
00000100
00000000
00000001
00000010
00000000
00001000
00010000
00000000
,  // measure 38
01000000
10000000
01000000
00100000
00001000
00000000
00010000
00000100
,  // measure 39
00000010
00000000
00000001
00000100
00000010
00000000
00010000
00001000
,  // measure 40
00100000
00010000
10000000
00000000
01000000
00010000
00001000
00000000
,  // measure 41
00000100
00000001
00000010
00000100
00010000
00000010
00000100
00000000
,  // measure 42
00001000
00010000
01000000
00100000
10000000
01000000
00000000
00100000
,  // measure 43
00010000
00001000
00000010
00000000
00000100
00000001
00000010
00000000
,  // measure 44
00000100
00000000
00010000
00001000
00100000
00010000
00000000
10000000
,  // measure 45
01000000
00000000
00010000
00001000
00000100
00000000
00000010
00000100
,  // measure 46
00000000
00000001
00000010
00000100
00000000
00010000
00001000
00000100
,  // measure 47
00000010
00000000
00010000
00000010
00000100
00000000
00001000
00010000
,  // measure 48
00000000
01000000
00100000
00010000
00000000
10000000
01000000
00010000
,  // measure 49
00001000
00000000
00010000
01000000
00100000
00000000
10000000
00000000
,  // measure 50
10100000
00000000
00110000
00000000
00001000
00010000
00000100
00000010
,  // measure 51
00001000
00000001
00000100
00001000
00000000
00010000
01000000
10000000
,  // measure 52
01000000
00000000
00100000
00010000
00001000
00000100
00000001
00000100
,  // measure 53
00000000
00000010
00010000
00001000
01000000
00000000
00010000
10000000
,  // measure 54
01000000
00010000
00000000
00001000
00000100
00000000
00000001
00000100
,  // measure 55
00001000
00010000
00000000
01000000
00100000
00000000
01100000
00000000
,  // measure 56
10000000
01000000
00100000
00001000
00010000
00000100
00000010
00000001
,  // measure 57
00001000
00000000
00000010
00000100
00001000
00000000
00010000
00001000
,  // measure 58
00000100
00000001
00000000
00000100
00001000
00000000
00010000
00000000
,  // measure 59
01000000
10000000
01010000
10000000
,  // measure 60
01000000
00010000
00100000
00011000
,  // measure 61
00100000
00010000
00001000
00001100
,  // measure 62
00000001
00001000
00000010
00000100
,  // measure 63
00000011
00000000
00000100
00000000
,  // measure 64
00010000
00000000
00000010
00000000
,  // measure 65
00010100
00000000
00001000
00000000
,  // measure 66
00100000
00000000
01000000
00000000
,  // measure 67
01100000
00000000
00000000
00000000
;

//---------------dance-double - ----------------
#NOTES:
     dance-double:
     :
     Medium:
     5:
     0.285,0.390,0.170,0.111,0.000: // measure 1
00000000
00000000
00000000
00000000
,  // measure 2
00000000
00000000
00000000
00000000
,  // measure 3
00000000
00000000
00000000
00000000
,  // measure 4
00000000
00000000
00000000
00000000
,  // measure 5
00000000
00000000
00000000
00000000
,  // measure 6
00001100
00000000
00000000
00000000
,  // measure 7
00011000
00000000
00000000
00000000
,  // measure 8
01010000
00000000
10100000
00000000
,  // measure 9
00110000
00011000
00000110
00001001
,  // measure 10
00000120
00000100
00010000
00010030
,  // measure 11
00101000
00000000
00010000
00000000
01000000
00000000
10000000
01000000
,  // measure 12
10000000
00100000
00010000
00001000
,  // measure 13
00010010
00000000
00001000
00000000
00000100
00000000
00000001
00000100
,  // measure 14
00000001
00000100
00001000
00010000
,  // measure 15
00100000
00000000
01000000
00000000
10000000
00000000
00000000
10000000
,  // measure 16
00100000
00000000
01000000
00000000
00010000
00000000
00000000
00001000
,  // measure 17
00010000
00000100
00000010
00000001
,  // measure 18
00001000
00000000
00001100
00000000
00000001
00000000
00000000
00000100
,  // measure 19
00000010
00000000
00000000
00000000
00010000
00001000
00000000
00100000
,  // measure 20
01000000
00000000
10000000
00000000
10000000
10000000
00000000
01000000
,  // measure 21
00100000
00000000
00000000
00001000
00000000
00001000
00000000
00000010
,  // measure 22
00000100
00000000
00000100
00000000
00000000
00000001
00000100
00000100
,  // measure 23
00010000
00000000
00001000
00100000
00000000
00100000
00000000
10000000
,  // measure 24
00000000
01000000
00000000
00010000
00000000
00001000
00000000
00010000
,  // measure 25
00000100
00000000
00000010
00010000
00000000
00001000
00000000
00010000
,  // measure 26
00000000
00000100
00000000
00000110
00000000
00000010
00000000
00000001
,  // measure 27
00000100
00011000
00100000
10000000
,  // measure 28
00010000
00000000
01000000
00000000
00001000
00000000
00010000
00000010
,  // measure 29
00000110
00001000
00000001
00000010
,  // measure 30
00001000
00000000
00010000
00000000
00000100
00000000
00000010
00000100
,  // measure 31
00010000
00011000
00100000
10000000
,  // measure 32
01000000
00000000
00010000
00000000
00001000
00000000
00000100
00000001
,  // measure 33
00000010
00000100
00010000
00001000
,  // measure 34
00200000
00001000
02300000
10000000
,  // measure 35
03100000
00000000
00010000
00000000
00001000
00000000
00000100
00000010
,  // measure 36
00000100
00000001
00000100
00001000
,  // measure 37
00010000
00000000
00100000
00000000
01000000
00000000
10000000
00100000
,  // measure 38
00000000
00010000
00001000
00000000
00000100
00000000
00000010
00000000
,  // measure 39
00001001
00000000
00000100
00000000
00000010
00000000
00000001
00000100
,  // measure 40
00001000
00010000
00001000
00000100
,  // measure 41
00010000
00000100
00000010
00001000
,  // measure 42
00010000
00100000
00010000
00000000
00001000
01000000
00001000
00000000
,  // measure 43
00010000
00000000
01000000
00000000
10000000
00000000
00100000
00010000
,  // measure 44
00001000
00010000
00000100
00000010
,  // measure 45
00000001
00000000
00000100
00000000
00000010
00000000
00010000
00001000
,  // measure 46
00100000
10000000
01000000
00010000
,  // measure 47
00001000
00000110
00000001
00000010
,  // measure 48
00000100
00010000
00001000
00100000
,  // measure 49
01100000
10010000
01000000
00001000
,  // measure 50
00011000
00000000
00011000
00000000
00000000
00000100
00000010
00000100
,  // measure 51
00000020
00000001
00000230
00001000
,  // measure 52
00020300
00000000
00001000
00000000
00130000
01000000
10000000
00000000
,  // measure 53
02000000
00001000
03020000
00000010
,  // measure 54
00032000
00000000
00000100
00000000
00003001
00000000
00000010
00000100
,  // measure 55
00002000
00010000
00203000
01000000
,  // measure 56
00320000
00000000
10000000
00000000
01030000
00001000
00100000
00000000
,  // measure 57
02000000
10000000
03200000
00010000
,  // measure 58
00302000
00000100
00003010
00000000
,  // measure 59
00000100
00000000
00000000
00000000
,  // measure 60
00010000
00000000
00000000
00000000
,  // measure 61
00001000
00000000
00000000
00000000
,  // measure 62
00100000
00000000
00000000
00000000
,  // measure 63
00010000
00000000
00000000
00000000
,  // measure 64
01000000
00000000
00000000
00000000
,  // measure 65
00001000
00000000
00000000
00000000
,  // measure 66
00000010
00000000
00000000
00000000
,  // measure 67
00001001
00000000
00000000
00000000
;

//---------------dance-double - ----------------
#NOTES:
     dance-double:
     :
     Easy:
     3:
     0.200,0.268,0.096,0.000,0.000: // measure 1
00000000
00000000
00000000
00000000
,  // measure 2
00000000
00000000
00000000
00000000
,  // measure 3
00000000
00000000
00000000
00000000
,  // measure 4
00000000
00000000
00000000
00000000
,  // measure 5
00000000
00000000
00000000
00000000
,  // measure 6
00000100
00000000
00000000
00000000
,  // measure 7
00010000
00000000
00000000
00000000
,  // measure 8
00001000
00000000
01000000
00000000
,  // measure 9
10000000
01000000
00100000
00001000
,  // measure 10
00010000
00000000
00000010
00000000
,  // measure 11
00000101
00001000
00000100
00000001
,  // measure 12
00000100
00000000
00000000
00000000
,  // measure 13
01010000
10000000
01000000
00010000
,  // measure 14
01000000
00000000
00000000
00000000
,  // measure 15
00001000
00000001
00000100
00000010
,  // measure 16
00001000
00000000
00000000
00000000
,  // measure 17
00010000
10000000
01000000
00100000
,  // measure 18
00010000
00000000
00000000
00000000
,  // measure 19
00001100
00000000
00000000
00000001
,  // measure 20
00000010
00000000
00010000
00001000
,  // measure 21
00110000
00000000
01000000
10000000
,  // measure 22
00000000
00001000
01000000
00100000
,  // measure 23
00010000
00000000
00000000
00000100
,  // measure 24
00000010
00000000
00000001
00001000
,  // measure 25
00000110
00000000
00010000
00000000
,  // measure 26
00000100
00000010
00001000
01000000
,  // measure 27
01001000
00000000
00010000
01000000
,  // measure 28
10000000
00100000
00010000
00001000
,  // measure 29
00000110
00000001
00000100
00001000
,  // measure 30
00010000
01000000
10000000
00100000
,  // measure 31
01100000
00000000
00010000
00000000
,  // measure 32
00001000
00000100
00000001
00000010
,  // measure 33
00000100
00000000
00010000
00000000
,  // measure 34
00101000
00100000
00010000
10000000
,  // measure 35
01100000
01000000
00010000
00001000
,  // measure 36
00000100
00000010
00000100
00000001
,  // measure 37
00000010
00000100
00010000
00001000
,  // measure 38
00100000
00000000
00010000
10000000
,  // measure 39
01000000
00100000
01000000
00001000
,  // measure 40
00010000
00001000
00000100
00000010
,  // measure 41
00000001
00001000
00000100
00000010
,  // measure 42
00000100
00010000
00001000
00010000
,  // measure 43
01100000
00000000
10000000
00010000
,  // measure 44
10000000
01000000
00100000
01000000
,  // measure 45
00001000
00010000
00000100
00000010
,  // measure 46
00000100
00000001
00001000
00000010
,  // measure 47
00000100
00000000
00010000
00001000
,  // measure 48
01000000
00100000
01000000
10000000
,  // measure 49
00010000
00010000
00001000
00001000
,  // measure 50
00011000
00011000
00010000
00000100
,  // measure 51
00000010
00000001
00000100
00001000
,  // measure 52
00010000
00000000
00001000
01000000
,  // measure 53
00100000
10000000
01000000
00010000
,  // measure 54
00001000
00000000
00010000
00000100
,  // measure 55
00000001
00000100
00001000
00010000
,  // measure 56
00000010
00000000
00001000
01000000
,  // measure 57
00010000
01000000
10000000
00100000
,  // measure 58
00001000
00010000
00000100
00000000
,  // measure 59
00000100
00000000
00000000
00000000
,  // measure 60
00000001
00000000
00000000
00000000
,  // measure 61
00000010
00000000
00000000
00000000
,  // measure 62
00010000
00000000
00000000
00000000
,  // measure 63
00001000
00000000
00000000
00000000
,  // measure 64
01000000
00000000
00000000
00000000
,  // measure 65
10000000
00000000
00000000
00000000
,  // measure 66
00100000
00000000
00000000
00000000
,  // measure 67
00001000
00000000
00000000
00000000
;

//---------------dance-double - ----------------
#NOTES:
     dance-double:
     :
     Challenge:
     10:
     0.740,0.804,0.768,0.059,0.461: // measure 1
00000000
00000000
00000000
00000000
,  // measure 2
11000000
00000000
00100000
01000000
00100000
01000000
00100000
01000000
00010000
00001000
00010000
00001000
00010000
00001000
00010000
00001000
,  // measure 3
00000010
00000100
00000010
00000100
00000010
00000100
00000010
00000100
00001001
00000000
00000100
00001000
00000100
00001000
00000100
00000000
,  // measure 4
00010100
00000000
00010000
00000100
00010000
00000100
00010000
00000100
00010000
00001000
00010000
00001000
00010000
00001000
00010000
00001000
,  // measure 5
00100000
00001000
00100000
00001000
00100000
00001000
00100000
00000000
00110000
00000000
00100000
01000000
00100000
01000000
00100000
00000000
,  // measure 6
22000000
00000000
00000000
00000000
00000000
00000000
00000000
33000000
,  // measure 7
00000022
00000000
00000000
00000000
00000000
00000000
00000000
00000033
,  // measure 8
00002200
00000000
00000000
00003300
00220000
00000000
00000000
00330000
,  // measure 9
01100000
00011000
00000110
00011000
,  // measure 10
01100000
00000000
00000000
01000000
10000000
01000000
00010000
01000000
00010000
00001000
00010000
00001000
00000100
00001000
00000100
00000000
,  // measure 11
00000110
00000000
00000000
00000100
00000001
00000100
00000010
00000100
00000010
00000100
00001000
00010000
00001000
00010000
00100000
00010000
,  // measure 12
00100000
00010000
10000000
01000000
10000000
01000000
00100000
01000000
00100000
01000000
10000000
01000000
00010000
01000000
00010000
01000000
,  // measure 13
00100000
01000000
00100000
01000000
00100000
00001000
00100000
00001000
00010000
00001000
00010000
00001000
00010000
00000100
00010000
00000100
,  // measure 14
00000010
00000100
00000010
00000100
00000010
00000001
00000010
00000001
00001000
00000100
00001000
00000100
00000001
00000100
00000001
00000100
,  // measure 15
00000010
00000100
00000010
00000100
00001000
00010000
00001000
00010000
00100000
01000000
00100000
01000000
10000000
00010000
10000000
00010000
,  // measure 16
10000000
01000000
10000000
01000000
00100000
01000000
00100000
01000000
00100000
00001000
00100000
00001000
00010000
00001000
00010000
00001000
,  // measure 17
00010000
00000100
00010000
00000100
00000010
00000100
00000010
00000100
00000010
00000001
00000010
00000001
00000100
00000001
00000100
00000001
,  // measure 18
00000100
00000010
00000100
00000000
00000010
00000000
00010000
00001000
00010000
00001000
00100000
00000000
00010000
00000000
01000000
00000000
,  // measure 19
01100000
01000000
10000000
01000000
00010000
00001000
00010000
00000010
,  // measure 20
00001000
00010000
00000100
00000010
00000001
00000100
00000010
00010100
,  // measure 21
00001100
00010000
00001000
00100000
01000000
10000000
00010000
00100000
,  // measure 22
01000000
00001000
00010000
00000100
00000010
00000001
00000100
00000010
,  // measure 23
00001100
00010000
00001000
01000000
00100000
00010000
10000000
01000000
,  // measure 24
00010000
00001000
00000100
00000001
00000010
00000100
00001000
00001010
,  // measure 25
00010010
00001000
00010000
01000000
00100000
10000000
00010000
01000000
,  // measure 26
00100000
00101000
00010000
00010100
00001000
00001010
00000100
00000101
,  // measure 27
00001010
00010000
00001000
00100000
00010000
10000000
01000000
00010000
,  // measure 28
00001000
00000100
00000010
00010000
00001000
00000100
00000001
00000010
,  // measure 29
00000110
00001000
00010000
00001000
00100000
00010000
10000000
01000000
,  // measure 30
00100000
00010000
01000000
00001000
00010000
00000010
00000100
00001000
,  // measure 31
00000010
00000001
00001000
00000100
00010000
00001000
00100000
00010000
,  // measure 32
00100000
10000000
00010000
01000000
00001000
00010000
00000010
00001000
,  // measure 33
00000001
00000010
00000100
00001000
00001000
00010000
00100000
00010000
,  // measure 34
10000000
00010000
10000000
00010000
01000000
00100000
01000000
00100000
00001000
00010000
00001000
00010000
00000010
00000100
00000010
00000100
,  // measure 35
00001001
00000100
00000110
00000100
00011000
00001000
00101000
00001000
,  // measure 36
00011000
00010000
01010000
01000000
11000000
00100000
00110000
10000000
,  // measure 37
01100000
00001000
00011000
00100000
01100000
00001000
00011000
00000010
,  // measure 38
00010010
00000010
00000110
00001000
00001100
00000010
00000101
00000010
,  // measure 39
00001100
00010000
00001100
00000010
00011000
00000100
00000011
00001000
,  // measure 40
00000110
00000001
00000110
00010000
00000110
00000001
00000110
00010000
,  // measure 41
00000110
00001000
00011000
00100000
00011000
01000000
00101000
00010000
,  // measure 42
01001000
00100000
10010000
01000000
00101000
00010000
00010010
00001000
,  // measure 43
00000101
00000010
00001100
00000001
00000110
00010000
00000110
00000001
,  // measure 44
00000110
00010000
00101000
00001000
01010000
00100000
00101000
01000000
,  // measure 45
10010000
01000000
00101000
00010000
00010010
00001000
00000101
00000010
,  // measure 46
00001100
00000010
00000101
00001000
00000110
00010000
00101000
00001000
,  // measure 47
01010000
00100000
11000000
00100000
00011000
00000010
00011000
00000100
,  // measure 48
00001001
00000100
00000011
00000100
00001010
00000100
00011000
00100000
,  // measure 49
01000000
10000000
01000000
10000000
00010000
00100000
00010000
00100000
00001000
00010000
00001000
00010000
00000010
00001000
00000010
00001000
,  // measure 50
00000011
00000000
00000000
00000000
00010100
00000000
00000000
00000000
00000100
00010000
00000100
00010000
00001000
00100000
00001000
00100000
,  // measure 51
10010000
01000000
00100000
00010000
00010100
00001000
00000010
00000001
,  // measure 52
00000110
00000100
00001000
00000001
00000110
00010000
00001000
00100000
,  // measure 53
10010000
01000000
00100000
00001000
00010010
00001000
00000100
00000001
,  // measure 54
00000110
00001000
00000001
00000100
00001010
00000100
00010000
00100000
,  // measure 55
00011000
00100000
01000000
10000000
00110000
01000000
00100000
00001000
,  // measure 56
00010010
00001000
00010000
00000100
00000010
00000001
00000110
00001000
,  // measure 57
00010000
00000100
00010000
00000100
00001000
00010000
00001000
00010000
00100000
10000000
00100000
10000000
00010000
00100000
00010000
00100000
,  // measure 58
01000000
10000000
01000000
10000000
00001000
01000000
00001000
01000000
00010000
00000100
00010000
00000100
00000010
00000100
00000010
00000100
,  // measure 59
00001000
00000000
00000100
00000000
00000001
00000000
00000100
00010000
,  // measure 60
00010100
01000000
10000000
01000000
,  // measure 61
00010100
00000000
00000001
00000000
00000100
00000000
00001000
01000000
,  // measure 62
01001000
10000000
01000000
00010000
,  // measure 63
00001100
00000000
00000100
00000000
00000100
00000000
00000001
00000100
,  // measure 64
01001000
01000000
01000000
10000000
,  // measure 65
00010100
00000000
00000100
00000000
00000100
00000000
00000001
00000100
,  // measure 66
01001000
01000000
01000000
10000000
,  // measure 67
11000000
00000000
00000000
00000000
;

//---------------dance-single - ----------------
#NOTES:
     dance-single:
     :
     Beginner:
     1:
     0.068,0.146,0.000,0.000,0.000:
0000
0000
0000
0000
,
0000
0000
0000
0000
,
0000
0000
0000
0000
,
0000
0000
0000
0000
,
0000
0000
0000
0000
,
0000
0000
0000
0000
,
0000
0000
0000
0000
,
0000
0000
0000
0000
,
0000
0000
0000
0000
,
0000
0000
0000
0000
,
0010
0000
0000
0000
,
0000
0000
0000
0000
,
0010
0000
0000
0000
,
0000
0000
0000
0000
,
0010
0000
0000
0000
,
0000
0000
0000
0000
,
0010
0000
0000
0000
,
0000
0000
0000
0000
,
1000
0000
0000
0000
,
0001
0000
0000
0100
,
0100
0000
0000
0000
,
0010
0000
0000
0000
,
1000
0000
0000
0000
,
0010
0000
0000
0100
,
0100
0000
0000
0000
,
0001
0000
0000
0000
,
1000
0000
0000
0000
,
0100
0000
0000
0000
,
0010
0000
0000
0000
,
0001
0000
0000
0100
,
0100
0000
0000
0000
,
1000
0000
0000
0000
,
0010
0000
0001
0000
,
0100
0000
1000
0000
,
0010
0000
0000
0000
,
1000
0000
0001
0000
,
0100
0000
0000
0000
,
0001
0000
0000
0000
,
1000
0000
0000
0000
,
0100
0000
0010
0000
,
0001
0000
0000
0000
,
1000
0000
0000
0000
,
0100
0000
0000
0000
,
0010
0000
0000
0000
,
1000
0000
0000
0000
,
0001
0000
0100
0000
,
0010
0000
0000
0000
,
1000
0000
0000
0000
,
0100
0000
0000
0000
,
0001
0001
0001
0001
,
0001
0000
0000
0000
,
0100
0000
1000
0000
,
0010
0000
0000
0000
,
0100
0000
0000
0000
,
0001
0000
0010
0000
,
0001
0000
0000
0000
,
1000
0000
0100
0000
,
1000
0000
0000
0001
,
0001
0000
0000
0000
,
0000
0000
0000
0000
,
0010
0000
0000
0000
,
0000
0000
0000
0000
,
0010
0000
0000
0000
,
0000
0000
0000
0000
,
0010
0000
0000
0000
,
0000
0000
0000
0000
,
0100
0000
0000
0000
;
