#TITLE:A;
#SUBTITLE:;
#ARTIST:-45;
#TITLETRANSLIT:;
#SUBTITLETRANSLIT:;
#ARTISTTRANSLIT:;
#CREDIT:;
#BANNER:A.png;
#BACKGROUND:A-bg.png;
#LYRICSPATH:;
#CDTITLE:cdtitle.png;
#MUSIC:A.mp3;
#OFFSET:-2.280;
#SAMPLESTART:11.190;
#SAMPLELENGTH:12.000;
#SELECTABLE:YES;
#BPMS:0.000=105.000;
#STOPS:;
#BGCHANGES:-4.000=A.avi=1.000=1=1=0,
182.000=A-bg.png=1.000=1=0=1,
99999=-nosongbg-=1.000=0=0=0 // don't automatically add -songbackground-
;

//---------------dance-single - BASIC----------------
#NOTES:
     dance-single:
     BASIC:
     Easy:
     2:
     0.211,0.233,0.094,0.132,0.000: // measure 1
0000
0000
0000
0000
,  // measure 2
0000
0000
0000
0000
,  // measure 3
2000
3000
0002
0003
,  // measure 4
2000
3000
0002
0003
,  // measure 5
1000
0010
0100
0000
,  // measure 6
0001
0010
0100
0000
,  // measure 7
1000
0100
0010
0000
,  // measure 8
0001
0100
0010
0000
,  // measure 9
1000
0100
1000
0000
,  // measure 10
0010
0100
0010
0000
,  // measure 11
0001
0010
0001
0000
,  // measure 12
0100
0010
0100
0000
,  // measure 13
1000
0010
0100
0000
,  // measure 14
0001
0010
0100
0000
,  // measure 15
1000
0100
0010
0000
,  // measure 16
0001
0100
0010
0000
,  // measure 17
2000
0100
0010
0001
,  // measure 18
0010
0100
0010
3001
,  // measure 19
0002
0010
0100
1000
,  // measure 20
0100
0010
0100
1003
,  // measure 21
2000
0010
0100
0001
,  // measure 22
0100
0010
0100
3001
,  // measure 23
0002
0100
0010
1000
,  // measure 24
0010
0100
0010
1003
,  // measure 25
1001
1000
0100
1000
,  // measure 26
0001
0010
0001
1000
,  // measure 27
0010
1000
0001
0100
,  // measure 28
2002
0000
0000
3003
,  // measure 29
1000
0010
0100
0001
,  // measure 30
0100
0010
1000
0001
,  // measure 31
0010
0001
1000
0100
,  // measure 32
2002
0000
0000
3003
,  // measure 33
1000
1001
0001
1001
,  // measure 34
0110
0000
0000
0000
,  // measure 35
1000
0000
0001
0100
,  // measure 36
1000
0000
0010
0000
,  // measure 37
0001
0000
0000
1001
,  // measure 38
0110
0000
0000
0000
,  // measure 39
1000
0001
0100
0010
,  // measure 40
2002
0000
0000
3003
,  // measure 41
1000
0010
0100
0000
,  // measure 42
0001
0010
0100
0000
,  // measure 43
1000
0100
0001
0000
,  // measure 44
0001
0010
1000
0000
,  // measure 45
1000
0100
0001
1000
,  // measure 46
1001
0000
0000
0000
;

//---------------dance-single - TRICK----------------
#NOTES:
     dance-single:
     TRICK:
     Medium:
     4:
     0.312,0.381,0.226,0.188,0.005: // measure 1
0000
0000
0000
0000
,  // measure 2
0000
0000
0000
0000
,  // measure 3
1000
1000
0001
0001
,  // measure 4
1000
1000
0001
0001
,  // measure 5
1000
1000
1000
0000
0001
0001
0001
0000
,  // measure 6
1000
1000
1000
0000
0001
0001
0001
0000
,  // measure 7
1000
0100
1000
0000
0001
0100
0001
0000
,  // measure 8
1000
0010
1000
0000
0001
0010
0001
0000
,  // measure 9
1100
1001
0011
1001
,  // measure 10
1010
1001
0101
1001
,  // measure 11
1010
1001
0101
1001
,  // measure 12
0011
1001
1100
1001
,  // measure 13
1000
1000
1000
0000
0001
0001
0001
0000
,  // measure 14
1000
1000
1000
0000
0001
0001
0001
0000
,  // measure 15
1000
0100
1000
0000
0001
0100
0001
0000
,  // measure 16
0010
1000
0010
0000
0010
0001
0010
0000
,  // measure 17
2000
0100
0010
0100
,  // measure 18
3002
0100
0010
0100
,  // measure 19
2003
0100
0010
0001
,  // measure 20
3002
0010
0100
1000
,  // measure 21
2003
0010
0100
0001
,  // measure 22
3002
0100
0010
1000
,  // measure 23
2003
0001
0100
0001
,  // measure 24
3002
1000
0100
1003
,  // measure 25
1001
0000
1000
0010
0100
0000
0001
0100
,  // measure 26
0020
0000
0000
0030
,  // measure 27
1000
0100
1000
0001
0100
0001
1000
0020
,  // measure 28
0000
0000
0000
0030
,  // measure 29
0000
1001
0000
0110
0000
1000
0100
0010
,  // measure 30
0001
1000
0001
1000
,  // measure 31
1001
0000
0110
0000
,  // measure 32
2002
0000
0000
0000
0000
3003
0000
2000
,  // measure 33
3000
0020
0030
0002
0003
0200
0300
2000
,  // measure 34
3000
0000
0000
0000
0000
0000
0000
0000
0000
0000
0000
0000
0000
0000
0000
1001
,  // measure 35
0000
0000
0000
1000
0010
0100
0100
0001
,  // measure 36
1000
0000
0000
1000
0000
0000
0002
0000
,  // measure 37
0000
0000
0003
0000
0000
1000
0010
0001
,  // measure 38
0200
0000
0000
0000
0300
0000
0000
1000
,  // measure 39
0010
0001
0100
1000
,  // measure 40
0020
0000
0000
0030
,  // measure 41
1000
1000
1000
0000
0001
0001
0001
0000
,  // measure 42
0010
1000
0010
0000
0010
0001
0010
0000
,  // measure 43
1000
0100
1000
0000
0001
0010
0001
0000
,  // measure 44
1000
0010
1000
0000
0001
0010
0001
0000
,  // measure 45
1000
1000
0100
0100
0001
0001
0010
1000
,  // measure 46
1001
0000
0000
0000
;

//---------------dance-single - HEAVY----------------
#NOTES:
     dance-single:
     HEAVY:
     Hard:
     7:
     0.443,0.551,0.584,0.198,0.042: // measure 1
0000
0000
0000
0000
,  // measure 2
0000
0000
0000
0000
,  // measure 3
1000
0100
1000
0001
0000
1000
0000
0010
,  // measure 4
0100
0010
1000
0100
1000
0001
0110
0100
,  // measure 5
1100
1000
0010
1000
0000
0001
0000
1000
,  // measure 6
0001
0100
0010
0100
0001
1000
1010
0100
,  // measure 7
0101
0010
0001
1000
0000
0001
0000
1000
,  // measure 8
0001
0100
0010
0100
0001
1000
1001
0001
,  // measure 9
1001
1000
1100
0100
0110
1001
0000
1001
,  // measure 10
0110
0100
0101
0001
0011
0010
0110
0010
,  // measure 11
1010
1000
1100
0100
0110
1001
0000
1001
,  // measure 12
0110
0100
1100
0110
0100
0101
0001
1001
,  // measure 13
1000
0100
1000
0001
0000
1000
0000
0001
,  // measure 14
0100
0001
1000
0010
0100
0001
0101
1000
,  // measure 15
1100
0001
0100
0001
0000
1000
0000
0001
,  // measure 16
0100
0010
1000
0001
1000
0010
1100
0010
,  // measure 17
0102
0100
1000
0013
,  // measure 18
0200
1000
0010
0301
,  // measure 19
2000
0010
0001
3100
,  // measure 20
0020
0001
0100
1030
,  // measure 21
0002
0100
1000
0013
,  // measure 22
0200
1000
0010
0301
,  // measure 23
2000
0010
0001
3100
,  // measure 24
0002
0000
0100
0000
1003
1010
0011
0101
,  // measure 25
1100
1000
0010
0100
0001
0100
0010
1000
,  // measure 26
0100
0001
0100
1000
0001
0100
1000
0100
,  // measure 27
0001
1000
0100
0001
0100
1000
0001
1000
,  // measure 28
0100
0001
0100
1000
0001
1000
0010
0100
,  // measure 29
2002
0000
0000
0000
3003
1000
0100
0001
,  // measure 30
0020
0000
0000
0000
0000
0000
0000
0000
0030
0000
0000
0000
1000
0000
0001
0010
,  // measure 31
0001
1000
0100
0001
,  // measure 32
2002
0000
0000
0000
0000
0000
0000
0000
0000
0000
0000
0000
3003
0000
1000
0100
,  // measure 33
0000
0000
0001
0010
0000
0000
1000
0100
0000
0000
0001
0010
0000
0000
1000
0200
,  // measure 34
0000
0000
0000
0000
0000
0000
0000
0000
0000
0000
0000
0000
0000
0300
1000
0100
,  // measure 35
0000
0000
0000
0000
0000
0000
0001
0000
0100
0010
0001
0000
1000
0000
0010
0000
,  // measure 36
0001
0000
0000
0220
0000
0330
2002
0000
,  // measure 37
3003
0000
0000
0000
0000
0001
0100
1000
,  // measure 38
0020
0000
0000
0000
0000
0000
0000
0000
0000
0000
0030
0000
0000
0000
1000
0100
,  // measure 39
1000
0001
0100
0010
,  // measure 40
2002
0000
0000
3003
,  // measure 41
1010
1001
0011
1001
0000
0011
0000
1100
,  // measure 42
0011
1001
1100
1001
0000
0001
0100
1000
,  // measure 43
1100
1001
0101
1001
0000
1010
0000
0101
,  // measure 44
1001
1010
0101
1001
0000
1000
0100
0001
,  // measure 45
1000
1100
0100
0101
0001
0011
0010
1010
,  // measure 46
1001
0000
0000
0000
;

//---------------dance-single - ONI----------------
#NOTES:
     dance-single:
     ONI:
     Challenge:
     10:
     0.741,0.721,0.810,0.377,0.546: // measure 1
0000
0000
0000
0000
,  // measure 2
0000
0000
0000
0000
,  // measure 3
1100
1001
1010
1001
0000
0011
0000
1100
,  // measure 4
0011
1001
0101
1001
0000
0110
1001
0110
,  // measure 5
0000
0001
0100
0001
1000
0000
0010
0100
0001
0000
1000
0000
0001
0000
0100
0001
,  // measure 6
0000
1000
0100
1000
0001
0000
0100
0010
1000
0000
0001
0000
0100
0000
0001
1000
,  // measure 7
0000
0001
0100
0001
1000
0000
0010
0100
0001
0000
1000
0000
0001
0000
1000
0100
,  // measure 8
0000
1000
0100
1000
0001
0000
0100
0010
1000
0000
0001
0000
1000
0000
0001
0100
,  // measure 9
1001
1100
1001
1010
1001
1100
1001
0101
,  // measure 10
1001
0011
1001
0101
0011
0101
1100
1010
,  // measure 11
1100
0101
0011
0101
1100
1010
1100
1001
,  // measure 12
0101
1001
0011
1001
1010
1100
0101
0011
,  // measure 13
1001
1000
0100
1000
0001
0000
0100
0010
1000
0000
0001
0000
0100
0000
0010
1000
,  // measure 14
0000
0001
0010
0001
1000
0000
0100
0010
0001
0000
1000
0000
0001
0000
0100
0010
,  // measure 15
0000
1000
0010
1000
0001
0000
0100
0010
1000
0000
0100
0000
0010
0000
0001
1000
,  // measure 16
0000
1000
0010
0001
0100
0000
1000
0010
0001
0000
0100
0000
1000
0000
0010
1000
,  // measure 17
0001
0100
0010
0001
1000
0100
0001
0010
1000
0001
0100
0010
0001
0100
1000
0001
,  // measure 18
0010
0100
0001
1000
0100
0001
1000
0010
0100
1000
0010
0100
0001
1000
0100
0001
,  // measure 19
1000
0010
0100
1000
0010
0100
0001
0010
1000
0001
0100
0010
1000
0010
0001
0010
,  // measure 20
1000
0001
0100
1000
0010
0100
0001
0100
0010
1000
0010
0100
0001
1000
0100
0001
,  // measure 21
0100
1000
0010
0100
0001
0100
1000
0100
0001
0010
1000
0001
0100
0010
1000
0001
,  // measure 22
0100
1000
0001
0010
0100
1000
0010
0100
0001
0010
1000
0010
0100
0001
1000
0010
,  // measure 23
0001
1000
0010
0001
1000
0100
0010
0001
1000
0100
0001
0010
0100
1000
0010
0100
,  // measure 24
0001
0100
0010
1000
0100
0010
0001
0100
0010
1000
1001
0000
0110
0000
1001
0000
,  // measure 25
0110
0000
1000
0000
0100
0000
0010
0000
0002
0000
0000
0000
0000
0003
2000
3200
,  // measure 26
0302
0003
0010
0000
1000
0000
0100
0000
0010
0000
0001
0000
0100
0000
0010
0000
,  // measure 27
2000
0200
0000
3300
0020
0000
0030
0000
0002
0000
0003
0000
0020
0000
0030
0000
0002
0000
0003
0000
0020
0000
0030
0000
0200
0000
0300
0000
2000
0000
3000
0000
,  // measure 28
0100
0010
0001
1000
0010
1000
0001
0100
,  // measure 29
0001
0000
0100
0000
0010
0000
1000
0000
0001
0000
2002
3003
0202
0303
2020
3030
,  // measure 30
2002
3003
1000
0000
1000
0000
0001
0000
0001
0000
0100
0000
0100
0000
0010
0001
,  // measure 31
0020
0000
0000
0000
0030
0000
0000
0000
2000
0000
0000
0000
0000
0000
0000
0000
3200
0000
0000
0000
0000
0000
0000
0000
0302
0000
0000
0000
0000
0000
0013
1000
,  // measure 32
0020
0000
0000
0000
0030
0000
1000
0000
1000
0000
0010
0000
0010
0000
0001
0100
,  // measure 33
0200
0000
1300
0010
0020
0000
0031
0100
0200
0000
1300
0010
0020
0000
0031
0100
,  // measure 34
0200
0000
0301
0000
0100
0000
0010
0000
1000
0000
0100
0000
0010
0000
1000
0020
,  // measure 35
0000
0000
0000
0000
0030
0000
0001
0000
0100
0010
0001
0000
2000
0000
3010
0000
,  // measure 36
0002
0000
0000
0203
0000
0000
1300
1001
,  // measure 37
1000
0100
0010
0001
1000
1100
1010
0011
,  // measure 38
0101
0000
1000
0000
0100
0000
0010
0000
0001
0000
0100
0000
0010
0000
1000
0100
,  // measure 39
2000
0000
0000
0000
3000
0000
0000
0000
0200
0000
0000
0000
0300
0000
0000
0000
0002
0000
0000
0000
0003
0000
0000
0000
0020
0000
0000
0000
0030
0000
1000
0100
,  // measure 40
2000
3000
0100
0001
0010
1000
0100
0001
,  // measure 41
1010
1001
0101
1001
0000
0011
0000
1100
,  // measure 42
1010
1001
1010
1100
0000
0110
1001
0110
,  // measure 43
0011
1001
1100
1001
0000
1100
0000
0011
,  // measure 44
0101
1001
0101
0011
0000
0110
1001
0110
,  // measure 45
1000
0100
0010
0001
0100
0010
1000
0100
0010
0001
0100
0010
1000
0100
0010
0001
,  // measure 46
1001
0000
0000
0000
;

//---------------dance-single - BEGINNER----------------
#NOTES:
     dance-single:
     BEGINNER:
     Beginner:
     1:
     0.097,0.148,0.057,0.000,0.000: // measure 1
0000
0000
0000
0000
,  // measure 2
0000
0000
0000
0000
,  // measure 3
1000
0000
0000
0000
,  // measure 4
0001
0000
0000
0000
,  // measure 5
1000
0000
0000
0000
,  // measure 6
0001
0000
0000
0000
,  // measure 7
1000
0000
0000
0000
,  // measure 8
0001
0000
0000
0000
,  // measure 9
1000
1000
1000
0000
,  // measure 10
0001
0001
0001
0000
,  // measure 11
0010
0010
0010
0000
,  // measure 12
0100
0100
0100
0000
,  // measure 13
1000
0000
0000
0000
,  // measure 14
0001
0000
0000
0000
,  // measure 15
1000
0000
0000
0000
,  // measure 16
0001
0000
0000
0000
,  // measure 17
1000
0000
0000
0000
,  // measure 18
0000
0000
0000
0000
,  // measure 19
0001
0000
0000
0000
,  // measure 20
0000
0000
0000
0000
,  // measure 21
1000
0000
0000
0000
,  // measure 22
0000
0000
0000
0000
,  // measure 23
0001
0000
0000
0000
,  // measure 24
0000
0000
0000
0000
,  // measure 25
1001
0000
0000
0000
,  // measure 26
0001
0000
0000
0000
,  // measure 27
1000
0000
0000
0000
,  // measure 28
1001
0000
0000
0000
,  // measure 29
0010
0000
0000
0000
,  // measure 30
0100
0000
0000
0000
,  // measure 31
0000
0001
1000
0000
,  // measure 32
1001
0000
0000
0000
,  // measure 33
1000
0001
1000
0001
,  // measure 34
0100
0000
0000
0000
,  // measure 35
1000
0000
0001
0000
,  // measure 36
1000
0000
0010
0000
,  // measure 37
0100
0000
0000
0000
,  // measure 38
1001
0000
0000
0000
,  // measure 39
1000
0001
0100
0010
,  // measure 40
1001
0000
0000
0000
,  // measure 41
1000
0000
1000
0000
,  // measure 42
0001
0000
0001
0000
,  // measure 43
1000
1000
1000
0000
,  // measure 44
0001
0001
0001
0000
,  // measure 45
0010
0100
0001
1000
,  // measure 46
1001
0000
0000
0000
;
