#TITLE:A c i - L;
#SUBTITLE:;
#ARTIST:-45;
#TITLETRANSLIT:;
#SUBTITLETRANSLIT:;
#ARTISTTRANSLIT:;
#CREDIT:;
#BANNER:Aci-L.png;
#BACKGROUND:A c i - L-bg2.png;
#LYRICSPATH:;
#CDTITLE:cdtitle.png;
#MUSIC:A c i - L.mp3;
#OFFSET:-2.640;
#SAMPLESTART:39.700;
#SAMPLELENGTH:12.000;
#SELECTABLE:YES;
#BPMS:0.000=162.000;
#STOPS:;
#BGCHANGES:-4.000=A c i - L.avi=1.000=1=1=0,
385.000=A c i - L-bg2.png=1.000=1=1=1,
99999=-nosongbg-=1.000=0=0=0 // don't automatically add -songbackground-
;

//---------------dance-single - BASIC----------------
#NOTES:
     dance-single:
     BASIC:
     Easy:
     3:
     0.266,0.327,0.020,0.109,0.000: // measure 1
0000
0000
0000
0000
,  // measure 2
0000
0000
0000
0000
,  // measure 3
0000
0000
0000
0000
,  // measure 4
0000
0000
0000
0000
,  // measure 5
0000
0000
0000
0000
,  // measure 6
0000
0000
0000
0000
,  // measure 7
0000
0000
0000
0000
,  // measure 8
0000
0000
0000
0000
,  // measure 9
0001
0000
0000
0000
,  // measure 10
1000
0000
0000
0000
,  // measure 11
0100
0000
0000
0000
,  // measure 12
0010
0000
0000
0000
,  // measure 13
0001
0000
0000
0000
,  // measure 14
1000
0000
0000
0000
,  // measure 15
0010
0000
0000
0000
,  // measure 16
0100
0000
0000
0000
,  // measure 17
1002
0000
0000
0000
,  // measure 18
0203
0000
0000
0000
,  // measure 19
0320
0000
0000
0000
,  // measure 20
2030
0000
0000
0000
,  // measure 21
3002
0000
0000
0000
,  // measure 22
0203
0000
0000
0000
,  // measure 23
0320
0000
0000
0000
,  // measure 24
2030
0000
0000
0000
,  // measure 25
3020
0000
0000
0000
,  // measure 26
0230
0000
0000
0000
,  // measure 27
0302
0000
0000
0000
,  // measure 28
2003
0000
0000
0000
,  // measure 29
3020
0000
0000
0000
,  // measure 30
0230
0000
0000
0000
,  // measure 31
2300
0000
0000
0000
,  // measure 32
3200
0000
0000
0000
,  // measure 33
0310
0100
0010
0100
,  // measure 34
0001
0010
0100
1000
,  // measure 35
0100
0010
0001
0010
,  // measure 36
0100
1000
0100
1000
,  // measure 37
0010
1000
0010
1000
,  // measure 38
0001
0010
0001
0010
,  // measure 39
0100
1000
0100
1000
,  // measure 40
0010
1000
0010
1000
,  // measure 41
0001
0100
0001
0100
,  // measure 42
0001
1000
0001
1000
,  // measure 43
0010
1000
0100
0010
,  // measure 44
0001
0010
0100
1000
,  // measure 45
0010
1000
0010
1000
,  // measure 46
0001
0010
0001
0010
,  // measure 47
0001
1000
0001
1000
,  // measure 48
0010
1000
0010
1000
,  // measure 49
0001
0010
0100
0000
,  // measure 50
1000
0100
0010
0000
,  // measure 51
0001
0010
0100
0000
,  // measure 52
1000
0100
0001
0000
,  // measure 53
0001
0100
1000
0000
,  // measure 54
0001
0100
1000
0000
,  // measure 55
1000
0100
0001
0000
,  // measure 56
1000
0100
0001
0000
,  // measure 57
0001
0010
0100
0000
,  // measure 58
1000
0010
0100
0000
,  // measure 59
0001
0010
0100
0000
,  // measure 60
0001
0100
1000
0000
,  // measure 61
1000
0100
0001
0000
,  // measure 62
0001
0100
1000
0000
,  // measure 63
0001
0100
1000
0000
,  // measure 64
0001
0010
1000
0100
,  // measure 65
1001
0000
0001
0000
,  // measure 66
0001
0000
0001
0001
,  // measure 67
0001
0000
1000
0000
,  // measure 68
1000
0000
1000
1000
,  // measure 69
1000
0000
0010
0000
,  // measure 70
0010
0000
0010
0010
,  // measure 71
0010
0000
0100
0000
,  // measure 72
0100
0000
0100
0100
,  // measure 73
0100
0001
0010
0100
,  // measure 74
1000
0010
0100
0001
,  // measure 75
0010
0100
1000
0100
,  // measure 76
0010
0001
0100
0010
,  // measure 77
1000
0100
0010
0001
,  // measure 78
0100
0010
1000
0100
,  // measure 79
0010
0100
1000
0001
,  // measure 80
0010
0100
0010
0001
,  // measure 81
1000
0010
0100
1000
,  // measure 82
0001
0010
0100
0001
,  // measure 83
0100
0010
1000
0100
,  // measure 84
0010
0001
0010
0100
,  // measure 85
0001
1000
0100
0010
,  // measure 86
1000
0010
0100
0001
,  // measure 87
0100
0010
1000
0010
,  // measure 88
0100
0001
0100
0010
,  // measure 89
1000
0010
0001
0100
,  // measure 90
1000
0010
0001
0100
,  // measure 91
1000
0001
0100
1000
,  // measure 92
0010
0001
0100
1000
,  // measure 93
0010
0001
0100
0010
,  // measure 94
1000
0100
0001
0100
,  // measure 95
1000
0010
0001
0010
,  // measure 96
1000
0100
0001
0010
,  // measure 97
1001
0000
0000
0000
;

//---------------dance-single - TRICK----------------
#NOTES:
     dance-single:
     TRICK:
     Medium:
     6:
     0.444,0.556,0.245,0.068,0.000:
0000
0000
0000
0000
,
0000
0000
0000
0000
,
0000
0000
0000
0000
,
0000
0000
0000
0000
,
0000
0000
0000
0000
,
0000
0000
0000
0000
,
0000
0000
0000
0000
,
0000
0000
0000
0000
,
1001
0000
0000
0000
0000
0000
0000
0100
,
1000
0000
0000
0000
0000
0000
0000
0010
,
0100
0000
0000
0000
0000
0000
0000
0100
,
0010
0000
0100
0000
0010
0100
0000
1000
,
0001
0000
0000
0000
0000
0000
0000
0100
,
1000
0000
0000
0000
0000
0000
0000
0100
,
0010
0000
0000
0000
0000
0000
0000
0010
,
0100
0000
0010
0000
0001
0100
1000
0010
,
0002
0000
1000
0000
,
0203
0000
0001
0000
,
0320
0000
1000
0000
,
2030
0000
0100
0000
,
3002
0000
0010
0000
,
0203
0000
0001
0000
,
0320
0000
1000
0000
,
2030
0000
0010
0000
,
3010
0001
0100
0010
,
0100
1000
0001
0100
,
0001
0010
1000
0100
,
1000
0100
0010
0001
,
0010
0100
0001
0010
,
0100
1000
0010
0100
,
1000
0100
0010
0001
,
0100
0010
1000
0100
,
0010
0100
1000
0000
0010
0100
0001
0000
,
0001
0010
0100
1000
,
0100
0010
0001
0000
0001
0010
0100
0000
,
0001
1000
0100
1000
,
0010
0100
1000
0000
0010
0100
1000
0000
,
0001
0010
0001
0010
,
0100
0001
1000
0000
0100
0001
1000
0000
,
0010
0100
1000
0100
0010
0001
1000
0000
,
0001
0110
0001
0100
,
0001
1010
0001
1100
,
0010
0100
1000
0000
0100
0010
0001
0000
,
1001
0110
0100
1100
,
0010
0100
1000
0100
0010
0001
0100
0010
,
1000
0100
0010
0001
0010
0001
0010
0100
,
1000
0100
1000
0100
0010
0001
0010
0100
,
0010
1000
0010
0001
0010
0100
2000
0000
,
3001
0010
0010
0000
0110
0000
1100
0000
,
1000
1000
0100
0000
0110
0000
0011
0000
,
0001
0001
0010
0000
0110
0000
1100
0000
,
1000
1000
0100
0000
0101
0000
0011
0000
,
0001
0001
0100
0000
0110
0000
1001
0000
,
0001
0001
0100
0000
1100
0000
1001
0000
,
1000
0100
0010
0000
1000
0100
0001
0000
,
0001
0100
0010
0000
0001
0100
1000
0000
,
0001
0010
0010
0100
0100
1000
0000
0000
,
1000
0010
0010
0100
0100
0001
0000
0000
,
0001
1000
0010
0010
0100
0100
0000
0000
,
0001
1000
0100
0100
0010
0010
0000
0000
,
1000
0100
0100
0010
0001
0100
0000
0000
,
0001
0100
0100
1000
0010
0100
0000
0000
,
0001
0010
0100
1000
0100
0000
0010
0000
,
0001
0010
0010
0100
1000
0100
0001
0000
,
1000
0000
0000
0100
0000
0000
0001
0000
,
0000
0001
0000
0000
0001
0000
0101
0000
,
1001
0000
0000
0100
0000
0000
1000
0000
,
0000
1000
0000
0000
1000
0000
1100
0000
,
1001
0000
0000
0010
0000
0000
0010
0000
,
0000
0010
0000
0000
0010
0000
0110
0000
,
1010
0000
0000
0100
0000
0000
0100
0000
,
0000
0100
0000
0000
0100
0000
0110
0000
,
0101
0000
0000
0001
0000
0000
0100
0000
,
0000
1000
0000
0000
0100
0000
1001
0000
,
0110
0000
0000
0100
0000
0000
1000
0000
,
0000
0001
0000
0000
0100
0000
0110
0000
,
1010
0000
0000
0100
0000
0000
0001
0000
,
0000
0010
0000
0000
1000
0000
1100
0000
,
1010
0000
0000
0100
0000
0000
0001
0000
,
0000
0010
0000
0000
0110
0000
0101
0000
,
1100
0100
0010
0000
1000
0100
0010
0000
,
0001
0010
0100
0000
0001
0010
0100
0000
,
1000
0100
0010
0000
1000
0100
0010
0000
,
0001
0100
0010
0000
0001
0100
0010
0000
,
1000
0100
0001
0000
1000
0100
0001
0000
,
0001
0100
1000
0000
0001
0100
1000
0000
,
1000
0100
0001
0000
0001
0010
1000
0000
,
1000
0100
0001
0000
0001
0010
1000
0000
,
1000
0100
0010
0010
0001
0010
0100
0000
,
1000
0100
0010
0010
0001
0010
0100
0000
,
0001
0100
0010
0010
1000
0010
0100
0000
,
0001
0100
0010
0010
1000
0010
0100
0000
,
0010
0100
0010
0100
0010
0100
0010
1000
,
0100
1000
0100
1000
0100
1000
0100
1000
,
0010
1000
0010
1000
0010
1000
0010
0100
,
1000
0100
0010
0001
0100
0010
2000
0000
,
3001
0000
0000
0000
;

//---------------dance-single - HEAVY----------------
#NOTES:
     dance-single:
     HEAVY:
     Hard:
     9:
     0.610,0.622,0.552,0.082,0.075:
0000
0000
0000
0000
,
0000
0000
0000
0000
,
0000
0000
0000
0000
,
0000
0000
0000
0000
,
0000
0000
0000
0000
,
0000
0000
0000
0000
,
0000
0000
0000
0000
,
0000
0000
0000
0000
,
1001
0000
0010
0000
0100
1000
0000
0100
,
1000
0000
0010
0000
0100
0010
0000
0010
,
0100
0000
1000
0000
0100
0010
0000
0100
,
0010
0000
0000
0000
0100
0000
0000
0000
0010
0000
0100
0000
0000
0000
1000
0100
,
0001
0000
0010
0000
0100
1000
0000
0100
,
1000
0000
0100
0000
0010
0100
0000
0100
,
0010
0000
0100
0000
1000
0100
0000
0010
,
0100
0000
0010
0000
0001
0100
1000
0010
,
0002
0100
1000
0010
,
0203
1000
0010
0001
,
2300
0010
0001
0100
,
3020
0001
0100
1000
,
0032
0100
1000
0010
,
0203
1000
0010
0001
,
2300
0010
0001
0100
,
3001
0000
0000
0000
0010
0000
0000
0000
0010
0000
1000
0000
0100
0010
0100
0010
,
0100
0010
0001
0010
0100
1000
0010
0100
,
0010
0100
1000
0100
0001
0010
0100
1000
,
0100
1000
0100
0010
0001
0010
0100
1000
,
0010
0100
0010
1000
0010
0100
0001
0010
,
0100
1000
0100
1000
0100
0010
0001
0010
,
0001
0010
0100
1000
0010
1000
0100
1000
,
0001
0100
0010
1000
0100
0010
0001
0010
,
0100
0100
0010
1000
1000
0100
0002
0000
,
0013
0100
1000
0100
0010
0200
0001
0300
,
0011
0101
1010
1001
,
0100
0010
0001
0010
1000
0020
0100
0030
,
0101
1010
0110
1100
,
0010
0100
1000
0100
0010
0200
1000
0300
,
0101
0110
0011
1010
,
0100
0001
1000
0010
0001
0200
1000
0300
,
0110
1100
0110
1001
,
0001
0010
0110
0000
1000
0010
0110
0000
,
0001
0100
0110
0000
0001
0100
0110
0000
,
0010
0100
1100
0000
0010
0100
0101
0000
,
1001
0110
0101
1100
,
0010
0100
1000
0010
0100
0001
1000
0010
,
1000
0100
0001
0010
0100
0010
1000
0001
,
0010
1000
0001
0100
0010
0001
1000
0010
,
0001
1000
0100
0001
0010
0100
1000
0100
,
1001
1000
0100
0000
0110
0100
0001
0100
,
1000
1000
0100
0000
0110
0000
0011
0000
,
0001
0001
0010
1000
0100
0000
1100
0000
,
1000
1000
0100
0000
0101
0000
0011
0000
,
0001
0001
0100
0010
0110
0000
1001
0000
,
0001
0001
0100
1000
1100
0000
1001
0000
,
1000
0100
0010
0100
1000
0100
0001
0000
,
0001
0100
0010
0100
0001
0100
1000
0001
,
0000
0000
1100
0000
0000
1001
0000
0000
1010
0000
0000
1001
0000
0000
0100
0000
,
0000
0000
0101
0000
0000
0011
0000
0000
1010
0000
0000
1001
0000
0000
1000
0000
,
0000
0000
1010
0000
0000
0110
0000
0000
0101
0000
0000
1010
0000
0000
0100
0000
,
0000
0000
1100
0000
0000
0101
0000
0000
0110
0000
0000
0110
0000
0000
0010
0000
,
0000
0000
1100
0000
0000
0110
0000
0000
0101
0000
0000
1010
0000
0000
0001
0000
,
0000
0000
0101
0000
0000
1010
0000
0000
1100
0000
0000
0101
0000
0000
0010
0000
,
0000
0000
0011
0000
0000
0110
0000
0000
0110
0000
0000
0101
0000
0000
0010
0000
,
0000
0000
0011
0000
0000
1010
0000
0000
1100
0000
0000
0101
0000
0000
0000
0000
,
1001
0100
0000
0100
0000
0100
0000
0100
,
0000
0100
0000
0100
0000
0100
0000
0100
,
0000
0010
0000
0010
0000
0010
0000
0010
,
0000
0010
0000
0010
0000
0010
0000
0010
,
0000
1000
0000
0100
0000
0010
0000
0001
,
0000
0100
0000
1000
0000
0010
0000
0100
,
0000
0001
0000
0100
0000
0010
0000
1000
,
0000
0100
0000
1000
0000
0100
0000
0001
,
0011
0000
0010
0001
0010
0100
0000
1000
,
0100
0000
0001
0100
0010
1000
0100
1000
,
0010
0000
0100
0010
0001
0100
0010
1000
,
0100
0000
0000
0000
0010
0000
0000
0000
0100
0000
0010
0000
0000
0000
1000
0100
,
0001
0000
0010
0100
0010
1000
0001
0010
,
0100
0000
0001
0010
1000
0100
1000
0010
,
1000
0000
0100
0010
0100
0100
0010
1000
,
0100
0000
0000
0000
0010
0000
0000
0000
0100
0000
0010
0000
1000
0100
1000
0100
,
0010
0100
0110
0000
1000
0100
0110
0000
,
0001
0010
0110
0000
0001
0010
0110
0000
,
1000
0100
0110
0000
1000
0100
0110
0000
,
0001
0100
1001
0000
0001
0100
1001
0000
,
1000
0100
0001
0100
1000
0100
0001
0010
,
0001
0100
1000
0100
0001
0100
1000
0100
,
0001
0010
1000
0010
0001
0010
1000
0000
,
1000
0100
0001
0000
0001
0010
1000
0000
,
1000
0100
0010
0010
0001
0010
0100
0100
,
1000
0100
0010
0010
0100
0010
0010
1000
,
0001
0100
0010
0010
1000
0010
0100
0100
,
0001
0100
0010
0010
1000
0010
0100
0000
,
1000
0100
0001
0100
0010
0100
1000
0001
,
0100
0010
0001
0100
1000
0100
0010
0100
,
0001
0010
1000
0010
0100
1000
0010
0100
,
1000
0100
0001
0010
0100
0010
1000
0001
,
1001
0000
0000
0000
;

//---------------dance-single - ONI----------------
#NOTES:
     dance-single:
     ONI:
     Challenge:
     12:
     1.000,1.000,1.000,1.000,1.000:
0000
0000
0000
0000
,
0000
0000
0000
0000
,
0000
0000
0000
0000
,
0000
0000
0000
0000
,
0000
0000
0000
0000
,
0000
0000
0000
0000
,
0000
0000
0000
0000
,
0000
0000
0000
0000
,
1000
0100
0000
1000
0100
0000
1000
0100
0000
1000
0100
0000
1000
0100
1000
0100
,
1000
0001
0100
0000
0001
0100
0000
0001
0100
0000
0001
0100
0001
0100
0001
0000
,
1000
0100
0000
0001
0100
0000
1000
0100
0000
0001
0010
0000
1000
0100
1000
0100
,
0010
0100
0000
1000
0100
0000
0010
0001
0000
0100
0010
0000
1000
0100
1000
0100
,
1000
0001
0000
0001
0100
0000
0010
1000
0000
1000
0100
0000
0010
0001
0010
0000
,
0100
1000
0000
0001
0100
0000
0010
1000
0000
0100
0001
0000
0100
1000
0100
0000
,
0010
0001
0000
0100
0010
0000
1000
0100
0000
0010
0001
0000
1000
0100
1000
0000
,
0010
0001
0000
0100
1000
0000
0010
0100
0000
0001
0100
0001
0100
0010
1000
0010
,
1000
0001
0010
0001
0100
0010
1000
0100
1000
0010
0100
0001
0010
0001
0100
0010
,
1000
0100
1000
0010
0100
0001
0010
0001
0100
0010
1000
0010
1000
0100
0010
0001
,
0010
0001
0100
0010
1000
0100
1000
0010
0100
0010
1000
0001
0010
0100
1000
0100
,
0010
0001
0010
0001
0010
0100
1000
0100
1000
0100
0010
0001
0010
0001
0100
0010
,
1000
0100
1000
0010
0100
0001
0010
0001
0100
0010
0001
0010
1000
0100
1000
0010
,
0100
0001
0010
1000
0010
0001
0100
0010
1000
0100
0010
0001
0100
0010
1000
0100
,
1000
0010
0100
0001
0010
0001
0100
0010
0100
0001
0100
0010
1000
0100
0010
0001
,
1000
0010
0100
0001
1000
0000
0000
0000
0010
0000
1000
0000
0100
0010
0100
0010
,
0100
0010
0001
0010
0100
1000
0010
0100
,
0010
0100
1000
0100
0001
0010
0100
1000
,
0100
1000
0100
0010
0001
0010
0100
1000
,
0010
0000
0100
0000
0010
0000
1000
0010
0100
0010
0100
0000
0001
0000
0010
0000
,
0100
1000
0100
1000
0100
0010
0001
0010
,
0001
0010
0100
1000
0010
1000
0100
1000
,
0001
0100
0010
1000
0100
0010
0001
0010
,
0100
0000
0100
0000
0010
0000
1000
0100
1000
0010
0100
0000
0001
0000
0100
0000
,
0010
0100
0001
1000
0010
0100
0001
0100
0010
1000
0100
0000
0100
0010
0001
0100
,
0010
1000
0100
0000
0010
0001
0100
0010
1000
0100
0010
0000
0001
0100
0010
1000
,
0100
0010
0001
0000
0100
0010
1000
0100
0010
0001
0010
0000
0100
1000
0010
1000
,
0001
0100
0010
0000
0100
0010
0100
0001
0100
0010
1000
0000
0100
1000
0001
0010
,
0001
0100
0010
0000
1000
0010
0100
0010
1000
0001
0100
0000
0010
1000
0100
0010
,
0001
0100
0010
0000
0100
0001
0010
0001
0100
0010
1000
0000
0010
1000
0010
0100
,
0001
0010
0001
0000
1000
0010
1000
0100
0010
0100
1000
0000
0001
0010
0100
0010
,
0001
1000
0001
0000
1000
0010
0100
0001
0100
0010
1000
0000
1000
0001
1000
0000
,
0020
0000
0000
0000
0200
0300
0000
0000
0032
0000
0000
0000
2000
3000
0000
0000
0023
0030
0000
0000
0200
0300
0000
0000
0002
0000
0000
0000
0200
0300
0000
0000
0023
0000
0000
0000
2000
3000
0000
0000
0230
0000
0000
0000
0300
0000
0000
0000
0200
0000
0000
0000
0020
0030
0000
0000
0302
0000
0000
0000
0200
0300
0000
0000
,
0023
0000
0000
0000
2000
3000
0000
0000
0230
0000
0000
0000
0000
0000
0000
0000
0320
0000
0000
0000
0002
0003
0000
0000
0230
0000
0000
0000
0020
0030
0000
0000
2300
0000
0000
0000
0200
0300
0000
0000
3020
0000
0000
0000
0000
0000
0000
0000
0032
0000
0000
0000
0200
0300
0000
0000
0023
0000
0000
0000
2000
3000
0000
0000
,
0230
0000
0000
0000
0020
0030
0000
0000
0302
0000
0000
0000
0000
0000
0000
0000
0203
0000
0000
0000
0020
0030
0000
0000
2300
0000
0000
0000
0200
0300
0000
0000
3020
0030
0000
0000
0002
0000
0000
0000
0020
0030
0000
0000
0003
0000
0000
0000
0200
0000
0000
0000
2000
3000
0000
0000
0320
0000
0000
0000
2000
3000
0000
0000
,
0032
0000
0000
0000
0200
0300
0000
0000
0023
0000
0000
0000
0000
0000
0000
0000
0230
0300
0000
0000
0020
0000
0000
0000
0200
0300
0000
0000
0032
0003
0000
0000
0200
0000
0000
0000
0020
0030
0000
0000
2300
0000
0000
0000
0000
0000
0000
0000
3200
0000
0000
0000
2000
3000
0000
0000
0301
0000
0000
0000
0010
0000
0000
0000
,
0001
0010
0001
0010
0001
0010
0001
0010
0001
0010
0001
0010
0001
0010
0001
0010
,
0001
1000
0100
1000
0100
1000
0100
1000
0100
1000
0100
1000
0100
1000
0100
1000
,
0010
0100
0010
0100
0010
0100
0010
0100
0001
1000
0001
1000
0001
1000
0001
1000
,
0010
0100
0010
0100
0010
0100
0010
0100
0010
1000
0010
1000
0001
0100
0010
1000
,
1100
0000
0000
0110
0000
0000
0101
0000
0100
0010
0100
0001
1000
0010
0100
0010
,
1010
0000
0000
0110
0000
0000
1010
0000
1000
0010
0100
0010
1000
0100
0010
0001
,
0011
0000
0000
0101
0000
0000
1010
0000
1000
0010
0100
0010
1000
0100
0010
0001
,
0011
0000
0000
1001
0000
0000
1010
0000
1000
0010
0100
0001
0100
0010
1000
0000
,
1010
0000
0000
0110
0000
0000
0011
0000
0010
0100
1000
0001
0100
0010
1000
0010
,
1010
0000
0000
1100
0000
0000
1010
0000
1000
0001
0100
0010
1000
0100
1000
0010
,
1010
0000
0000
1100
0000
0000
0011
0000
0001
0010
0100
0010
0100
1000
0001
0010
,
0011
0000
0000
0110
0000
0000
1100
0000
1000
0010
0001
0010
1000
0100
0010
0000
,
0011
0000
0000
0101
0000
0000
1010
0000
1000
0100
0010
0001
0100
0010
0100
0000
,
0101
0000
0000
0110
0000
0000
1010
0000
1000
0100
0010
0001
0100
0010
1000
0010
,
1010
0000
0000
1001
0000
0000
1100
0000
0100
0010
0001
1000
0100
0010
0100
1000
,
1100
0000
0000
0110
0000
0000
0011
0000
0001
0100
0010
0100
0001
1000
0010
0000
,
0101
0000
0000
0110
0000
0000
1010
0000
0001
0010
0100
0010
0100
1000
0100
0010
,
0110
0000
0000
1100
0000
0000
1010
0000
1000
0010
0100
0001
0100
0010
1000
0010
,
1010
0000
0000
0011
0000
0000
0110
0000
0001
0010
0100
0010
1000
0010
0001
1000
,
1001
0000
0000
1010
0000
0000
0101
0000
0001
0100
0010
1000
0100
0010
0001
0000
,
1001
0220
0330
0202
0303
0220
0330
2200
,
3300
0202
0303
0220
0330
2200
3300
0202
,
0303
0220
0330
2020
3030
0202
0303
0220
,
0330
0022
0033
2020
3030
0220
0330
0202
,
0303
2020
3030
2200
3300
0022
0033
2020
,
3030
2200
3300
0220
0330
0022
0033
2200
,
3300
0220
0330
0202
0303
2020
3030
2200
,
3300
0022
0033
2200
3300
0220
0330
0011
,
0010
0100
0010
1001
1010
1100
0001
1010
,
0110
0100
0001
0101
0010
1010
0100
1100
,
0110
0010
0001
1010
0100
0101
0010
1010
,
0110
0101
0110
1010
0110
2002
3003
1010
,
0101
0110
0100
0110
0010
1010
0001
0110
,
0101
0010
0001
0110
1100
0110
1000
1010
,
1001
1100
0100
0110
0010
0110
0100
1001
,
0110
1010
0011
1001
0101
1010
1100
1010
,
0101
0002
0100
0013
2000
0100
3020
0001
1030
0200
0010
0300
0101
0100
0001
0200
,
0010
2300
0010
3000
1010
0020
1000
0130
2000
0010
3100
0000
0110
0020
0100
0031
,
0200
0010
1300
0000
1100
0200
0010
0301
2000
0010
3100
0000
0110
0020
1000
0130
,
0010
0200
1000
0300
1020
1000
0031
0100
0002
1000
0103
0000
1010
0020
1000
0230
,
1000
0302
0200
0303
0101
0002
0100
0023
1000
0230
1300
0000
1100
2000
0001
3020
,
0001
0230
0001
0300
0101
0200
0302
0010
0203
1000
0310
0000
1010
2000
0010
3100
,
0020
1000
0130
0000
1100
1000
0200
1000
0301
0200
0001
0300
0101
0100
0002
0010
,
0103
0020
0001
0030
0011
0001
0010
0002
0010
0203
1000
0300
1000
0002
2000
3003
,
2020
3000
0000
0000
2030
3000
0000
0000
0200
0300
0000
0000
0020
0030
0000
0000
0200
0300
0000
0000
2000
3000
0000
0000
0200
0300
0000
0000
0000
0000
0000
0000
2002
0003
0000
0000
3002
0003
0000
0000
0020
0030
0000
0000
0002
0003
0000
0000
0200
0300
0000
0000
0020
0030
0000
0000
0200
0300
0000
0000
0000
0000
0000
0000
,
0220
0030
0000
0000
0320
0030
0000
0000
0200
0300
0000
0000
0020
0030
0000
0000
2000
3000
0000
0000
0002
0003
0000
0000
0020
0030
0000
0000
0000
0000
0000
0000
0022
0030
0000
0000
0023
0030
0000
0000
0002
0003
0000
0000
0200
0300
0000
0000
0020
0030
0000
0000
2000
3000
0000
0000
0002
0003
0000
0000
0000
0000
0000
0000
,
0022
0030
0000
0000
0023
0030
0000
0000
0002
0003
0000
0000
0020
0030
0000
0000
0200
0300
0000
0000
0020
0030
0000
0000
0002
0003
0000
0000
0000
0000
0000
0000
0022
0003
0000
0000
0032
0003
0000
0000
2000
3000
0000
0000
0020
0030
0000
0000
2000
3000
0000
0000
0200
0300
0000
0000
2000
3000
0000
0000
0000
0000
0000
0000
,
2200
3000
0000
0000
2300
3000
0000
0000
0200
0300
0000
0000
2000
3000
0000
0000
0002
0003
0000
0000
2000
3000
0000
0000
0020
0030
0000
0000
0000
0000
0000
0000
0120
0000
0000
0000
0230
0300
0000
0000
0002
0003
0000
0000
0020
0030
0000
0000
0200
0300
0000
0000
2000
0000
0000
0000
3002
0000
0000
0000
0000
0000
0000
0000
,
1003
0100
1000
0100
1000
0100
1000
0100
1000
0100
1000
0100
1000
0100
1000
0100
,
2000
0001
3100
0001
0100
0001
0100
0001
0100
0001
0100
0001
0100
0001
0200
0001
,
1300
0010
1000
0010
1000
0010
1000
0020
1000
0031
1000
0001
1000
0001
2000
0001
,
3100
0010
0100
0010
0100
0010
0100
0020
1000
0130
2000
0010
3002
0100
1003
0001
,
2002
0000
3003
0000
;
