#TITLE:99db;
#SUBTITLE:(DJ HARdbEAT Remix);
#ARTIST:DJ BEATCONTROLLER mixed. DJ HARdbEAT aka AQUA & REONA feat. vj BIZNOT;
#TITLETRANSLIT:;
#SUBTITLETRANSLIT:;
#ARTISTTRANSLIT:;
#CREDIT:;
#BANNER:99db (DJ HARdbEAT Remix).png;
#BACKGROUND:99db (DJ HARdbEAT Remix)-bg.PNG;
#LYRICSPATH:;
#CDTITLE:cdtitle.png;
#MUSIC:99db (DJ HARdbEAT Remix).mp3;
#OFFSET:-1.680;
#SAMPLESTART:102.700;
#SAMPLELENGTH:12.000;
#SELECTABLE:YES;
#BPMS:0.000=144.000;
#STOPS:;
#BGCHANGES:;

//---------------dance-single - BASIC----------------
#NOTES:
     dance-single:
     BASIC:
     Easy:
     5:
     0.300,0.444,0.409,0.147,0.007: // measure 1
0000
0000
0000
0000
,  // measure 2
0000
0000
0000
0000
,  // measure 3
0000
0000
0000
0000
,  // measure 4
0000
0000
0000
0000
,  // measure 5
0000
0000
0000
0000
,  // measure 6
0000
0000
0000
0000
,  // measure 7
0000
0000
0000
0000
,  // measure 8
0000
0000
0000
0000
,  // measure 9
1000
0000
0010
0010
,  // measure 10
0001
0000
0010
0010
,  // measure 11
1000
0000
0010
0010
,  // measure 12
0001
0000
0000
0000
,  // measure 13
0001
0000
0010
0010
,  // measure 14
1000
0000
0010
0010
,  // measure 15
0001
0000
0010
0010
,  // measure 16
1000
0000
0000
0000
,  // measure 17
1000
0000
1000
0000
,  // measure 18
0001
0000
0001
0000
,  // measure 19
0100
0000
0100
0000
,  // measure 20
0010
0000
0010
0000
,  // measure 21
1000
0000
1000
0000
,  // measure 22
0001
0000
0001
0000
,  // measure 23
0200
0000
0000
0000
,  // measure 24
0000
0000
0000
0300
,  // measure 25
1001
0000
0110
0000
,  // measure 26
0010
0010
1000
0100
,  // measure 27
1001
0000
0110
0000
,  // measure 28
0010
0010
0001
0100
,  // measure 29
1001
0000
0110
0000
,  // measure 30
1000
0100
1000
0010
,  // measure 31
1001
0000
0110
0000
,  // measure 32
0000
1001
0000
0110
0000
1001
0000
0010
,  // measure 33
1000
0100
0000
0001
,  // measure 34
1001
0000
1000
0010
,  // measure 35
0010
0100
0100
0101
,  // measure 36
0000
1001
0000
1001
,  // measure 37
0000
1000
0100
0100
,  // measure 38
0010
0000
0001
0000
,  // measure 39
0010
0000
0110
0000
,  // measure 40
1100
0000
1001
0000
,  // measure 41
0010
0000
0000
0000
,  // measure 42
0010
0000
0000
0000
,  // measure 43
0010
0000
0010
0000
,  // measure 44
0010
0010
0010
0010
,  // measure 45
0010
0010
0010
0010
,  // measure 46
0010
0010
0010
0010
,  // measure 47
0020
0000
0000
0000
,  // measure 48
0030
0000
0000
0000
,  // measure 49
0000
1001
0000
0110
0000
1001
0000
0100
,  // measure 50
0001
0010
0100
0100
,  // measure 51
1010
1000
0010
1100
,  // measure 52
1000
0010
0100
0101
,  // measure 53
0000
0000
0001
0000
0000
0100
0000
0000
1000
0000
0000
0000
0000
0000
0000
0000
,  // measure 54
1000
0010
0100
0100
,  // measure 55
0011
0001
0010
0101
,  // measure 56
0001
0010
0100
1100
,  // measure 57
2000
0000
0000
0002
0000
0000
0000
0000
3003
0000
0000
0000
0000
0000
0000
0000
,  // measure 58
1000
0100
0020
0001
,  // measure 59
0230
0000
1300
0001
,  // measure 60
0011
1000
1001
0100
,  // measure 61
0200
0000
0320
0031
,  // measure 62
0001
0100
0020
1000
,  // measure 63
0230
0000
0301
1000
,  // measure 64
1010
0001
1001
0100
,  // measure 65
0200
0000
0320
1030
,  // measure 66
1001
0000
0100
0000
,  // measure 67
0010
0000
0010
0000
,  // measure 68
0010
0000
1000
0000
,  // measure 69
0100
0010
0001
0100
,  // measure 70
1000
0000
0100
0000
,  // measure 71
0001
0100
0010
0010
,  // measure 72
1000
0100
0000
0010
,  // measure 73
0001
0001
0100
0100
,  // measure 74
1000
0000
1000
0000
,  // measure 75
0010
0000
0000
0000
0000
2002
3003
0000
,  // measure 76
0010
0001
0100
1000
,  // measure 77
0010
0001
1001
1001
,  // measure 78
0010
0000
0010
0000
,  // measure 79
0010
0000
0020
0030
,  // measure 80
0100
0000
0100
0000
,  // measure 81
0001
0000
1000
0000
,  // measure 82
1001
0000
0000
0000
,  // measure 83
0000
0000
0000
0000
,  // measure 84
0010
0000
0010
0000
,  // measure 85
0100
0100
0100
0100
,  // measure 86
1001
0000
0110
0000
,  // measure 87
1001
0110
1001
0110
,  // measure 88
0010
0000
0100
0000
,  // measure 89
0010
0100
0010
0100
,  // measure 90
1001
0000
1001
0000
,  // measure 91
1001
0110
1001
0110
,  // measure 92
1000
0000
0000
0001
,  // measure 93
1001
0000
0000
0110
0000
1001
0000
0000
,  // measure 94
0000
0100
0000
0100
,  // measure 95
1001
0000
0000
0110
0000
1001
0000
0000
,  // measure 96
0020
0130
0020
0130
,  // measure 97
0200
0310
1001
0110
,  // measure 98
0200
0310
0200
0310
,  // measure 99
0020
0130
1001
0110
,  // measure 100
0010
0010
0100
0100
,  // measure 101
1001
1001
0110
0110
,  // measure 102
0100
0100
0010
0010
,  // measure 103
0110
0110
1001
1001
,  // measure 104
0100
1001
0010
1001
,  // measure 105
0020
1000
0031
1001
,  // measure 106
0110
0110
1001
1001
,  // measure 107
0110
0110
0110
1001
,  // measure 108
0000
0000
0000
0000
,  // measure 109
0000
0000
0000
0000
,  // measure 110
1000
0020
0130
0101
,  // measure 111
0010
0010
0110
1001
,  // measure 112
2000
3100
0100
0001
,  // measure 113
0001
0000
1000
0000
0000
0100
0000
0000
0001
0000
0000
0000
0000
0000
0000
0000
,  // measure 114
0001
0020
0130
1100
,  // measure 115
0010
0010
0100
1001
,  // measure 116
0002
0103
0100
1000
,  // measure 117
1000
0001
0000
1001
0000
1001
0000
1000
,  // measure 118
0001
0020
0130
0200
,  // measure 119
0301
0101
0010
1000
,  // measure 120
1100
0010
0010
2000
,  // measure 121
3100
0001
1000
1020
,  // measure 122
0130
0100
0001
0210
,  // measure 123
0301
0100
2000
3001
,  // measure 124
0010
0100
0110
0002
,  // measure 125
0013
0100
0110
1001
,  // measure 126
0110
0000
0000
0000
;

//---------------dance-single - TRICK----------------
#NOTES:
     dance-single:
     TRICK:
     Medium:
     7:
     0.394,0.528,0.364,0.209,0.113:
0000
0000
0000
0000
,
0000
0000
0000
0000
,
0000
0000
0000
0000
,
0000
0000
0000
0000
,
0000
0000
0000
0000
,
0000
0000
0000
0000
,
0000
0000
0000
0000
,
0000
0000
0000
0000
,
1000
0010
1010
1010
,
0001
0010
0011
0011
,
1000
0001
1001
1001
,
0100
0000
0100
0000
,
0001
0010
1010
1100
,
1000
0010
0011
0101
,
0001
0100
1100
1010
,
1000
0100
0100
0010
,
2000
3200
1300
1000
,
1010
0100
0001
0001
,
0200
0320
0130
0100
,
0101
0010
0100
1000
,
0001
0100
0100
0010
,
0001
0010
1000
1000
,
0200
0000
0000
0000
,
0000
0000
0000
0300
,
0001
0110
1000
0110
,
0001
0110
1000
0110
,
0010
1001
0100
1001
,
0010
1001
0100
1001
,
1000
0110
0001
0110
,
0100
1001
0010
1001
,
0010
1010
0100
0101
,
0000
1001
0000
0110
0000
1001
0000
0010
,
1000
0000
0100
0000
1000
0100
0001
0000
,
1001
0000
0001
0010
0000
0100
0010
0000
,
0010
0001
0100
0000
0100
0000
0100
0000
,
0110
1001
1001
1001
,
1000
0010
1000
0100
0000
0100
0010
0000
,
0010
0000
0010
0001
0000
0001
0100
0000
,
0100
0000
0100
1000
0000
1000
0010
0000
,
0010
0000
0010
0001
0000
0100
1000
0000
,
0010
0000
0000
0000
,
0010
0000
0000
0000
,
0010
0000
0010
0000
,
0010
0010
0010
0010
,
0010
0010
0010
0010
,
0010
0010
0010
0010
,
0010
0000
0000
0000
,
0220
0000
0000
0000
,
0330
1001
0000
0010
0000
0100
0000
0100
,
0002
0013
1100
1100
,
2000
3010
0101
0101
,
0100
0100
0010
0200
,
0300
0000
0001
0000
0000
0100
0000
0000
1000
0000
0000
0000
0000
0000
0000
0000
,
2000
3010
0101
0101
,
0002
0013
1100
1100
,
0100
0100
0010
0100
,
2000
0000
0000
0002
0000
0000
0000
0000
3003
0000
0000
0000
0000
0000
0000
0000
,
1001
0020
0230
0001
,
1300
0010
0010
0001
,
0011
0100
2100
3200
,
0010
0001
1300
0010
,
1001
0020
0230
1000
,
0301
0010
0010
1000
,
1010
0100
0102
0203
,
0010
1000
0301
0010
,
1001
0000
0010
0000
,
0010
0000
0010
0000
,
0010
0000
0010
0000
,
0020
0100
1030
0200
,
0310
0000
0100
0000
,
0002
0100
0013
0020
,
1030
0100
0020
0100
,
1030
0010
0010
0001
,
0100
0000
1000
0100
,
0010
0000
0001
0000
0000
1001
1001
0000
,
1000
0100
0001
0000
0001
0010
1000
0000
,
1000
0001
1001
1001
,
0010
0000
0010
0000
,
0010
0000
0000
0000
0000
0000
0010
0010
0010
0010
0000
0000
,
0100
0000
0100
0000
,
0001
0000
1000
0000
,
1001
0000
0000
0000
,
0000
0000
0000
0000
,
0010
0000
0010
0000
,
0100
0100
0100
0100
,
1000
0010
1000
0010
1000
0000
0001
0100
0001
0100
0001
0000
,
0100
0010
0100
0010
0100
0010
0100
0010
0100
0010
0100
0000
,
0010
0000
0100
0000
,
0010
0100
0010
0100
,
0001
0010
0001
0010
0001
0000
1000
0100
1000
0100
1000
0000
,
0010
0100
0010
0100
0010
0100
0010
0100
0010
0100
0010
0000
,
1000
0010
0100
0100
0100
0100
0001
0000
,
0001
0010
0000
0010
0100
0010
1000
0100
,
0100
0100
1000
0100
0100
0100
0001
0000
,
1000
0010
0000
0010
0100
0010
0001
0000
,
0020
1030
2000
3100
,
0200
0301
1001
0110
,
0200
0301
0002
0103
,
0200
1300
1001
0110
,
0010
0000
0010
1000
0000
0100
1000
0100
1000
0100
0000
0000
,
1001
0000
0001
1000
0000
0010
0100
0010
0100
0010
0000
0000
,
0010
0000
0010
0001
0000
0100
0001
0100
0001
0100
0000
0000
,
1001
0000
1000
0001
0000
0010
0100
0010
0100
0010
0000
0000
,
0010
1001
0010
1001
,
0010
0000
0000
0010
0000
0000
1000
0000
0100
0000
0100
0000
0001
0000
0000
0001
0000
0000
1001
0000
0000
0000
0000
0000
,
0010
0100
0010
0000
1000
0001
1000
0000
,
0010
0000
0100
0000
0010
0100
0000
0100
0010
0000
1000
0000
1001
0000
0000
0000
,
0000
0000
0000
0000
,
0000
0000
0000
0000
,
1000
0120
0130
0100
,
0102
0013
1000
1200
,
2300
3100
0100
0001
,
0001
0000
1000
0000
0000
0100
0000
0000
0001
0000
0000
0000
0000
0000
0000
0000
,
0010
0210
0001
1300
,
0100
0120
1030
0100
,
0021
0130
0100
1000
,
1000
0001
0000
1001
0000
1001
0000
0001
,
1000
0000
0100
0010
0000
0010
0200
0000
,
0301
0010
0002
0000
0013
0000
0110
0000
,
1000
0000
0001
0010
0000
0010
0020
0000
,
0130
1000
0200
0000
0301
0000
0010
0000
,
0200
0000
0301
0100
0000
0100
0020
0000
,
0031
0000
0101
0000
1000
0001
0100
0000
,
0110
0000
0010
0000
0010
0001
0200
0000
,
0310
0010
0110
1001
,
0110
0000
0000
0000
;

//---------------dance-single - HEAVY----------------
#NOTES:
     dance-single:
     HEAVY:
     Hard:
     8:
     0.514,0.611,0.289,0.133,0.229:
0000
0000
0000
0000
,
0000
0000
0000
0000
,
0000
0000
0000
0000
,
0000
0000
0000
0000
,
0000
0000
0000
0000
,
0000
0000
0000
0000
,
0000
0000
0000
0000
,
0000
0000
0000
0000
,
1000
0010
1000
0100
0001
0000
1010
0000
,
0001
0010
0010
0000
0100
0100
1000
0000
,
1000
0100
0001
0100
1000
0000
1001
0000
,
0100
0100
0100
0100
,
0001
0010
0001
0100
1000
0000
0011
0000
,
1000
0010
0010
0000
0100
0100
0001
0000
,
0001
0100
1000
0100
0001
0000
1001
0000
,
0010
0100
0100
0100
,
1000
0100
0100
0000
1000
0100
1000
0000
,
0010
0110
0100
0101
,
0100
0010
0100
1000
0100
0010
0100
0001
,
0020
1000
0100
0031
,
1000
0010
0100
0010
0100
0000
0100
0000
,
0010
0001
0101
1000
,
0200
0000
0000
0000
,
0010
0010
0310
0110
,
0001
0000
0100
0000
0010
1000
0000
0000
1000
0000
0100
0000
0010
0001
0000
0000
,
0100
0000
0010
0000
0010
1000
0000
0000
0100
0000
0010
0000
0010
0001
0000
0000
,
0010
0000
1000
0000
1000
0100
0000
0000
0010
0000
0001
0000
0001
0100
0000
0000
,
0010
0000
1000
0000
1000
0100
1000
0000
0001
0000
0100
0000
0001
0010
0001
0000
,
1000
0000
0100
0000
1000
0100
1000
0000
0001
0000
0010
0000
0010
1000
0010
0000
,
0010
0000
0010
0000
0010
0001
0010
0000
0010
0000
1000
0000
1000
0100
0000
0000
,
0010
0000
0001
0000
0001
0100
0000
0000
0100
0000
1000
0000
0010
0001
0000
0000
,
0000
1001
0000
0110
0000
1001
0000
0010
,
1000
0100
1000
0100
0000
0100
0001
0010
,
0001
0010
1000
0100
0000
0100
0001
0010
,
1000
0100
1000
0100
0000
0100
1000
0010
,
0001
0100
0001
0100
0000
0100
0010
1000
,
0010
1000
1000
0100
0000
0100
0010
0001
,
0100
0001
0100
0001
0000
0001
0100
1000
,
0100
0010
1000
1000
0000
1000
0001
0100
,
0001
0100
0010
0001
0000
0100
1000
0010
,
0010
0000
0000
0000
,
0010
0000
0000
0000
,
0010
0000
0010
0000
,
0010
0010
0010
0010
,
0010
0010
0010
0010
,
0010
0010
0010
0010
,
0010
1000
0100
0010
0001
0100
0010
1000
,
2002
0000
0000
0000
,
3003
1001
0000
1010
0000
0101
0000
0100
,
0001
0010
0010
1000
1010
0000
1010
0000
,
1000
0010
0010
0001
0011
0000
0011
0000
,
0100
0010
0100
0000
0010
1000
0200
0000
,
0300
0000
0101
0000
0000
1100
0000
0000
1001
0000
0000
0000
0000
0000
0000
0000
,
1000
0010
0010
0100
0100
0001
0101
0000
,
0001
1000
0100
1000
0010
0100
1100
0000
,
0100
0100
0010
0100
1000
0100
0001
0100
,
2000
0000
0000
0002
0000
0000
0000
0000
3003
0000
0000
0000
0000
0000
0000
0000
,
1001
0001
0010
0100
0200
0000
1000
0000
,
0301
0000
0001
0010
0010
0100
1000
0000
,
1100
1000
0100
0001
0020
0000
2030
0000
,
0001
0000
3200
0000
1300
0010
0001
0000
,
1001
1000
0010
0100
0200
0000
0001
0000
,
1300
0000
1000
0010
0010
0100
0001
0000
,
0101
0001
0100
1000
0020
0000
0032
0000
,
1000
0000
0203
0000
0301
0010
1000
0000
,
1001
1000
0010
0100
,
0010
0010
0001
0100
,
0100
0010
0011
0100
,
0010
1000
0100
1000
0010
0100
0001
0100
,
0010
1000
0100
0000
0100
0000
0100
0000
,
0001
0100
0001
0100
0010
1000
0010
1000
,
0100
0100
1000
0010
,
0001
0100
0010
0100
0010
0100
1000
0100
,
0001
0010
1000
0100
,
0010
0000
0001
0000
0000
1001
1001
0000
,
1000
0100
0001
0100
0001
0010
1000
0100
,
1000
0100
0001
0000
1001
0000
1001
0000
,
0010
0100
0010
0000
0010
0100
0010
0000
,
0010
0000
0000
0100
0000
0000
0010
0000
0000
0100
0000
0000
0010
0000
0010
0000
0010
0000
0010
0000
0000
0000
0000
0000
,
0100
0100
0100
0010
,
0001
0100
0010
1000
0100
0010
0001
1000
,
1001
0000
0000
0000
,
0000
0000
0000
0000
,
0010
0010
0100
0100
0010
0000
0010
0010
0100
0100
0010
0000
,
1000
0100
0100
0001
0100
0100
1000
0100
0100
0001
0100
0000
,
1000
0010
0001
0010
1000
0000
0001
0100
1000
0100
0001
0000
,
1000
0010
0100
0001
0100
0010
1000
0010
0100
0001
0100
0000
,
0010
0010
0100
0100
0010
0000
0100
0100
0010
0010
0100
0000
,
0001
0100
0100
1000
0010
0010
0001
0100
0100
1000
0010
0000
,
0001
0010
1000
0010
0001
0000
1000
0100
0001
0100
1000
0000
,
0001
0100
0010
1000
0010
0100
0001
0100
0010
1000
0010
0000
,
1000
0010
0110
0100
1000
0100
0101
0000
,
0001
0010
0000
1000
0010
0001
0100
1000
,
0100
1000
1100
0100
0001
0100
0101
0000
,
0001
0010
0000
0010
0001
0100
1000
0000
,
1000
0010
1000
0010
1000
0000
0000
0000
0010
0100
0010
0100
0010
0000
0000
0000
,
0100
0001
0100
0001
0100
0000
0000
0000
1001
0000
0000
0000
0110
0000
0000
0000
,
0100
0001
0100
0001
0100
0000
0000
0000
0010
0100
0010
0100
0010
0000
0000
0000
,
1000
0100
1000
0100
1000
0000
0000
0000
1001
0000
0000
0000
0110
0000
0000
0000
,
0010
0000
0010
1000
0000
0100
1000
0010
1000
0100
0000
0000
,
1001
0000
0001
1000
0000
0010
0100
0010
0100
0010
0000
0000
,
0010
0000
0010
0001
0000
0100
0001
0010
0001
0100
0000
0000
,
1001
0000
1000
0001
0000
0010
0100
0010
0100
0010
0000
0000
,
0010
0010
0100
0000
0010
0010
0100
0000
,
0010
0000
0010
0000
1000
0100
0000
0100
0001
0000
1000
0000
1001
0000
0000
0000
,
0001
0010
1000
0000
1000
0100
0001
0000
,
0001
0000
0100
0000
1000
0010
0000
0001
0100
0000
1000
0000
1001
0000
0000
0000
,
0000
0000
0000
0000
,
0000
0000
0000
0000
,
1000
0010
0100
0100
0010
1000
0100
0001
,
0101
0000
0010
1000
0010
0000
1200
0000
,
0301
0000
0110
0000
0100
0100
1000
0000
,
1000
0000
1100
0000
0000
0101
0000
0000
1001
0000
0000
0000
0000
0000
0000
0000
,
0010
1000
0010
0100
0102
0000
0013
1000
,
0200
0000
0310
0000
0001
0010
1200
0000
,
0301
0000
0110
0000
0010
0100
1000
0000
,
1000
1001
0000
0110
0000
1001
0000
0001
,
1000
0000
0100
0010
1000
0100
0001
0010
,
0011
0010
0002
0000
0013
0000
0210
0000
,
1300
0100
0001
1000
0101
0001
0100
0010
,
0100
1000
0200
0000
0301
0000
0021
0000
,
2030
0000
3010
0100
1000
0100
0020
0000
,
1030
0100
0020
0000
1030
0001
0210
0000
,
0310
0001
0100
0010
2100
0000
3010
1000
,
0200
0000
0302
0000
0103
0010
1000
0100
,
0001
0000
0000
0000
;

//---------------dance-single - ONI----------------
#NOTES:
     dance-single:
     ONI:
     Challenge:
     12:
     0.760,0.889,0.533,0.213,0.706:
0000
0000
0000
0000
,
0000
0000
0000
0000
,
0000
0000
0000
0000
,
0000
0000
0000
0000
,
0000
0000
0000
0000
,
0000
0000
0000
0000
,
0000
0000
0000
0000
,
0000
0000
0000
0000
,
1010
0000
1000
0000
1100
0000
0010
0000
0001
0100
0001
0000
1010
0000
1000
0000
,
1001
0000
0010
0000
0100
0010
0100
0000
0101
0000
0100
0000
1100
0000
1000
0000
,
1100
0000
0100
0000
0001
0100
0001
0000
1000
0000
0001
0000
1001
0000
1000
0000
,
0100
0001
0000
0000
0001
0010
0000
0000
0010
1000
0000
0000
1000
0100
0000
0000
,
0101
0000
0001
0000
1001
0000
1000
0000
1000
0100
1000
0000
1100
0000
0100
0000
,
0110
0000
0010
0000
0001
0010
0001
0000
0101
0000
0100
0000
0101
0000
0001
0000
,
0101
0000
0100
0000
1000
0100
1000
0000
0010
0000
0100
0000
1001
0000
0000
0000
,
0110
0110
1001
1001
,
1000
0010
0010
0100
1000
0100
1000
0100
,
0110
0000
0010
0000
0100
0000
0100
0000
0001
0000
1000
0000
0100
0000
0001
0100
,
0001
0010
0100
1000
0100
0010
0100
0001
,
0010
0000
1000
0000
0100
0000
0001
0010
0001
0000
1000
0010
1000
0000
0001
0010
,
0001
0010
0100
0010
0100
0001
0100
0010
,
1010
0010
0001
0100
0010
1000
0100
1000
,
0200
0000
0000
0000
,
0010
0010
0310
1001
,
0100
0000
0010
0000
1000
0001
0000
0001
1000
0000
0100
0000
0010
0001
0000
0001
,
0100
0000
0010
0000
0010
1000
0000
1000
0100
0000
0010
0000
0010
0001
0000
0001
,
0010
0000
0100
0000
1000
0100
0000
0100
1000
0000
0001
0000
0001
0100
0000
0100
,
0010
0000
1000
0000
1000
0100
0000
0100
1000
0000
0001
0000
0001
0010
0000
0010
,
0001
0000
1000
0000
1000
0100
0000
0100
1000
0000
0010
0000
0010
1000
0000
1000
,
0010
0000
0010
0000
0010
0001
0000
0001
0010
0000
1000
0000
1000
0100
0000
0100
,
1000
0000
0001
0000
0001
0100
0000
0100
1000
0000
1000
0000
1000
0010
0000
0010
,
0001
1001
0000
0110
0000
1001
0000
0010
,
1000
0100
1000
0101
0000
0200
0001
0001
,
0301
0010
1000
2100
0000
3200
0010
0010
,
0310
1000
0100
0201
0000
0302
0010
0010
,
0013
0100
0001
1200
0000
2300
0010
0010
,
3010
0001
0100
0102
0000
0203
0010
0010
,
0310
0001
0100
2100
0000
3020
0100
0100
,
0130
1000
0001
1001
0000
1000
0001
0100
,
0010
0100
1000
1001
0000
0100
1000
0010
,
0002
0000
0000
0000
,
0023
0000
0000
0000
,
2030
0000
3200
0000
,
0301
0020
0000
0000
1030
0200
0000
0000
0301
0020
0000
0000
1030
0200
0000
0000
,
1300
0020
0000
0000
0031
0200
0000
0000
1300
0020
0000
0000
0031
0200
0000
0000
,
1300
0020
0000
0000
0031
0200
0000
0000
1300
0200
0000
0000
0301
0020
0000
0000
,
1030
0100
0001
0100
1000
0010
0001
1000
,
0100
0001
0010
0100
1000
0010
0100
0001
1000
0010
0100
0001
0100
0010
1000
0100
,
0010
0001
1001
0000
0000
0000
1010
0000
0000
0000
0101
0000
0000
0000
0100
0000
,
0001
0000
1000
0000
0010
0100
0010
0100
0010
0000
1000
0000
0100
1000
0100
1000
,
0100
0000
1000
0000
0001
0010
0001
0010
0001
0000
0100
0000
0010
0100
0010
0100
,
0010
0000
1000
0000
0001
0100
0001
0100
0001
0000
1000
0000
0100
1000
0100
1000
,
0100
0000
1100
0000
0000
1010
0000
0000
1001
0000
0001
0100
0000
1000
0000
0000
,
0001
0000
0010
0000
0001
0100
0001
0100
0001
0000
1001
0000
1000
0010
1000
0010
,
1000
0000
1010
0000
1000
0001
1000
0001
1000
0000
1001
0000
0001
0100
0001
0100
,
0001
0000
0101
0000
0001
1000
0001
1000
0001
0000
1001
0000
0001
0100
0001
0100
,
0002
0000
0000
2000
0000
0000
0000
0000
3003
0000
0000
0000
0000
0000
0000
0000
,
1001
0000
0001
0000
0010
0000
0100
0000
0010
0100
0010
0000
1000
0000
0100
0000
,
0002
0000
1000
0000
1003
0000
0100
0000
1010
0000
0010
0000
1010
0000
1000
0100
,
1000
0000
0010
0000
0100
0010
0100
0000
0010
0000
1100
0000
1000
0000
0010
0000
,
0100
0000
0100
0000
0101
0000
0100
1000
0100
0000
0100
0001
0100
0000
0100
1000
,
0100
0000
1000
0000
0110
0000
0100
0000
0010
0100
0010
0000
1200
0000
1000
0000
,
1300
0000
0010
0000
1000
0000
0010
0000
0110
0000
0100
0000
0101
0000
0001
0100
,
0001
0001
0100
1000
0020
0100
0130
1000
,
1001
0000
0001
0000
1000
0000
0001
0100
0001
0000
1000
0100
1000
0000
0001
1000
,
0001
0000
0000
0000
0000
0000
0000
0000
0000
0000
0000
0000
0000
0000
0000
0000
0000
0000
0000
0000
0000
0000
0000
0000
1000
0000
0000
0000
0000
0000
0000
0000
0000
0000
0000
0000
0000
0000
0000
0000
0000
0000
0000
0000
0000
0000
0000
0000
0010
0000
0000
0000
0000
0000
0000
0000
0000
0000
0000
0000
0100
0000
0000
0000
0000
0000
0010
0000
0000
0000
0000
0000
0000
0000
0000
0000
0000
0000
0000
0000
0000
0000
0000
0000
0000
0000
0000
0000
0000
0000
0000
0000
0000
0000
0000
0000
1000
0000
0000
0000
0000
0000
0000
0000
0000
0000
0000
0000
0100
0000
0000
0000
0000
0000
1000
0000
0000
0000
0000
0000
0000
0000
0000
0000
0000
0000
0000
0000
0000
0000
0000
0000
0000
0000
0000
0000
0000
0000
0000
0000
0000
0000
0000
0000
0100
0000
0000
0000
0000
0000
0000
0000
0010
0000
0000
0000
0000
0000
0000
0000
0100
0000
0000
0000
0000
0000
0000
0000
0010
0000
0000
0000
0000
0000
0000
0000
0100
0000
0000
0000
0000
0000
0000
0000
0000
0000
0000
0000
0000
0000
0000
0000
,
0010
0000
0000
1000
0100
1000
0100
0000
0000
1000
0000
0000
0001
0000
0010
0000
0100
0000
1000
0000
0000
0100
0000
0000
,
0100
0010
0100
0000
0010
0000
0001
0010
0001
0000
0100
0000
0100
0000
0000
0010
,
1000
0000
0000
0000
0000
0000
1000
0000
0100
0000
0000
0000
1000
0000
0000
0000
0010
0000
0100
0010
0000
0000
0100
0000
0001
0100
0000
0000
0000
0000
0000
0000
,
0010
0100
0010
1000
0100
0000
1000
0100
1000
0010
0100
0001
0010
0000
0010
0001
,
0000
0000
0000
0000
0100
0000
0001
0000
0100
0000
0001
0000
0100
0000
0001
0000
0100
0000
0010
0000
0100
0000
0000
0000
0000
0000
0010
1000
0000
0000
1000
0000
,
0000
0000
0000
0000
0010
0100
0000
0000
0100
0000
0000
0000
0000
0000
0000
0000
0010
0000
0000
0000
0010
0000
0000
0000
0000
0000
0001
0100
0000
0000
0100
0000
,
0000
0000
0000
0000
0000
0000
0001
0000
0000
0000
0000
0000
0100
0000
0000
0000
0000
0000
0001
0000
0000
0000
0000
0000
0100
0000
0000
0000
0000
0000
0001
0000
0000
0000
0000
0000
0100
0000
0000
0000
0000
0000
0000
0000
0000
0000
0000
0000
0000
0000
0000
0000
0000
0000
0001
0000
0000
0000
0000
0000
0100
0000
0000
0000
0000
0000
0001
0000
0000
0000
0000
0000
0100
0000
0000
0000
0000
0000
0001
0000
0000
0000
0000
0000
0100
0000
0000
0000
0000
0000
0001
0000
0000
0000
0000
0000
0100
0000
0000
0000
0000
0000
0000
0000
0001
0000
0000
0000
0000
0000
0000
0000
0100
0000
0000
0000
0000
0000
0000
0000
0001
0000
0000
0000
0000
0000
0000
0000
0100
0000
0000
0000
0000
0000
0000
0000
0001
0000
0000
0000
0000
0000
0000
0000
0100
0000
0000
0000
0000
0000
0000
0000
0000
0000
0000
0000
0000
0000
0000
0000
0000
0000
0000
0000
0000
0000
0000
0000
0000
0000
0000
0000
0000
0000
0000
0000
0000
0000
0000
0000
0000
0000
0000
0000
0000
0000
0000
0000
0000
0000
0000
0000
,
0001
0010
0000
0010
0001
0100
0000
0000
1000
0001
0000
0100
0000
0100
0010
0100
,
0010
0100
0001
0100
0001
0100
0010
0000
0000
0000
1001
0000
1001
0000
0000
0000
,
1000
0000
0001
0100
0001
0000
0100
0000
0001
1000
0001
0000
1000
0000
0100
0000
,
1000
0010
0000
0010
1000
0000
0001
0000
1001
0000
0000
0000
1001
0000
0000
0000
,
0010
0000
0000
0000
0000
0000
0100
0000
0000
0000
0000
0000
0010
0000
0000
0000
0000
0000
0000
0000
0000
0000
0000
0000
0100
0000
0000
0000
0000
0000
0000
0000
0000
0000
0000
0000
0000
0000
0000
0000
0000
0000
0000
0000
0000
0000
0000
0000
0010
0000
0000
0000
0000
0000
0000
0000
0100
0000
0000
0000
0000
0000
0000
0000
0000
0000
0000
0000
0000
0000
0000
0000
0000
0000
0000
0000
0000
0000
0000
0000
0000
0000
0000
0000
0000
0000
0000
0000
0000
0000
0000
0000
0000
0000
0000
0000
0010
0000
0000
0000
0000
0000
0100
0000
0000
0000
0000
0000
0010
0000
0000
0000
0000
0000
0000
0000
0000
0000
0000
0000
0100
0000
0000
0000
0000
0000
0000
0000
0000
0000
0000
0000
0000
0000
0000
0000
0000
0000
0000
0000
0000
0000
0000
0000
0010
0000
0000
0000
0000
0000
0000
0000
0100
0000
0000
0000
0000
0000
0000
0000
0000
0000
0000
0000
0000
0000
0000
0000
0000
0000
0000
0000
0000
0000
0000
0000
0000
0000
0000
0000
0000
0000
0000
0000
0000
0000
0000
0000
0000
0000
0000
0000
,
0010
0000
0000
0000
0000
0000
0100
0000
0000
0000
0000
0000
0010
0000
0000
0000
0000
0000
0000
0000
0000
0000
0000
0000
0100
0000
0000
0000
0000
0000
0000
0000
0000
0000
0000
0000
0000
0000
0000
0000
0000
0000
0000
0000
0000
0000
0000
0000
0010
0000
0000
0000
0000
0000
0000
0000
0100
0000
0000
0000
0000
0000
0000
0000
0000
0000
0000
0000
0000
0000
0000
0000
0000
0000
0000
0000
0000
0000
0000
0000
0000
0000
0000
0000
0000
0000
0000
0000
0000
0000
0000
0000
0000
0000
0000
0000
0010
0000
0000
0000
0000
0000
0000
0000
0000
0000
0000
0000
0000
0000
0000
0000
0010
0000
0000
0000
0000
0000
0000
0000
0000
0000
0000
0000
0000
0000
0000
0000
0010
0000
0000
0000
0000
0000
0000
0000
0000
0000
0000
0000
0000
0000
0000
0000
0010
0000
0000
0000
0000
0000
0000
0000
0000
0000
0000
0000
0000
0000
0000
0000
0000
0000
0000
0000
0000
0000
0000
0000
0000
0000
0000
0000
0000
0000
0000
0000
0000
0000
0000
0000
0000
0000
0000
0000
0000
0000
0000
0000
0000
0000
0000
0000
,
0001
0000
0000
0000
0100
0000
0000
0000
0010
0000
0000
0000
0000
0000
0000
0000
0001
0000
0000
0000
0100
0000
0000
0000
0001
0100
0000
0000
0001
0000
0000
0000
,
0001
0100
0001
0100
0001
0100
0001
0100
0001
0100
0001
0100
0001
0100
0001
0100
0001
0100
0001
0100
0000
0001
0100
0000
0001
0000
0000
0000
1000
0000
0000
0000
,
1001
0000
0000
0000
,
0000
0000
0000
0000
,
0010
1010
1000
1000
0100
0000
0010
0011
0001
0001
0100
0000
,
1000
1100
1000
0001
0101
1000
0100
1100
1000
0001
0101
0000
,
1000
0010
0001
0100
1000
0000
0001
0100
1000
0010
0001
0000
,
1000
0010
0100
0001
0010
0100
1000
0010
0100
0001
0100
0000
,
0001
0101
0100
0100
0010
0000
1000
1100
0100
0100
0010
0000
,
0001
0101
0001
1000
1100
1000
0001
0101
0001
1000
1100
0000
,
0001
0010
1000
0100
0001
0000
1000
0100
0001
0010
1000
0000
,
0001
0100
0010
1000
0100
0010
0001
0100
0010
1000
0010
0000
,
1000
0010
0110
0100
1000
0100
0101
0000
,
0001
0021
0000
1030
0010
0001
0100
1000
,
0100
1000
2100
0100
0100
3100
0201
0000
,
0302
0010
0000
0013
0001
0100
1000
0000
,
1000
0010
0001
0010
1000
0000
0000
0000
0010
0100
1000
0100
0010
0000
0000
0000
,
0100
0001
0010
0001
0100
0000
0000
0000
1001
0000
0000
0000
0110
0000
0000
0000
,
0100
0001
0010
0001
0100
0000
0000
0000
0010
0100
1000
0100
0010
0000
0000
0000
,
1000
0100
0001
0100
1000
0000
0000
0000
1001
0000
0000
0000
0110
0000
0000
0000
,
0010
0000
0010
0011
0000
0001
1000
0010
1000
0001
0000
0000
,
1001
0000
0001
1000
0000
0010
1000
0001
0100
0001
0000
0000
,
1000
0000
0010
1010
0000
0010
0001
0100
0001
0010
0000
0000
,
1001
0000
1000
0001
0000
0010
0100
1000
0100
0010
0000
0000
,
0110
1000
0110
0000
0110
0001
0110
0000
,
0110
0000
0010
0000
1000
0100
0000
0100
0001
0000
1000
0000
1001
0000
0000
0000
,
0011
0020
1000
0030
1010
0020
0001
0000
,
0031
0000
0100
0000
1000
0010
0000
0001
0100
0000
1000
0000
1001
0000
0000
0000
,
0000
0000
0000
0000
,
1000
0000
0001
0000
0000
0000
0100
0001
0100
0000
0000
0000
0100
0000
0010
0000
1000
0000
0000
0000
0100
0000
0000
0000
0000
1000
0100
1000
0000
0000
0000
0100
,
1000
0000
0010
0000
0110
0000
0100
0000
0010
0000
1000
0100
1000
0000
0001
0000
,
0201
0000
0010
0000
0310
0100
0010
0000
1000
0000
0100
0000
0010
0100
0010
0000
,
0100
0000
1000
0000
1010
0000
0010
0000
0100
0000
0010
0000
1000
0010
0100
0010
,
1000
0000
1100
0000
0000
1010
0000
0000
1001
0000
0001
1000
0000
0100
0000
0000
,
0010
0000
1000
0000
0010
0100
0010
0000
1010
0000
1000
0000
0010
0100
1000
0000
,
0100
0000
0010
0000
1000
0200
0010
0000
1300
0000
0010
0000
1000
0100
1000
0000
,
0001
0000
0100
0000
0110
0000
0100
0000
0010
0000
0100
0000
0001
0100
0010
0000
,
1000
1001
0110
1001
0110
1001
0110
1001
,
1000
0000
0010
0000
1200
0000
1000
0000
1300
0010
0100
0000
0001
0010
0100
0000
,
1100
0000
1000
0001
0100
0000
0110
0000
0010
0000
0100
0000
0110
0000
0100
0010
,
1000
0000
0100
0000
0001
0000
1000
0000
0101
0000
0001
0000
0100
0010
0100
0000
,
0100
0000
1000
0000
0100
0000
0010
0100
0010
0000
1000
0100
1000
0000
0001
0010
,
0001
0100
0010
0120
0100
0130
1100
1000
,
0100
0010
1000
0000
1020
0000
0100
0000
0130
0000
0001
0000
0110
0000
0010
0100
,
0010
0000
1000
0000
0100
0000
0010
0000
2100
0000
0100
0000
3010
0000
1000
0010
,
0200
0000
0010
0000
0301
0010
0100
1000
0010
0100
0010
0100
0001
0010
0100
1000
,
2002
3003
0000
0000
0000
0000
0000
0000
0000
0000
0000
0000
0000
0000
0000
0000
0000
0000
0000
0000
0000
0000
0000
0000
0000
0000
0000
0000
0000
0000
0000
0000
0000
0000
0000
0000
0000
0000
0000
0000
0000
0000
0000
0000
0000
0000
0000
0000
0000
0000
0000
0000
0000
0000
0000
0000
0000
0000
0000
0000
0000
0000
0000
0000
;
