#TITLE:嘆きの樹;
#SUBTITLE:-8bit Mix-;
#ARTIST:金獅子 Remixed by Hate;
#TITLETRANSLIT:nageki no ki;
#SUBTITLETRANSLIT:;
#ARTISTTRANSLIT:Remixed by Hate;
#CREDIT:;
#BANNER:8bit nageki.png;
#BACKGROUND:8bit nageki-bg.png;
#LYRICSPATH:;
#CDTITLE:cdtitle.png;
#MUSIC:8bit nageki.Mp3;
#OFFSET:-1.500;
#SAMPLESTART:67.580;
#SAMPLELENGTH:12.000;
#SELECTABLE:YES;
#BPMS:0.000=160.000;
#STOPS:;
#BGCHANGES:;

//---------------dance-single - BASIC----------------
#NOTES:
     dance-single:
     BASIC:
     Easy:
     4:
     0.287,0.420,0.140,0.262,0.000: // measure 1
0000
0000
0000
0000
,  // measure 2
0000
0000
0000
0000
,  // measure 3
0000
0000
0000
0000
,  // measure 4
0000
0000
0000
0000
,  // measure 5
0000
1000
1000
0010
,  // measure 6
0010
0100
0100
0001
,  // measure 7
0001
0010
0010
0100
,  // measure 8
0100
1000
1000
0001
,  // measure 9
1001
1000
1000
0100
,  // measure 10
0100
0010
0010
0001
,  // measure 11
0001
1000
0001
1000
,  // measure 12
1001
0000
0110
0000
,  // measure 13
1000
0000
0010
0000
,  // measure 14
0100
0001
0010
0100
,  // measure 15
2000
0000
3002
0000
,  // measure 16
2003
0000
3002
0000
,  // measure 17
1003
0000
0010
0000
,  // measure 18
0001
0000
0010
0000
,  // measure 19
1000
0000
0100
0000
,  // measure 20
0010
0001
0100
2000
,  // measure 21
3001
0010
0100
1000
,  // measure 22
0001
0010
0100
1000
,  // measure 23
0001
0010
0100
1000
,  // measure 24
1000
1000
1000
1000
,  // measure 25
1000
0010
0100
0001
,  // measure 26
1000
0010
0100
0001
,  // measure 27
1000
0010
0100
0001
,  // measure 28
1000
0010
0100
0001
,  // measure 29
0001
0000
0010
0000
,  // measure 30
0100
0000
1000
0000
,  // measure 31
0001
0000
1000
0000
,  // measure 32
0001
0000
0100
0000
,  // measure 33
0010
0000
1000
0000
,  // measure 34
0001
0000
0100
0000
,  // measure 35
1000
0000
0100
0010
,  // measure 36
2002
0000
0000
3003
,  // measure 37
2000
0000
3010
0000
,  // measure 38
0002
0000
0103
0000
,  // measure 39
2000
0000
3100
0000
,  // measure 40
0002
0000
0013
0000
,  // measure 41
0010
0000
1000
1000
,  // measure 42
0100
0000
0001
1000
,  // measure 43
0100
0000
0100
0000
,  // measure 44
0200
0000
0000
0000
0000
0300
0000
0000
,  // measure 45
0002
0000
0013
0000
,  // measure 46
2000
0000
3100
0000
,  // measure 47
0002
0000
0103
0000
,  // measure 48
2000
0000
3010
0000
,  // measure 49
0010
0000
0001
0001
,  // measure 50
0100
0000
1000
0001
,  // measure 51
0100
0000
0100
0000
,  // measure 52
0100
0100
0100
0100
,  // measure 53
2000
0000
3000
0200
0000
0300
0020
0000
,  // measure 54
0032
0000
0003
0002
0000
0003
0200
0000
,  // measure 55
0302
0000
0003
0200
0000
0300
0020
0000
,  // measure 56
2030
0000
3000
2000
0000
3000
0200
0000
,  // measure 57
0310
0000
0000
0010
0000
0000
0001
0000
,  // measure 58
0001
0000
0000
0001
0000
0000
0001
0000
,  // measure 59
1000
0000
0000
1000
0000
0000
0100
0000
,  // measure 60
0100
0000
0000
0100
0000
0000
0100
0000
,  // measure 61
1001
0000
0000
0000
,  // measure 62
0000
0000
0000
0000
,  // measure 63
0000
0000
0000
0000
,  // measure 64
0000
0000
0000
0000
,  // measure 65
0000
0000
0000
0000
,  // measure 66
1001
0000
0010
0000
,  // measure 67
1001
0000
0110
0000
,  // measure 68
1000
1000
0001
0001
,  // measure 69
0010
0010
0100
0100
,  // measure 70
1001
0000
0110
0000
,  // measure 71
1001
0000
0010
0000
,  // measure 72
0100
0010
1000
0001
,  // measure 73
2002
0000
0000
3003
,  // measure 74
1001
0000
0110
1001
,  // measure 75
1001
0000
0000
0000
;

//---------------dance-single - TRICK----------------
#NOTES:
     dance-single:
     TRICK:
     Medium:
     6:
     0.459,0.551,0.210,0.070,0.044:
0000
0000
0000
0000
,
0000
0000
0000
0000
,
0000
0000
0000
0000
,
0000
0000
0000
0000
,
1001
0000
1000
0100
0010
0000
0001
0100
,
1000
0000
1000
0001
0100
0000
0100
1000
,
0001
0000
0010
0100
0001
0000
0100
1000
,
0010
0000
0010
0001
0100
0000
0010
0000
,
1001
0000
1000
0100
1000
0100
0010
0001
,
0010
0001
0100
0010
0100
0010
1000
0001
,
1000
0001
0010
0100
0010
0100
1000
0000
,
1001
0000
0110
0000
,
1000
0000
0010
0000
0010
0000
0100
0001
,
0000
0000
0001
0010
0100
0000
0100
1000
,
0000
0010
0000
0010
,
0000
0000
0000
0000
0010
0000
0000
0000
0000
0000
0000
0010
0000
0000
0000
1000
,
0000
0000
0001
0010
1000
0010
0000
0000
,
0001
0100
1000
0100
0000
0000
0001
0010
,
1000
0100
0000
0000
0100
1000
0010
0001
,
1000
0100
0010
0001
1000
0100
0010
0001
,
1000
1000
0010
0010
0100
0100
1000
0000
,
0001
0001
0010
0010
0100
0100
0001
0000
,
1000
1000
0100
0100
0010
0010
0001
0001
,
1000
1000
0001
0001
1000
1000
0001
0001
,
0001
0001
0010
0010
0100
0100
0001
0000
,
1000
1000
0010
0010
0100
0100
1000
0000
,
0001
0001
0010
0010
0100
0100
1000
1000
,
0001
0001
1000
1000
0100
0100
0010
0010
,
0001
0001
0000
0000
1000
1000
0000
0000
,
0001
0001
0000
0000
0100
0100
0000
0000
,
0001
0001
0000
0000
0010
0010
0000
0000
,
0001
0001
0000
0000
1000
1000
0000
0000
,
0010
0010
0000
0000
1000
1000
0000
0000
,
0100
0000
0000
0010
0000
0000
0001
0000
0100
0000
0000
0010
0000
0000
1000
0000
,
0000
0010
0000
0000
0001
0000
0000
0100
0000
0000
1000
0000
0100
0000
0010
0000
,
2002
0000
0000
3003
,
1000
0000
0010
0000
1001
0000
0100
0100
,
0001
0100
1001
0100
,
0100
0000
0010
0000
0011
0000
0001
0001
,
1000
0010
1010
0100
,
0020
0000
0001
0100
,
2030
0000
0010
0001
,
3100
0011
0100
1010
,
0100
0100
0100
0100
0100
0100
0000
0000
,
0001
0000
0010
0000
1001
0000
0100
0100
,
1000
0100
1001
0100
,
0100
0000
0010
0000
1010
0000
1000
1000
,
0001
0010
0011
0100
,
0020
0000
1000
0100
,
0032
0000
0010
1000
,
0103
1010
0100
0011
,
0001
0010
0100
1000
,
1000
1000
0000
0100
0100
0000
0010
0010
,
0001
0000
0000
0001
0001
0000
0100
0000
,
0010
0010
0000
1000
1000
0000
0010
0010
,
1000
0000
0000
1000
1000
0000
0100
0000
,
0010
0001
0010
0000
0100
0000
1000
0001
,
1000
0000
0010
0100
0000
0100
0001
0000
,
1000
0001
0010
0000
0010
0000
0100
0001
,
0100
0000
0010
0100
0000
0100
1000
0000
,
1001
0000
0000
0000
,
0000
0000
0000
0000
,
0000
0000
0000
0000
,
0000
0000
0000
0000
,
0000
0000
0000
0000
,
0001
1000
0000
0010
0100
0010
0000
1000
,
0001
1000
0000
0010
0100
0010
0000
1000
,
0001
1000
0000
0001
0010
0001
0000
0100
,
1000
0100
0000
0001
0010
1000
0000
1000
,
0100
0001
0000
0001
0010
0100
0000
0100
,
1000
0000
0000
0010
0000
0000
0100
0000
0001
0000
0000
0100
0000
0000
0010
0000
,
0000
1000
0000
0000
0100
0000
0000
0001
0000
0000
0010
0000
1000
0000
0001
0000
,
2002
0000
0000
3003
,
1001
0000
0000
0110
0000
0000
1001
0000
,
0110
1001
0000
0000
;

//---------------dance-single - HEAVY----------------
#NOTES:
     dance-single:
     HEAVY:
     Hard:
     9:
     0.659,0.852,0.437,0.131,0.310:
0000
0000
0000
0000
,
0000
0000
0000
0000
,
0000
0000
0000
0000
,
0000
0000
0000
0000
,
1001
0000
1000
0100
0001
0100
1000
0010
,
0001
0010
1000
0100
0010
1000
0001
0100
,
1000
0001
0010
0100
0001
0100
1000
0001
,
0010
0100
1000
0010
0100
0001
1000
0001
,
1001
0000
1000
0010
1000
0100
0001
0010
,
0100
1000
0010
0001
0010
0100
1000
0010
,
0001
0010
0100
1000
0100
0001
0010
0100
,
1001
0000
1000
0001
0110
0000
0100
0010
,
1001
0000
0010
1000
0010
0000
0100
0001
,
0010
0100
1000
0010
0100
0000
0100
1000
,
0100
1010
0100
1010
,
1000
0100
0001
0000
1001
0000
0001
0000
,
1000
0000
0001
0010
1000
0100
0002
0000
,
1003
0100
0001
0010
2000
0000
3001
0010
,
1000
0100
0020
0000
1030
0010
0001
0100
,
0010
1000
0100
0001
0100
1000
0010
0001
,
1001
1000
0010
0010
0100
0100
0010
0010
,
0001
0001
0010
0010
0100
0100
0010
0010
,
1000
1000
0100
0100
0010
0010
0001
0001
,
1000
1000
0001
0001
1000
1000
0001
0001
,
0010
0010
0100
0100
1000
1000
0010
0010
,
0001
0001
0010
0010
0100
0100
0001
0001
,
0100
0100
0010
0010
0100
0100
1000
1000
,
0001
0001
1000
1000
0010
0010
0001
0001
,
0000
1000
0000
0000
0000
1000
0000
0000
0000
0000
0000
0000
0000
0100
0000
0000
0000
0100
0000
0000
0000
0100
0000
0000
0000
0000
0000
0000
0000
0001
0000
0000
,
0000
0001
0000
0000
0000
0001
0000
0000
0000
0000
0000
0000
0000
0100
0000
0000
0000
0100
0000
0000
0000
0100
0000
0000
0000
0000
0000
0000
0000
1000
0000
0000
,
0000
1000
0000
0000
0000
1000
0000
0000
0000
0000
0000
0000
0000
0001
0000
0000
0000
0001
0000
0000
0000
0001
0000
0000
0000
0000
0000
0000
0000
0010
0000
0000
,
0000
0010
0000
0000
0000
0010
0000
0000
0000
0000
0000
0000
0000
1000
0000
0000
0000
1000
0000
0000
0000
1000
0000
0000
0000
0000
0000
0000
0000
0010
0000
0000
,
0000
0010
0000
0000
0000
0010
0000
0000
0000
0000
0000
0000
0000
0001
0000
0000
0000
0001
0000
0000
0000
0001
0000
0000
0000
0000
0000
0000
0000
1000
0000
0000
,
0100
0000
0000
0011
0000
0000
0001
0000
0100
0000
0000
1010
0000
0000
1000
0000
,
0000
0011
0000
0000
0001
0000
0000
1100
0000
0000
1000
0000
0010
0000
0001
0000
,
2002
0000
0000
3003
,
1001
0000
0010
0100
1000
0000
0100
0100
,
0001
0000
0110
0000
1001
1000
0100
0000
,
0100
1000
0001
0000
0010
0100
0010
0000
,
1000
0001
1000
0100
0001
0000
0110
0000
,
0010
0000
1000
0000
0001
0100
1000
0100
,
0001
0000
0011
0000
0001
0010
0100
1000
,
0001
0010
0001
0010
0002
0000
0000
0000
1003
0100
1000
0100
2000
0000
0000
0000
,
3010
0100
0010
0100
0010
0100
0010
0100
0010
0100
0010
0000
0000
0000
0000
0000
,
0001
0010
1000
0000
1001
0000
0100
0100
,
0001
0100
1000
0000
1001
0000
0110
0000
,
0100
0000
0010
1000
0010
0000
1000
1000
,
0001
0010
0100
0000
1010
0000
0101
0000
,
1001
0000
0010
0000
0010
1000
0100
0001
,
1000
0000
0110
0000
1000
0100
0010
0001
,
1000
0010
1000
0010
2000
0000
0000
0000
3001
0010
0001
0010
0002
0000
0000
0000
,
1003
0100
1000
0000
0010
0100
0010
0000
0100
0001
0100
0000
0001
1000
0001
0000
,
0101
0101
0000
0110
0110
0000
1010
1010
,
0100
0000
0000
1001
1001
0010
0100
0000
,
0110
0110
0000
1001
1000
0010
0110
0100
,
0010
0000
0000
1001
1001
0001
0100
0000
,
0100
0001
0010
0001
0010
0100
1000
0100
,
1000
0010
0100
0010
0100
1000
0001
1000
,
0001
0100
0010
0100
0010
0001
1000
0001
,
1000
0000
0000
0011
0000
1100
0000
0100
,
2002
0000
0000
0000
,
0000
0000
0000
0000
,
0000
0000
0000
0000
,
0000
0000
0000
0000
,
0000
0000
0000
0000
3003
1000
0100
0010
,
1001
0000
1000
0000
0100
0010
0100
0000
0001
0000
0010
0000
1000
0010
1000
0000
,
0100
0000
0001
0000
0010
0100
0010
0000
1000
0000
0100
0000
0001
0010
0001
0000
,
0010
0000
1000
0000
0100
0010
0100
0000
0001
0000
0010
0000
1000
0100
1000
0000
,
0100
0000
0001
0000
0010
0100
0010
0000
1000
0000
0100
0000
0001
0100
0001
0000
,
0010
0000
1000
0000
0100
0010
0100
0000
0001
0000
0010
0000
1000
0100
1000
0000
,
0100
0000
0000
0101
0000
0000
0001
0000
0010
0000
0000
1010
0000
0000
0100
0000
,
0000
0101
0000
0000
0010
0000
0000
1010
0000
0000
1000
0000
0100
0000
0001
0000
,
2002
0000
0000
3003
,
1000
0010
1000
0010
1000
0000
0001
0100
0001
0100
0001
0000
0100
0010
0100
0010
,
0100
2002
0000
0000
,
3003
0000
0000
0000
;

//---------------dance-single - ONI----------------
#NOTES:
     dance-single:
     ONI:
     Challenge:
     10:
     0.985,1.000,0.673,0.105,1.000:
0000
0000
0000
0000
,
0000
0000
0000
0000
,
0000
0000
0000
0000
,
0000
0000
0000
0000
,
1001
0000
0001
0000
1000
0010
1000
0000
0001
0000
0100
0000
0010
1000
0100
0000
,
0010
0000
0001
0000
1000
0010
0100
0000
0010
0000
1000
0000
0001
0100
0010
0000
,
1000
0000
0001
0000
0010
0100
1000
0000
0001
0000
0100
0000
0010
1000
0100
0000
,
0010
0000
0001
0000
1000
0010
0100
0000
0001
0000
0100
0000
0010
1000
0001
0000
,
1001
0000
1000
0000
0010
1000
0100
0000
0010
0000
0001
0000
0010
0100
1000
0000
,
0100
0000
0010
0000
0001
1000
0010
0000
0100
0000
0010
0000
1000
0100
0010
0000
,
0001
0000
0010
0000
0100
1000
0001
0000
0100
0000
0010
0000
1000
0001
1000
0000
,
1001
0000
0000
0000
1000
0001
0100
0000
0110
0000
0000
0000
0010
1000
0001
0000
,
1001
0000
0010
1000
0101
0001
0100
1000
,
1000
0100
0001
0010
1100
0000
0100
1001
,
0000
0000
0000
0000
,
0000
0000
0000
0000
0000
0000
0000
1001
,
0000
0000
0001
0010
1000
2002
0000
3000
,
1003
0100
0001
2002
0000
0003
3001
0010
,
1000
2002
0000
3000
1003
0100
0001
0010
,
0100
1000
0001
0010
0100
1000
0001
0010
0100
1000
0100
0010
0001
0010
0100
1000
,
1001
1000
1010
0010
0110
0100
0110
0010
,
0011
0001
0011
0010
0110
0100
0110
0010
,
1010
1000
1100
0100
0110
0010
0011
0001
,
1001
1000
1001
0001
1001
1000
1001
0001
,
0011
0010
0110
0100
1100
1000
1010
0010
,
0011
0001
0011
0010
0110
0100
0101
0001
,
0101
0100
0110
0010
1010
1000
1100
0100
,
0110
0010
0110
0100
1100
1000
1001
0001
,
0000
0001
0000
0010
0000
0001
0000
0000
0000
0000
0000
0000
0000
0100
0000
0010
0000
0100
0000
0010
0000
0100
0000
0000
0000
0000
0000
0000
0000
0001
0000
0100
,
0000
0001
0000
0100
0000
0001
0000
0000
0000
0000
0000
0000
0000
0100
0000
0010
0000
0100
0000
0010
0000
0100
0000
0000
0000
0000
0000
0000
0000
1000
0000
0100
,
0000
1000
0000
0100
0000
1000
0000
0000
0000
0000
0000
0000
0000
0001
0000
0010
0000
0001
0000
0010
0000
0001
0000
0000
0000
0000
0000
0000
0000
1000
0000
0100
,
0000
1000
0000
0100
0000
1000
0000
0000
0000
0000
0000
0000
0000
0010
0000
0100
0000
0010
0000
0100
0000
0010
0000
0000
0000
0000
0000
0000
0000
1000
0000
0100
,
0000
1000
0000
0100
0000
1000
0000
0000
0000
0000
0000
0000
0000
0001
0000
0010
0000
0001
0000
0010
0000
0001
0000
0000
0000
0000
0000
0000
0000
1000
0000
0000
,
1100
0000
0000
0011
0000
0000
0101
0000
1010
0000
0000
1010
0000
0000
1100
0000
,
0000
0011
0000
0000
1001
0000
0000
1100
0000
0000
0011
0000
0110
0000
1100
0000
,
2002
0000
0000
3003
,
1001
0000
1000
0000
0010
0000
0100
0001
1000
0000
0100
0000
0010
0000
0001
0100
,
0010
0000
1000
0000
0001
0000
0100
0010
1000
0000
1000
0000
0100
0000
0000
0000
,
0100
0000
1000
0000
0001
0000
0010
0100
1000
0000
0100
0000
0010
0000
0001
0100
,
0001
0000
1000
0000
0010
0000
0100
0001
1000
0000
0100
0000
0010
0000
0001
0000
,
1001
0010
0100
1000
0001
0100
1000
0100
,
1001
0010
0100
1000
0001
0010
1000
0010
,
0001
0100
0001
0100
0001
0000
0001
0000
1000
0010
1000
0010
1000
0000
1000
0000
,
0010
0100
0010
0100
0010
0100
0010
0100
0010
0100
0010
0000
0000
0000
1001
0000
,
1000
0000
0010
0000
0100
0000
0010
1000
0100
0000
0010
0000
0001
0000
0100
0010
,
1000
0000
0001
0000
0100
0000
0010
1000
0100
0000
0100
0000
0001
0000
0000
0000
,
1000
0000
0001
0000
0100
0000
0001
0100
0010
0000
0100
0000
0001
0000
0100
0010
,
1000
0000
0100
0000
0010
0000
0001
0010
0100
0000
1000
0000
0100
0000
0010
0000
,
1001
0010
0100
0001
1000
0100
0001
0100
,
1001
0010
0100
0001
1000
0010
0001
0010
,
1000
0010
1000
0010
1000
0000
1000
0000
0001
0010
0001
0010
0001
0000
0001
0000
,
1000
0100
1000
0000
0010
0100
0010
0000
0100
0010
1000
0001
1000
0100
0010
0001
,
0100
0001
0100
0001
0100
0000
0010
1000
0010
1000
0010
0000
1000
0100
1000
0000
,
1000
0100
1000
0100
1000
0000
0001
0010
0001
0010
0001
0000
0100
0010
0100
0000
,
0010
1000
0010
1000
0010
0000
1000
0001
1000
0001
1000
0000
0001
0100
0001
0000
,
0010
0100
0010
0100
0010
0000
0001
1000
0001
1000
0001
0000
1000
0100
1000
0000
,
0001
0010
0001
0010
0001
0000
1000
0100
1000
0100
1000
0000
0010
0100
0010
0000
,
0100
0001
0100
0001
0100
0000
0001
0100
0001
0100
0001
0000
0100
0010
0100
0000
,
0010
1000
0010
1000
0010
0000
1000
0100
1000
0100
1000
0000
0001
0010
0001
0000
,
1000
0100
1000
0100
1000
0000
0001
0100
0001
0100
0001
0000
1000
0001
1000
0000
,
1000
0100
0010
0001
0100
0010
0100
0001
0010
0100
1000
0010
0100
0010
1000
0100
,
0010
0001
0100
0010
0100
0001
0010
0100
1000
0010
0100
0010
1000
0100
0010
0001
,
0100
0010
0100
0001
0010
0100
1000
0010
0100
0010
1000
0100
0010
0001
0100
0010
,
0100
0001
0010
0100
1000
0010
0100
0010
1000
0100
0010
0001
0100
0010
0100
0001
,
0010
0100
1000
0100
0010
0001
0010
0100
1000
0010
0100
0001
0010
0100
1000
0001
,
1000
0010
1000
0001
0100
0010
0100
0001
0010
0100
1000
0010
0100
0001
0010
0100
,
1000
0010
0100
0010
1000
0100
0010
0001
0010
0100
1000
0001
0100
0010
1000
0001
,
0010
0100
1000
0010
0100
0010
1000
0100
0010
0001
0010
0100
1000
0010
0100
0001
,
1000
0100
0010
0001
0010
0100
1000
0010
1000
0001
0100
0001
1000
0100
0010
0001
,
1000
0010
0100
0010
1000
0100
0010
0001
0010
0100
1000
0001
0100
0010
1000
0001
,
1001
0000
0000
0101
0000
0000
0011
0000
0110
0000
0000
1010
0000
0000
0110
0000
,
0000
0101
0000
0000
0110
0000
0000
1010
0000
0000
1001
0000
0110
0000
1001
0000
,
2002
0000
0000
3003
,
1000
0010
0100
0010
1000
0000
0001
0100
0010
0100
0001
0000
1000
0100
0010
0001
,
0100
2002
0000
0000
,
3003
0000
0000
0000
;
