#TITLE:5.1.1(ReMix);
#SUBTITLE:;
#ARTIST:猫蟹丸;
#TITLETRANSLIT:;
#SUBTITLETRANSLIT:;
#ARTISTTRANSLIT:;
#CREDIT:;
#BANNER:5.1.1. (ReMix).png;
#BACKGROUND:5.1.1. (ReMix)-bg.png;
#LYRICSPATH:;
#CDTITLE:cdtitle.png;
#MUSIC:5.1.1(ReMix).mp3;
#OFFSET:-1.500;
#SAMPLESTART:13.760;
#SAMPLELENGTH:12.000;
#SELECTABLE:YES;
#BPMS:0.000=158.000,128.000=79.000,144.000=158.000;
#STOPS:159.938=0.380
;
#BGCHANGES:;

//---------------dance-single - BASIC----------------
#NOTES:
     dance-single:
     BASIC:
     Easy:
     1:
     0.119,0.166,0.123,0.000,0.000:
0000
0000
0000
0000
,
0000
0000
0000
0000
,
0000
0000
0000
0000
,
0000
0000
0000
0000
,
0000
0000
0000
0000
,
0000
0000
0000
0000
,
0000
0000
0000
0000
,
0000
0000
0000
0000
,
1000
0000
0000
0000
,
0001
0000
0000
0000
,
0100
0000
0000
0000
,
0010
0000
0000
0000
,
1000
0000
0100
0000
,
0001
0000
0010
0000
,
1000
0000
0000
0000
,
0001
0000
0000
0000
,
1001
0000
1000
0000
,
0100
0000
0001
0000
,
0100
0000
0001
0000
,
1000
0000
1000
0000
,
0001
0000
0001
0000
,
1000
0000
0100
0000
,
0010
0000
1000
0000
,
0001
0000
0000
0000
,
1001
0000
0001
0000
,
0100
0000
1000
0000
,
0100
0000
1000
0000
,
0001
0000
0001
0000
,
1000
0000
1000
0000
,
0001
0000
0100
0000
,
0010
0000
0001
0000
,
1000
0000
0000
0000
,
1000
0000
0001
0000
,
0010
0000
0010
0000
,
1000
0000
0001
0000
,
0010
0000
0010
0000
,
1001
0000
0000
0000
,
0000
0000
0000
0000
,
0000
0000
0000
0000
,
0000
0000
0000
0000
,
0000
0000
0001
0000
,
1000
0000
0010
0000
,
0100
0000
0010
0000
,
1000
0000
0001
0000
,
0100
0000
0100
0000
,
0010
0000
0010
0000
,
1001
0000
0000
0000
,
1001
0000
0000
0000
,
0001
0000
1000
0000
,
0001
0000
0010
0000
,
0100
0000
0010
0000
,
0001
0000
1000
0000
,
0100
0000
0100
0000
,
0010
0000
0010
0000
,
1001
0000
0000
0000
,
1001
0000
0000
0000
,
0001
0000
0000
0000
,
0100
0000
0000
0000
,
1000
0000
0000
0000
,
0001
0000
0000
0000
,
1001
0000
0000
0000
,
1001
0000
0000
0000
,
1001
0000
0000
0000
,
1001
0000
0000
0000
,
1000
0000
0000
0000
,
0100
0000
0000
0000
,
0001
0000
0000
0000
,
1000
0000
0000
0000
,
1001
0000
0000
0000
,
1001
0000
0000
0000
,
1001
0000
0000
0000
,
1001
0000
0000
0000
,
1001
0000
0000
0000
;

//---------------dance-single - TRICK----------------
#NOTES:
     dance-single:
     TRICK:
     Medium:
     4:
     0.249,0.304,0.046,0.077,0.000:
0000
0000
0000
0000
,
0000
0000
0000
0000
,
0000
0000
0000
0000
,
0000
0000
0000
0000
,
0000
0000
0000
0000
,
0000
0000
0000
0000
,
0000
0000
0000
0000
,
0000
0000
0000
0000
,
1000
0100
1000
1000
,
0001
0010
0010
0100
,
1000
0010
0010
0100
,
0010
0001
0001
0100
,
1000
0100
0100
0010
,
0001
1000
1000
0100
,
1000
0010
0010
0100
,
0002
0000
0000
1003
0000
0000
0000
0000
,
1001
0100
1000
0000
,
0100
0010
0001
0000
,
0100
0010
0001
0000
,
1000
0100
1000
0000
,
0001
0010
1000
0100
,
1000
0010
0001
0100
,
1000
0010
0001
0001
,
2000
0000
0000
3001
0000
0000
0000
0000
,
1001
0100
0001
0000
,
0100
0010
1000
0000
,
0100
0010
1000
0000
,
0001
0100
0001
0000
,
1000
0010
0001
0100
,
0001
0010
1000
0100
,
0001
0010
1000
1000
,
0002
0000
0000
1003
0000
0000
0000
0000
,
1000
0000
0010
0000
0001
0001
0001
0000
,
0001
0000
0010
0000
1000
1000
1000
0000
,
1000
0001
0001
1000
,
0100
0010
0010
0100
,
2002
0000
0000
0000
,
0000
0000
0000
0000
,
3003
0000
0000
0000
1000
0000
0000
0001
,
0000
0000
0000
0000
0000
0000
0000
0000
0000
0000
0000
0000
0000
0000
0000
0000
0100
0000
0000
0000
0000
0000
0000
0000
0000
0000
0000
0000
0000
0000
0000
0000
0000
0000
0000
0000
0000
0000
0000
0000
0020
0000
0000
0000
0000
0000
0000
0000
0000
0000
0000
0000
0000
0000
0000
0000
0000
0000
0000
0000
0000
0000
0000
0030
,
0000
0100
0001
0000
,
1000
0010
0100
0000
,
0100
0001
0010
0010
,
1000
0100
0001
0000
,
0100
1000
0100
0001
,
0010
1000
0100
0001
,
2000
0000
0000
3001
0000
0000
0000
0000
,
0002
0000
0000
1003
0000
0000
0000
0000
,
0010
0100
1000
0000
,
0001
0010
0100
0000
,
0100
1000
0010
0010
,
0001
0100
1000
0000
,
0100
0001
0100
1000
,
0010
0001
0100
1000
,
0002
0000
0000
1003
0000
0000
0000
0000
,
2000
0000
0000
3001
0000
0000
0000
0000
,
0001
0100
1000
0000
0010
0000
0000
0000
,
0100
0001
0100
0100
,
1000
0000
0001
0100
,
1000
0010
0010
0001
,
1000
0100
0001
1000
,
0100
0001
0010
1000
,
0010
0001
0100
1000
,
1001
0000
0000
0000
,
1000
0100
0001
0000
0010
0000
0000
0000
,
0100
1000
0100
0100
,
0001
0000
1000
0100
,
0001
0010
0010
1000
,
0001
0100
1000
0001
,
0100
1000
0010
0001
,
0010
1000
0100
0001
,
1001
0000
0000
0000
,
1001
0000
0000
0000
;

//---------------dance-single - HEAVY----------------
#NOTES:
     dance-single:
     HEAVY:
     Hard:
     6:
     0.413,0.607,0.215,0.659,0.000:
0000
0000
0000
0000
,
0000
0000
0000
0000
,
0000
0000
0000
0000
,
0000
0000
0000
0000
,
0000
0000
0000
0000
,
0000
0000
0000
0000
,
0000
0000
0000
0000
,
0000
0000
0000
0000
,
2000
0000
0000
0000
0000
0000
0000
3001
,
0020
0000
0000
0000
0000
0000
1030
0200
,
0000
0000
0000
0000
0000
0000
0000
0301
,
2000
0000
0000
0000
0000
0000
0000
3100
,
0020
0032
0203
0320
,
2030
3200
0302
0023
,
2030
0000
0000
3002
0000
0000
0000
0000
,
2003
0000
0000
3100
0000
0000
0000
0000
,
1001
0000
1000
0000
0010
0000
0100
0001
,
0100
0000
0010
0000
1000
0000
0100
1000
,
0100
0000
0010
0000
0001
0000
0100
0001
,
0100
0010
1000
0100
,
0002
0023
2030
3020
,
0032
0203
2300
3020
,
0230
0000
0000
0302
0000
0000
1003
0000
,
0002
0000
0000
2003
0000
0000
3001
0000
,
1001
0000
0001
0000
0010
0000
0100
1000
,
0100
0000
0010
0000
0001
0000
0100
0001
,
0100
0000
0010
0000
1000
0000
0100
1000
,
0100
0010
0001
0100
,
2000
3020
0032
0023
,
2030
3200
0302
0023
,
0230
0000
0000
2300
0000
0000
3001
0000
,
2000
0000
0000
3002
0000
0000
1003
0000
,
1001
1000
0010
1001
0001
0100
0010
1001
,
1000
0100
0010
1001
1000
0010
1000
1001
,
0010
0001
0100
1001
0010
0100
1000
1001
,
1000
0100
1000
1001
0010
0001
0100
1001
,
2002
0000
0000
0000
,
0000
0000
0000
0000
,
3003
0000
0000
0000
1000
0000
0010
0001
,
0000
0000
0100
0000
0010
0200
0000
0000
,
0300
0000
0100
0000
0001
0000
0010
0100
,
1000
0000
0010
0000
1010
0000
0001
0100
,
0001
0000
0001
0000
0010
0000
0010
0001
,
0100
0100
1001
0100
,
0200
2300
3020
0032
,
0203
2300
3020
2030
,
3002
0000
0000
2003
0000
0000
3001
0000
,
2000
0000
0000
3002
0000
0000
1003
0000
,
1001
0000
0100
0000
1000
0000
0010
0100
,
0001
0000
0010
0000
0011
0000
1000
0100
,
1000
0000
1000
0000
0010
0000
0010
1000
,
0100
0100
1001
0100
,
0200
0302
0023
2030
,
3200
0302
0023
0032
,
2003
0000
0000
3002
0000
0000
1003
0000
,
0002
0000
0000
2003
0000
0000
3001
0000
,
0001
0100
1000
0000
0010
0100
0001
0010
,
0100
1000
0100
1001
,
1000
0100
0001
0000
0010
0100
1000
0010
,
0100
0010
1001
0001
,
2000
3200
0302
2003
,
3200
0302
0023
2030
,
3002
0000
0000
0203
0000
0000
1300
0000
,
1001
0000
0000
0110
0000
0000
1001
0000
,
1000
0100
0001
0000
0010
0100
1000
0010
,
0100
0001
0100
1001
,
0001
0100
1000
0000
0010
0100
0001
0010
,
0100
0010
1001
1000
,
0002
0203
2300
3002
,
0203
2300
3020
0032
,
2003
0000
0000
3200
0000
0000
0301
0000
,
1001
0000
0000
0110
0000
0000
1001
0000
,
1001
0000
0000
0000
;

//---------------dance-single - ONI----------------
#NOTES:
     dance-single:
     ONI:
     Challenge:
     10:
     0.749,0.938,0.590,0.544,0.839:
0000
0000
0000
0000
,
0000
0000
0000
0000
,
0000
0000
0000
0000
,
0000
0000
0000
0000
,
0000
0000
0000
0000
,
0000
0000
0000
0000
,
0000
0000
0000
0000
,
0000
0000
0000
0000
,
1000
0000
0000
0010
0000
0000
0100
0000
0000
0001
0000
0000
0010
0000
0000
0000
,
0001
0000
0000
0100
0000
0000
0010
0000
0000
1000
0000
0000
0100
0000
0010
0000
,
0001
0000
0000
0100
0000
0000
0010
0000
0000
1000
0000
0000
0100
0000
0000
0000
,
1000
0000
0000
0010
0000
0000
0100
0000
0000
0001
0000
0000
0100
0000
0010
0000
,
1000
0000
0000
0100
0000
0000
0010
0000
0000
0100
0000
0000
1000
0000
0000
0000
,
0010
0000
0000
0100
0000
0000
0001
0000
0000
0100
0000
0000
0010
0000
1000
0000
,
0001
0010
0100
0010
0100
1000
0100
0010
0100
0010
0001
0010
0100
0010
0100
1000
,
0001
0000
0000
0000
0100
0000
0000
0000
0010
0000
0000
0000
1000
0000
0000
0000
0010
0000
0000
0000
0100
0000
0000
0000
0001
0000
0000
0000
1000
0000
0000
0000
0MM0
0MM0
0MM0
0MM0
MMMM
MMMM
MMMM
MMMM
MMMM
MMMM
MMMM
MMMM
MMMM
MMMM
MMMM
MMMM
MMMM
MMMM
0000
0000
0000
0000
0000
0000
0000
0000
0000
0000
0000
0000
0000
0000
,
1001
0000
0000
1010
0000
0000
1100
0000
0000
0110
0000
0000
0101
0000
0000
0000
,
0110
0000
0000
1001
0000
0000
0011
0000
0000
1100
0000
0000
1000
0000
0100
0000
,
0001
0000
0000
0011
0000
0000
0110
0000
0000
0011
0000
0000
1010
0000
0000
0000
,
0101
0000
0000
0011
0000
0000
1010
0000
0000
1100
0000
0000
0001
0000
0010
0000
,
2000
0010
3000
0000
0020
1000
0030
0000
2000
0100
3000
0000
0020
0001
0030
0000
,
0002
1000
0003
0000
0200
0010
0300
0000
2000
0100
3000
0000
0020
0001
0030
0000
,
0002
0000
0003
0010
0100
0000
2000
0000
0000
0000
0000
0000
3001
0000
0000
0000
,
2000
0000
0000
0010
3100
0000
0002
0000
0000
0000
0000
0000
1003
0000
0000
0000
,
1001
0000
0000
1010
0000
0000
0110
0000
0000
0011
0000
0000
1010
0000
0000
0000
,
1100
0000
0000
1001
0000
0000
0011
0000
0000
0101
0000
0000
1000
0000
0100
0000
,
0001
0000
0000
0011
0000
0000
0110
0000
0000
1010
0000
0000
0011
0000
0000
0000
,
1010
0000
0000
1100
0000
0000
1010
0000
0000
0101
0000
0000
0001
0000
0010
0000
,
2000
0010
3000
0000
0002
0100
0003
0000
0020
0100
0030
0000
2000
0100
3000
0000
,
0200
0010
0300
0000
0020
0100
0030
0000
0200
0001
0300
0000
2000
0000
0000
0000
,
3002
0000
0000
0010
0103
0000
2000
0000
0000
0000
0000
0000
3001
0000
0000
0000
,
2000
0000
0000
0010
3100
0000
0002
0000
0000
0000
0000
0000
1003
0000
0000
0000
,
1001
1000
0010
0100
0010
0100
0010
0100
0001
0100
0010
0100
0010
0100
0010
0100
,
1000
0100
0010
0100
0010
0100
0010
0100
0001
0100
0010
0100
0010
0100
0010
0100
,
1000
0100
0010
1000
0100
0010
0001
0100
0010
1000
0100
1000
0010
0100
0001
0100
,
0010
1000
0100
1000
0001
1000
0010
0100
0001
0100
0010
1000
0100
0001
1000
0010
,
2002
0000
0000
0003
3010
0100
0010
0100
0010
0100
0010
0100
0010
0100
0010
0100
,
0010
0100
0010
0100
0010
0100
0010
0100
0010
0100
0010
0100
0010
0100
0010
0100
,
0000
0000
0000
0000
2020
0000
3030
0202
,
0000
0000
0000
0000
0000
0000
0000
0000
0303
0000
0000
0000
0000
0000
0000
0000
0220
0000
0000
0000
0000
0000
0000
0000
0000
0000
0000
0000
0000
0000
0000
0000
0330
0000
0000
0000
0000
0000
0000
0000
2002
0000
0000
0000
0000
0000
0000
0000
0000
0000
0000
0000
0000
0000
0000
0000
0000
0000
0000
0000
0000
0000
0000
3003
,
1001
0000
0000
1010
0000
0000
1100
0000
0000
0110
0000
0000
0101
0000
0000
0000
,
0110
0000
0000
1001
0000
0000
0011
0000
0000
1100
0000
0000
1000
0000
0100
0000
,
0001
0000
0000
0011
0000
0000
0110
0000
0000
0011
0000
0000
1010
0000
0000
0000
,
0101
0000
0000
0011
0000
0000
1010
0000
0000
1100
0000
0000
0001
0000
0010
0000
,
2000
0010
3000
0000
0020
1000
0030
0000
2000
0100
3000
0000
0020
0001
0030
0000
,
0002
1000
0003
0000
0200
0010
0300
0000
2000
0100
3000
0000
0020
0001
0030
0000
,
0002
0000
0003
0010
0100
0000
2000
0000
0000
0000
0000
0000
3001
0000
0000
0000
,
2000
0000
0000
0010
3100
0000
0002
0000
0000
0000
0000
0000
1003
0000
0000
0000
,
1001
0000
0000
1010
0000
0000
0110
0000
0000
0011
0000
0000
1010
0000
0000
0000
,
1100
0000
0000
1001
0000
0000
0011
0000
0000
0101
0000
0000
1000
0000
0100
0000
,
0001
0000
0000
0011
0000
0000
0110
0000
0000
1010
0000
0000
0011
0000
0000
0000
,
1010
0000
0000
1100
0000
0000
1010
0000
0000
0101
0000
0000
0001
0000
0010
0000
,
2000
0010
3000
0000
0002
0100
0003
0000
0020
0100
0030
0000
2000
0100
3000
0000
,
0200
0010
0300
0000
0020
0100
0030
0000
0200
0010
0300
0000
2000
0000
3000
0000
,
0002
0000
0000
0010
0103
0000
2000
0000
0000
0000
0000
0000
3001
0000
0000
0000
,
2000
0000
0000
0010
3100
0000
0002
0000
0000
0000
0000
0000
1003
0000
0000
0000
,
1001
0010
1000
0010
1000
0001
0100
0010
,
1000
0001
0100
0010
0100
0001
0100
0010
,
1000
0100
0010
0001
0100
0010
1000
0100
,
0001
0100
0001
0010
1000
0100
0001
1000
,
0020
0100
2030
0100
3002
1000
0023
0100
,
2030
0010
3200
0001
2300
0100
3002
0100
,
2003
0010
3100
2000
0100
3001
1000
0010
,
0002
0010
1003
0002
1000
0103
1002
0000
,
1003
0100
0010
0100
0010
0100
0010
0100
0001
0100
0010
0100
0010
0100
0010
0100
,
1000
0100
0010
0100
0010
0100
0010
0100
0001
0100
0010
0100
0010
0100
0010
0100
,
1000
0100
0010
0100
0010
0100
0010
0100
0001
0100
0010
0100
0010
0100
0010
0100
,
1000
0100
0010
0100
0010
0100
0010
0100
0001
0100
0010
0100
0010
0100
0010
0100
,
1000
0100
0010
0100
1000
0100
0010
0100
1000
0100
0010
0100
1000
0100
0010
0001
,
0010
0100
0010
0001
0010
0100
0010
0001
0010
0100
0010
0001
0010
0100
1000
0100
,
1000
0001
1000
0100
1000
0001
1000
0100
1000
0001
1000
0100
1000
0001
1000
0100
,
1000
0001
0100
0001
1000
0001
0100
0001
1000
0001
0100
0001
1000
0100
0010
0001
,
1001
0000
0000
0000
;

//---------------dance-double - ----------------
#NOTES:
     dance-double:
     :
     Hard:
     7:
     0.402,0.469,0.008,0.483,0.000:
00000000
00000000
00000000
00000000
,
00000000
00000000
00000000
00000000
,
00000000
00000000
00000000
00000000
,
00000000
00000000
00000000
00000000
,
00000000
00000000
00000000
00000000
,
00000000
00000000
00000000
00000000
,
00000000
00000000
00000000
00000000
,
00000000
00000000
00000000
00000000
,
02000000
00000000
00000000
00000000
00000000
00000000
00000000
10000000
,
23000000
00000000
00000000
00000000
00000000
00000000
00010000
30020000
,
00000000
00000000
00000000
00000000
00000000
00000000
00000000
00000010
,
00030020
00000000
00000000
00000000
00000000
00000000
00000000
00001030
,
00000002
00000203
00002300
02003000
,
23000000
30200000
00320000
00030020
,
00000230
00000000
00000000
00020300
00000000
00000000
00000000
00000000
,
02030000
00000000
00000000
03001000
00000000
00000000
00000000
00000000
,
00010000
00000000
00000100
00000000
00010000
00000000
00001000
00000100
,
00000001
00000000
00000001
00000000
00000100
00000000
00000010
00010000
,
00001000
00000000
00001000
00000000
00010000
00000000
00100000
00010000
,
10000000
00000000
10000000
01000000
00000000
00100000
00010000
00000000
,
00002000
02003000
03200000
20300000
,
30020000
00032000
00003020
00000032
,
00001003
00000000
00000100
00000010
00000000
00000001
00001000
00000000
,
00000010
00000000
00010000
00001000
00000000
00100000
01000000
00000000
,
10000000
00000000
00010000
00000000
00100000
00000000
00001000
00010000
,
00001000
00000000
00000100
00000000
00000010
00000000
00001000
00000001
,
00001000
00000000
00000100
00000000
00010000
00000000
00000010
00001000
,
00000010
00000000
00010000
00000000
00001000
00000000
01000000
00100000
,
00020000
02030000
23000000
30200000
,
00302000
00003200
00000302
00000023
,
00010030
00000000
00000100
00000010
00000000
00000100
00000001
00000000
,
00000010
00000000
00010000
00001000
00000000
00010000
00100000
00000000
,
01000000
10000000
10000000
10000000
10000000
00100000
00100000
00100000
,
00100000
00010000
00010000
00010000
00010000
00001000
00001000
00001000
,
00001000
00000100
00000100
00000100
00000100
00000001
00000001
00000001
,
00000001
00001000
00001000
00001000
00001000
00000010
00000010
00000010
,
00000010
00000000
00010000
00000000
00001000
00010000
00001000
00010000
,
00001000
00010000
00000000
01000000
00100000
01000000
00100000
00000000
,
00010000
10000000
00010000
00000000
10000000
00000000
01000000
00000000
,
00100000
00010000
00100000
00000000
00001000
00000000
00010000
00000000
,
00000100
00000000
00000010
00000000
00000001
00000000
00001000
00000100
,
00001000
00000000
00010000
00000000
01000000
00000000
00100000
00010000
,
00100000
00000000
10000000
00000000
00010000
00000000
00100000
01000000
,
00100000
00000000
00001000
00010000
00000000
00000100
00000010
00000000
,
00002000
00003200
00000302
00002003
,
00003020
00002030
00023000
00230000
,
01300000
00000000
10000000
00100000
00000000
00001000
00010000
00000000
,
00000010
00000000
00001000
00000001
00000000
00000100
00001000
00000000
,
00010000
00000000
00000010
00000000
00010000
00000000
00001000
01000000
,
00001000
00000000
00010000
00000000
01000000
00000000
10000000
01000000
,
10000000
00000000
00010000
00000000
00100000
00000000
00001000
00010000
,
00001000
00000000
00000100
00000000
00000010
00000000
00001000
00000001
,
00002000
00003200
00000302
00000023
,
00002030
00023000
00230000
20300000
,
30010000
00000000
01000000
00100000
00000000
00100000
10000000
00000000
,
00010000
00000000
00100000
00010000
00000000
00001000
00000100
00000000
,
00000010
00000000
00001000
00000000
00000001
00000000
00000100
00001000
,
00010000
00000000
00100000
00000000
10000000
00000000
00010000
00100000
,
01000000
00000000
00001000
00000000
00010000
00000000
00001000
00000100
,
00000001
00000000
00001000
00000100
00000000
00000010
00010000
00000000
,
00002000
00023000
02030000
23000000
,
30020000
00230000
00302000
00023000
,
00031000
00000000
00000100
00000001
00000000
00001000
00000010
00000000
,
00000100
00000000
00000010
00010000
00000000
00001000
01000000
00000000
,
00100000
00000000
10000000
00000000
00100000
00000000
00001000
00010000
,
01000000
00000000
10000000
00000000
01000000
00000000
00010000
00001000
,
00000100
00000000
00000001
00000000
00001000
00000000
00000100
00000001
,
00000010
00000000
00001000
00000000
00010000
00000000
00001000
00010000
,
02000000
23000000
30020000
02030000
,
03200000
00302000
00023000
00030020
,
00001030
00000000
00000001
00001000
00000000
00000100
00000010
00000000
,
00000001
00000000
00000100
00000010
00000000
00001000
00000001
00000000
,
00001001
00000000
00000000
00000000
;

//---------------dance-double - ----------------
#NOTES:
     dance-double:
     :
     Challenge:
     9:
     0.632,0.911,0.008,0.391,0.655: // measure 1
00000000
00000000
00000000
00000000
,  // measure 2
00000000
00000000
00000000
00000000
,  // measure 3
00000000
00000000
00000000
00000000
,  // measure 4
00000000
00000000
00000000
00000000
,  // measure 5
00000000
00000000
00000000
00000000
,  // measure 6
00000000
00000000
00000000
00000000
,  // measure 7
00000000
00000000
00000000
00000000
,  // measure 8
00000000
00000000
00000000
00000000
,  // measure 9
01000000
00000000
00000000
01000000
00000000
00000000
01000000
00000000
00000000
01000000
00000000
00000000
01000000
00000000
01000000
00000000
,  // measure 10
10000000
00000000
00000000
10000000
00000000
00000000
10000000
00000000
00000000
10000000
00000000
00000000
10000000
00000000
10000000
00000000
,  // measure 11
00010000
00000000
00000000
00010000
00000000
00000000
00010000
00000000
00000000
00010000
00000000
00000000
00010000
00000000
00010000
00000000
,  // measure 12
00100000
00000000
00000000
00100000
00000000
00000000
00100000
00000000
00000000
00100000
00000000
00000000
00100000
00000000
00100000
00000000
,  // measure 13
00001000
00000000
00000000
00001000
00000000
00000000
00001000
00000000
00000000
00001000
00000000
00000000
00001000
00000000
00001000
00000000
,  // measure 14
00010000
00000000
00000000
00010000
00000000
00000000
00010000
00000000
00000000
00010000
00000000
00000000
00010000
00000000
00010000
00000000
,  // measure 15
00000100
00000010
00000100
00000010
00000100
00000010
00000100
00000010
,  // measure 16
00001000
00000000
00000000
00000000
00000000
00000000
00000000
00000000
00000001
00000000
00000000
00000000
00000000
00000000
00000000
00000000
00001000
00000000
00000000
00000000
00000000
00000000
00000000
00000000
00000001
00000000
00000000
00000000
00000000
00000000
00000000
00000000
00001MM0
00000MM0
00000MM0
00000MM0
00000MM0
00000MM0
00000MM0
00000MM0
00000MM0
0000MMMM
0000MMMM
0000MMMM
0000MMMM
0000MMMM
0000MMMM
0000MMMM
0000MMMM
0000MMMM
0000MMMM
0000MMMM
0000MMMM
0000MMMM
0000MMMM
0000MMMM
0000MMMM
0000MMMM
0000MMMM
0000MMMM
0000MMMM
0000MMMM
0000MMMM
0000MMMM
,  // measure 17
0001MMMM
00000000
00000000
01000000
10000000
00000000
00010000
00000000
01000000
00000000
00001000
00000000
00010000
00000000
00000100
00000000
,  // measure 18
00000010
00000000
00000000
00000001
00001000
00000000
00000010
00000000
00000100
00000000
00001000
00000000
00010000
00000000
00000100
00000000
,  // measure 19
00001000
00000000
00000000
00100000
01000000
00000000
10000000
00000000
01000000
00000000
00100000
00000000
00001000
00000000
00010000
00000000
,  // measure 20
00000010
00000000
00000000
00000100
00000001
00000000
00001000
00000000
00000100
00000000
00001000
00000000
00000010
00000100
00000010
00000000
,  // measure 21
00020000
00000000
00000000
00001000
02030000
00000000
00000000
00100000
03020000
00000000
00000000
10000000
00230000
00000000
00000000
01000000
,  // measure 22
00302000
00000000
00000000
00100000
00023000
00000000
00000000
00000010
00030200
00000000
00000000
00000001
00002300
00000000
00000000
00000100
,  // measure 23
00003010
00000000
00000000
00000001
00000100
00000000
00000010
00000000
00001000
00000000
00010000
00000000
00001000
00000000
00100000
00000000
,  // measure 24
00010000
00000000
00000000
10000000
01000000
00000000
00100000
00000000
00010000
00000000
00001000
00000000
00010000
00000000
00000010
00000000
,  // measure 25
00001000
00000000
00000000
00010000
00000100
00000000
00000010
00000000
00001000
00000001
00000000
00000100
00000010
00000000
00001000
00000000
,  // measure 26
00000100
00000000
00000000
00010000
00001000
00000000
00100000
00000000
00010000
10000000
00000000
01000000
10000000
00000000
00010000
00000000
,  // measure 27
00100000
00000000
00000000
01000000
00010000
00000000
00001000
00000000
00000100
00000010
00000000
00000100
00000010
00000000
00001000
00000000
,  // measure 28
00000001
00000000
00000000
00000100
00000010
00000000
00010000
00000000
00001000
00010000
00000000
00001000
00010000
00000000
00100000
00000000
,  // measure 29
00020000
00000000
00000000
10000000
02030000
00000000
00000000
00010000
03200000
00000000
00000000
00001000
00320000
00000000
00000000
00000010
,  // measure 30
00030200
00000000
00000000
00000001
00002300
00000000
00000000
00000100
00003020
00000000
00000000
00001000
00020030
00000000
00000000
01000000
,  // measure 31
10030000
00000000
00000000
00010000
00100000
00000000
01000000
00000000
00000000
00001000
00010000
00000000
00000100
00000000
00000010
00000000
,  // measure 32
00001000
00000000
00000000
00000001
00000100
00000000
00000010
00000000
00000000
00010000
00001000
00000000
00100000
00000000
00010000
00000000
,  // measure 33
10000000
01000000
00010000
01000000
00010000
00001000
00000010
00001000
00000010
00000001
00000100
00000001
00000100
00001000
00010000
00001000
,  // measure 34
00010000
01000000
10000000
01000000
10000000
00100000
00010000
00100000
00010000
00001000
00010000
00001000
00010000
00000100
00001000
00000100
,  // measure 35
00001000
00000010
00000001
00000010
00000001
00001000
00000010
00001000
00000010
00010000
00001000
00010000
00001000
01000000
00010000
01000000
,  // measure 36
00010000
01000000
10000000
01000000
10000000
00100000
00010000
00100000
00010000
00100000
00001000
00100000
00001000
00010000
00000100
00010000
,  // measure 37
00000100
00000000
00001000
00000010
00000001
00001000
00000001
00001000
,  // measure 38
00000100
00010000
00000100
00010000
00001000
00100000
00001000
00100000
,  // measure 39
00010000
10000000
01000000
00100000
00020000
00000000
10000000
01000000
,  // measure 40
20030000
00000000
00100000
01000000
30200000
00000000
00001000
00010000
,  // measure 41
00301000
00000000
00000000
00010000
00000100
00000000
00000001
00000000
00000010
00000000
00000100
00000000
00001000
00000000
00010000
00000000
,  // measure 42
00001000
00000000
00000000
01000000
00100000
00000000
00010000
00000000
10000000
00000000
01000000
00000000
00001000
00000000
00010000
00000000
,  // measure 43
00000010
00000000
00000000
00000100
00010000
00000000
00001000
00000000
00000100
00000000
00000010
00000000
00001000
00000000
00000001
00000000
,  // measure 44
00000100
00000000
00000000
00010000
00001000
00000000
00010000
00000000
00000000
01000000
00100000
00000000
00010000
00000000
10000000
00000000
,  // measure 45
02000000
00000000
00000000
00100000
03002000
00000000
00000000
00010000
00003020
00000000
00000000
00000100
00000032
00000000
00000000
00001000
,  // measure 46
00000203
00000000
00000000
00000001
00000320
00000000
00000000
00010000
00002030
00000000
00000000
00100000
00023000
00000000
00000000
10000000
,  // measure 47
01030000
00000000
00000000
00010000
00100000
00000000
01000000
00000000
00010000
00000000
00001000
00000000
00000100
00000000
00000001
00000000
,  // measure 48
00001000
00000000
00000000
00000100
00000010
00000000
00000001
00000000
00001000
00000000
00000100
00000000
00010000
00000000
00001000
00000000
,  // measure 49
00100000
00000000
00000000
00010000
10000000
00000000
01000000
00000000
10000000
00000000
00010000
00000000
01000000
00000000
00100000
00000000
,  // measure 50
00010000
00000000
00000000
00001000
00000100
00000000
00000010
00000000
00001000
00000000
00000100
00000000
00010000
00000000
00001000
00000000
,  // measure 51
00000100
00000000
00000000
00000001
00000100
00000000
00000001
00000000
00000010
00000000
00000100
00000000
00001000
00000000
00000010
00000000
,  // measure 52
00010000
00000000
00000000
00001000
00100000
00000000
00010000
00000000
00100000
00000000
00001000
00000000
00000000
00010000
01000000
00000000
,  // measure 53
20000000
00000000
00000000
01000000
30020000
00000000
00000000
00001000
00230000
00000000
00000000
00010000
02300000
00000000
00000000
00100000
,  // measure 54
03020000
00000000
00000000
00001000
00030200
00000000
00000000
00010000
00000320
00000000
00000000
00000100
00000032
00000000
00000000
00000010
,  // measure 55
00001003
00000000
00000000
00000100
00001000
00000000
00000010
00000000
00000000
00000000
00000100
00000000
00001000
00000000
00010000
00000000
,  // measure 56
01000000
00000000
00000000
10000000
00010000
00000000
00100000
00000000
00000000
00000000
01000000
00000000
00100000
00000000
00001000
00000000
,  // measure 57
00010000
00000000
00000000
01000000
00100000
00000000
00010000
00000000
10000000
00000000
01000000
00000000
00100000
00000000
00010000
00000000
,  // measure 58
01000000
00000000
00000000
00001000
00010000
00000000
00000010
00000000
00000100
00000000
00001000
00000000
00000100
00000000
00000001
00000000
,  // measure 59
00000010
00000000
00000000
00001000
00000100
00000000
00010000
00000000
00000010
00000000
00000100
00000000
00001000
00000000
00010000
00000000
,  // measure 60
01000000
00000000
00000000
00100000
00010000
00000000
00100000
00000000
00000000
01000000
00010000
00000000
10000000
00000000
00100000
00000000
,  // measure 61
00020000
00000000
00000000
00100000
02030000
00000000
00000000
00010000
03002000
00000000
00000000
00000100
00003020
00000000
00000000
00001000
,  // measure 62
00000032
00000000
00000000
00010000
00000023
00000000
00000000
00001000
00000230
00000000
00000000
00010000
00002300
00000000
00000000
00100000
,  // measure 63
00013000
00000000
00000000
10000000
01000000
00000000
00100000
00000000
00000000
00000000
00001000
00000000
00010000
00000000
01000000
00000000
,  // measure 64
00100000
00000000
00000000
00010000
00001000
00000000
00000010
00000000
00000000
00000000
00000100
00000000
00000001
00000000
00001000
00000000
,  // measure 65
00000100
00000000
00000000
00010000
00001000
00000000
00100000
00000000
01000000
00000000
10000000
00000000
00010000
00000000
01000000
00000000
,  // measure 66
00001000
00000000
00000000
00010000
01000000
00000000
10000000
00000000
01000000
00000000
00100000
00000000
00001000
00000000
00010000
00000000
,  // measure 67
00000100
00000000
00000000
00001000
00000010
00000000
00000100
00000000
00000001
00000000
00001000
00000000
00000100
00000000
00010000
00000000
,  // measure 68
00000010
00000000
00000000
00010000
00001000
00000000
00100000
00000000
01000000
00000000
10000000
00000000
00000000
00010000
00100000
00000000
,  // measure 69
02000000
00000000
00000000
00010000
03002000
00000000
00000000
00000100
00003020
00000000
00000000
00001000
00000032
00000000
00000000
00001000
,  // measure 70
00000203
00000000
00000000
00010000
00200300
00000000
00000000
00010000
20300000
00000000
00000000
01000000
30200000
00000000
00000000
00001000
,  // measure 71
00310000
00000000
00000000
00000010
00000100
00000000
00000001
00000000
00000000
00000000
00001000
00000000
00000100
00000000
00010000
00000000
,  // measure 72
00001000
00000000
00000000
01000000
00100000
00000000
10000000
00000000
00000000
00000000
00010000
00000000
00001000
00000000
00000010
00000000
,  // measure 73
00001001
00000000
00000000
00000000
;

//---------------dance-double - ----------------
#NOTES:
     dance-double:
     :
     Medium:
     5:
     0.333,0.469,0.008,0.667,0.000:
00000000
00000000
00000000
00000000
,
00000000
00000000
00000000
00000000
,
00000000
00000000
00000000
00000000
,
00000000
00000000
00000000
00000000
,
00000000
00000000
00000000
00000000
,
00000000
00000000
00000000
00000000
,
00000000
00000000
00000000
00000000
,
00000000
00000000
00000000
00000000
,
20000000
00000000
00000000
00000000
,
30020000
00000000
00000000
00001000
,
00032000
00000000
00000000
00000000
,
00003200
00000000
00000000
00000000
,
00000320
00000032
00000203
00002300
,
00023000
02030000
23000000
30200000
,
00320000
00000000
00000000
02030000
00000000
00000000
03000000
00000000
,
00002000
00000000
00000000
00013000
00000000
00000000
00000000
00000000
,
01000000
10000000
00010000
01000000
,
00001000
00010000
01000000
00100000
,
00001000
00010000
00001000
00000010
,
00000001
00000100
00001000
00000010
,
00020000
00032000
00003200
00000302
,
00002003
00003020
00020030
00032000
,
00203000
00000000
00000000
02300000
00000000
00000000
03000000
00000000
,
20000000
00000000
00000000
32000000
00000000
00000000
03000000
00000000
,
00001000
00000100
00010000
00000010
,
00000100
00000001
00000010
00001000
,
00010000
00001000
00100000
01000000
,
00010000
10000000
01000000
00010000
,
00002000
00003200
00000302
00000203
,
00002300
00023000
00230000
20300000
,
30020000
00000000
00000000
00230000
00000000
00000000
00300000
00000000
,
00002000
00000000
00000000
00003020
00000000
00000000
00000030
00000000
,
00000100
00000100
01000000
01000000
,
00010000
00010000
10000000
10000000
,
00100000
00100000
00001000
00001000
,
00010000
00010000
00000100
00000100
,
00000010
00000001
00000001
00000001
,
00001000
00000100
00010000
00000100
,
00001000
01000000
01000000
01000000
,
00100000
00010000
10000000
00100000
,
00010000
00000000
00000000
00000010
,
00001000
00010000
00000100
00000001
,
00000100
00000010
00010000
00001000
,
00100000
00010000
10000000
01000000
,
00002000
00023000
00030200
00020300
,
00032000
02003000
23000000
32000000
,
03200000
00000000
00000000
00302000
00000000
00000000
00003000
00000000
,
00020000
00000000
00000000
00030200
00000000
00000000
00000300
00000000
,
00000010
00010000
00001000
00010000
,
00000100
00000010
00000001
00001000
,
00000100
00010000
00000010
00001000
,
00010000
00100000
01000000
10000000
,
00020000
00230000
02300000
03002000
,
00023000
00030200
00000302
00000023
,
00002030
00000000
00000000
00023000
00000000
00000000
00030000
00000000
,
02000000
00000000
00000000
03200000
00000000
00000000
00300000
00000000
,
00010000
01000000
10000000
01000000
,
00100000
10000000
00010000
00100000
,
00001000
00010000
00000010
00000100
,
00001000
00000001
00000100
00001000
,
00020000
00030200
00020300
00030020
,
00000230
00002300
00023000
00032000
,
00003200
00000000
00000000
00020300
00000000
00000000
00030000
00000000
,
00002000
00000000
00000000
00203000
00000000
00000000
00300000
00000000
,
00010000
00001000
00000100
00000010
,
00001000
00000001
00000010
00001000
,
00010000
00100000
01000000
00010000
,
10000000
01000000
00010000
00100000
,
00020000
20030000
32000000
03002000
,
00023000
00032000
00003200
00000320
,
00002030
00000000
00000000
00203000
00000000
00000000
00300000
00000000
,
20000000
00000000
00000000
32000000
00000000
00000000
03000000
00000000
,
00011000
00000000
00000000
00000000
;

//---------------dance-double - ----------------
#NOTES:
     dance-double:
     :
     Easy:
     1:
     0.087,0.138,0.008,0.000,0.000:
00000000
00000000
00000000
00000000
,
00000000
00000000
00000000
00000000
,
00000000
00000000
00000000
00000000
,
00000000
00000000
00000000
00000000
,
00000000
00000000
00000000
00000000
,
00000000
00000000
00000000
00000000
,
00000000
00000000
00000000
00000000
,
00000000
00000000
00000000
00000000
,
10000000
00000000
00000000
00000000
,
00010000
00000000
00000000
00000000
,
00000000
00000000
00000000
00000000
,
01000000
00000000
00000000
00000000
,
00100000
00000000
00001000
00000000
,
00010000
00000000
00000010
00000000
,
00000100
00000000
00000000
00000000
,
00000001
00000000
00000000
00000000
,
00001000
00000000
00000000
00000000
,
00010000
00000000
00000000
00000000
,
01000000
00000000
00000000
00000000
,
10000000
00000000
00000000
00000000
,
00100000
00000000
10000000
00000000
,
00010000
00000000
01000000
00000000
,
00001000
00000000
00000000
00000000
,
00000100
00000000
00000000
00000000
,
00000001
00000000
00000000
00000000
,
00001000
00000000
00000000
00000000
,
00000010
00000000
00000000
00000000
,
00010000
00000000
00000000
00000000
,
01000000
00000000
10000000
00000000
,
00010000
00000000
00100000
00000000
,
00001000
00000000
00000000
00000000
,
00000001
00000000
00000000
00000000
,
00000100
00000000
00000000
00000000
,
00010000
00000000
00000000
00000000
,
10000000
00000000
00000000
00000000
,
01000000
00000000
00100000
00000000
,
00001000
00000000
00000000
00000000
,
00000000
00000000
00000000
00000000
,
00010000
00000000
00000000
00000000
,
00000010
00000000
00000000
00000000
,
00000100
00000000
00000000
00000000
,
00010000
00000000
00000000
00000000
,
01000000
00000000
00000000
00000000
,
10000000
00000000
00000000
00000000
,
00100000
00000000
00010000
00000000
,
00001000
00000000
00000100
00000000
,
00000001
00000000
00000000
00000000
,
00000010
00000000
00000000
00000000
,
00010000
00000000
00000000
00000000
,
00001000
00000000
00000000
00000000
,
01000000
00000000
00000000
00000000
,
10000000
00000000
00000000
00000000
,
00010000
00000000
01000000
00000000
,
00001000
00000000
00100000
00000000
,
00010000
00000000
00000000
00000000
,
00000010
00000000
00000000
00000000
,
00001000
00000000
00000000
00000000
,
00000001
00000000
00000000
00000000
,
00000100
00000000
00000000
00000000
,
00010000
00000000
00000000
00000000
,
00001000
00000000
01000000
00000000
,
10000000
00000000
00100000
00000000
,
00010000
00000000
00000000
00000000
,
00001000
00000000
00000000
00000000
,
00000001
00000000
00000000
00000000
,
00000010
00000000
00000000
00000000
,
00010000
00000000
00000000
00000000
,
00001000
00000000
00000000
00000000
,
00100000
00000000
01000000
00000000
,
10000000
00000000
00010000
00000000
,
01000000
00000000
00000000
00000000
,
00000100
00000000
00000000
00000000
,
00001001
00000000
00000000
00000000
;

//---------------dance-single - ----------------
#NOTES:
     dance-single:
     :
     Beginner:
     1:
     0.067,0.083,0.000,0.000,0.000:
0000
0000
0000
0000
,
0000
0000
0000
0000
,
0000
0000
0000
0000
,
0000
0000
0000
0000
,
0000
0000
0000
0000
,
0000
0000
0000
0000
,
0000
0000
0000
0000
,
0000
0000
0000
0000
,
1000
0000
0000
0000
,
0001
0000
0000
0000
,
0100
0000
0000
0000
,
0010
0000
0000
0000
,
1000
0000
0000
0000
,
0001
0000
0000
0000
,
1000
0000
0000
0000
,
0001
0000
0000
0000
,
1000
0000
0000
0000
,
0100
0000
0000
0000
,
0100
0000
0000
0000
,
1000
0000
0000
0000
,
0001
0000
0000
0000
,
1000
0000
0000
0000
,
0010
0000
0000
0000
,
0001
0000
0000
0000
,
1000
0000
0000
0000
,
0100
0000
0000
0000
,
0100
0000
0000
0000
,
0001
0000
0000
0000
,
1000
0000
0000
0000
,
0001
0000
0000
0000
,
0010
0000
0000
0000
,
1000
0000
0000
0000
,
1000
0000
0000
0000
,
0010
0000
0000
0000
,
1000
0000
0000
0000
,
0010
0000
0000
0000
,
0001
0000
0000
0000
,
0000
0000
0000
0000
,
0000
0000
0000
0000
,
0000
0000
0000
0000
,
0000
0000
0000
0000
,
1000
0000
0000
0000
,
0100
0000
0000
0000
,
1000
0000
0000
0000
,
0100
0000
0000
0000
,
0010
0000
0000
0000
,
0001
0000
0000
0000
,
1000
0000
0000
0000
,
0001
0000
0000
0000
,
0001
0000
0000
0000
,
0100
0000
0000
0000
,
0001
0000
0000
0000
,
0100
0000
0000
0000
,
0010
0000
0000
0000
,
0001
0000
0000
0000
,
1000
0000
0000
0000
,
0001
0000
0000
0000
,
0100
0000
0000
0000
,
1000
0000
0000
0000
,
0001
0000
0000
0000
,
1000
0000
0000
0000
,
0001
0000
0000
0000
,
1000
0000
0000
0000
,
0001
0000
0000
0000
,
1000
0000
0000
0000
,
0100
0000
0000
0000
,
0001
0000
0000
0000
,
1000
0000
0000
0000
,
0001
0000
0000
0000
,
1000
0000
0000
0000
,
0001
0000
0000
0000
,
1000
0000
0000
0000
,
0001
0000
0000
0000
;
