#TITLE:四千年;
#SUBTITLE:(PSG MIX);
#ARTIST:s i o;
#TITLETRANSLIT:4000years;
#SUBTITLETRANSLIT:;
#ARTISTTRANSLIT:;
#CREDIT:;
#BANNER:4000year.png;
#BACKGROUND:4000year-bg.png;
#LYRICSPATH:;
#CDTITLE:cdtitle.png;
#MUSIC:4000year.mp3;
#OFFSET:-2.290;
#SAMPLESTART:74.880;
#SAMPLELENGTH:12.000;
#SELECTABLE:YES;
#BPMS:0.000=105.000;
#STOPS:;
#BGCHANGES:;

//---------------dance-single - BASIC----------------
#NOTES:
     dance-single:
     BASIC:
     Easy:
     1:
     0.051,0.081,0.008,0.000,0.000: // measure 1
0000
0000
0000
0000
,  // measure 2
0000
0000
0000
0000
,  // measure 3
0000
0000
0000
0000
,  // measure 4
0000
0000
0000
0000
,  // measure 5
0000
0000
0000
0000
,  // measure 6
0000
0000
0000
0000
,  // measure 7
0000
0000
0000
0000
,  // measure 8
0000
0000
0000
0000
,  // measure 9
1000
0000
0000
0000
,  // measure 10
0001
0000
0000
0000
,  // measure 11
1000
0000
0000
0000
,  // measure 12
0001
0000
0000
0000
,  // measure 13
0001
0000
0000
0000
,  // measure 14
1000
0000
0000
0000
,  // measure 15
0001
0000
0000
0000
,  // measure 16
1000
0000
0000
0000
,  // measure 17
1000
0000
0000
0000
,  // measure 18
0100
0000
0000
0000
,  // measure 19
0010
0000
0000
0000
,  // measure 20
0001
0000
0000
0000
,  // measure 21
0001
0000
0000
0000
,  // measure 22
0100
0000
0000
0000
,  // measure 23
0010
0000
0000
0000
,  // measure 24
1000
0000
0000
0000
,  // measure 25
0010
0000
0000
0000
,  // measure 26
0100
0000
0000
0000
,  // measure 27
0010
0000
0000
0000
,  // measure 28
0010
0000
0000
0000
,  // measure 29
0100
0000
0000
0000
,  // measure 30
0010
0000
0000
0000
,  // measure 31
0010
0000
0000
0000
,  // measure 32
0010
0000
0000
0000
,  // measure 33
1000
0000
0000
0000
,  // measure 34
0001
0000
0000
0000
,  // measure 35
0001
0000
0000
0000
,  // measure 36
1000
0000
0000
0000
,  // measure 37
0010
0000
0000
0000
,  // measure 38
0100
0000
0000
0000
,  // measure 39
0100
0000
0000
0000
,  // measure 40
0010
0000
0000
0000
,  // measure 41
1000
0000
0000
0000
,  // measure 42
0100
0000
0000
0000
,  // measure 43
0010
0000
0000
0000
,  // measure 44
0001
0000
0000
0000
,  // measure 45
0010
0000
0000
0000
,  // measure 46
0100
0000
0000
0000
,  // measure 47
1000
0000
0000
0000
,  // measure 48
0001
0000
0000
0000
,  // measure 49
1001
0000
0000
0000
;

//---------------dance-single - TRICK----------------
#NOTES:
     dance-single:
     TRICK:
     Medium:
     3:
     0.121,0.183,0.051,0.051,0.000:
0000
0000
0000
0000
,
0000
0000
0000
0000
,
0000
0000
0000
0000
,
0000
0000
0000
0000
,
0000
0000
0000
0000
,
0000
0000
0000
0000
,
0000
0000
0000
0000
,
0000
0000
0000
0100
,
1001
0000
0010
0100
,
0001
0000
0010
0000
,
1000
0000
0001
0000
,
1001
0000
0100
0000
,
0001
0000
0010
0100
,
0010
0000
1000
0000
,
1001
0000
0010
0100
,
1000
0000
0100
0000
,
1001
0000
0000
0010
,
0100
0000
0000
0001
,
1000
0000
0100
0000
,
0010
0000
1000
0000
,
0001
0000
0001
0010
,
0100
0000
1000
0000
,
0010
0000
0100
0100
,
0010
0000
0010
0000
,
0002
0000
0003
0000
,
0200
0000
0300
0000
,
0020
0000
0030
0000
,
0010
0000
1000
0000
,
2000
0000
3000
0000
,
0200
0000
0300
0000
,
0020
0000
0030
0000
,
0001
0000
0100
0000
,
1000
0001
0100
0010
,
0001
1000
0010
0100
,
1000
0000
0001
0000
,
0100
0000
0100
0000
,
0010
0001
1000
0000
,
0100
0010
0001
0000
,
0100
0000
0010
0000
,
1000
0001
1000
0000
,
1001
0000
0100
0000
,
0010
0000
0001
0000
,
0010
0000
0100
0000
,
1000
0000
0010
0000
,
0100
0000
0001
0000
,
0010
0000
0100
0000
,
1000
0000
0100
0000
,
0010
0000
0001
0000
,
1001
0000
0000
0000
;

//---------------dance-single - HEAVY----------------
#NOTES:
     dance-single:
     HEAVY:
     Hard:
     6:
     0.334,0.386,0.034,0.161,0.000:
0000
0000
0000
0000
,
0000
0000
0000
0000
,
0000
0000
0000
0000
,
0000
0000
0000
0000
,
0000
0000
0000
0000
,
0000
0000
0000
0000
,
0000
0000
0000
0000
,
0000
0000
0000
0000
0000
0000
0100
0100
,
0020
0000
0000
0000
0000
0130
0100
0010
,
2000
0000
3100
0100
0002
0000
0000
0000
,
2003
0000
0000
3100
0010
0100
1000
0100
,
0002
0000
0013
0100
2000
0000
3001
0001
,
0002
0000
0000
0103
0010
0100
1000
0010
,
0002
0000
0100
0100
0203
0000
0301
0100
,
2000
0000
3001
0100
1000
0100
0001
0010
,
2000
0000
3010
0001
0200
0000
1300
0000
,
1001
0000
0000
0000
0000
0000
0001
0010
,
0100
0000
0000
0000
0000
0100
0100
0010
,
1000
0000
0000
0000
0010
0000
0010
0100
,
0001
0010
0100
1000
,
0001
0000
0000
0000
1000
1000
0100
0001
,
0010
0000
0100
0000
1000
0000
0001
0010
,
1000
0000
0000
0100
0010
0000
0001
0000
,
1000
0010
1000
0100
0010
0001
0010
0100
,
1002
0000
0010
1000
0010
0000
0100
1000
,
0100
0010
0100
1000
1000
0000
1000
0100
,
2003
0000
0010
0001
0010
0000
0100
0010
,
0001
0100
0010
0100
0001
0000
0100
0001
,
3002
0000
0100
0100
1000
0000
0100
1000
,
0010
1000
1000
0100
0010
0000
1000
1000
,
2003
0000
0010
0001
0010
0000
0100
0010
,
0001
0010
0100
0001
0001
0000
0001
0001
,
3001
0000
0001
0100
1001
0000
0010
1000
,
0010
0001
0200
0001
0320
1000
0032
0100
,
1003
0000
1000
0100
0001
0000
0010
0010
,
0100
1000
0100
0001
0001
0000
0010
0100
,
1000
0000
1000
0100
0010
0000
0001
0010
,
0100
1000
0100
0010
0001
0000
0010
0100
,
0001
0000
0001
0100
0010
0000
1000
0010
,
0100
0001
0100
0010
1000
0000
0100
0100
,
1000
0100
0010
1000
0100
0010
0001
0010
,
1000
0100
0010
1000
0100
0010
0001
0010
,
1000
0100
0010
1000
0100
0010
0001
0010
,
1000
0100
0010
1000
0100
0010
0001
0010
,
1000
0010
0100
1000
0010
0100
0001
0100
,
1000
0010
0100
1000
0010
0100
0001
0100
,
1000
0010
0100
1000
0010
0100
0001
0100
,
1000
0010
0100
1000
0010
0100
0001
0100
,
1001
0000
0000
0000
;

//---------------dance-single - ONI----------------
#NOTES:
     dance-single:
     ONI:
     Challenge:
     8:
     0.484,0.528,0.584,0.000,0.144:
0000
0000
0000
0000
,
0000
0000
0000
0000
,
0000
0000
0000
0000
,
0000
0000
0000
0000
,
0001
0000
0000
0000
0000
1000
1000
0100
,
0010
0000
0000
0001
0000
0000
0000
0100
,
1000
0000
0000
0000
0000
0000
0100
0000
0000
0000
0000
0000
0000
0000
0001
0100
,
0010
0000
0000
0000
0000
0000
1000
0100
0010
0000
0001
0010
0100
1000
0010
0000
,
1001
0000
0010
0100
1000
0000
0100
0000
1001
0000
0100
0000
0100
0000
0010
0000
,
1001
0000
0001
1000
0100
0000
0100
0000
0011
0000
0001
0000
0010
0000
0001
0000
,
1010
0000
1000
0010
0100
0000
1000
0000
0100
0000
0001
0000
1000
0000
0100
0000
,
1001
0000
0100
0000
0110
0000
0010
0000
1001
0000
0010
0100
0010
0000
0010
0000
,
1001
0000
0010
1000
0001
0000
0100
0000
1010
0000
0100
0000
1010
0000
0001
0000
,
1001
0000
0001
1000
0100
0000
0011
0000
1100
0000
0100
0000
0001
0000
0100
0000
,
1010
0000
0010
1000
0001
0000
0100
0000
1010
0000
0100
0000
0011
0000
0110
0000
,
1100
0000
1000
0010
0001
0000
0001
0000
0100
0000
1000
0000
0010
0000
0100
0000
,
1001
0000
0001
0100
0000
0010
0000
1000
0100
0000
0010
0000
0001
0000
0010
0000
,
0100
0000
1000
0100
0000
0010
0000
0001
0000
0000
0001
0000
1000
0000
0010
0000
,
1000
0000
0001
0100
0000
0010
0000
1000
0010
0000
0010
0000
1000
0000
0110
0000
,
0001
0000
0010
0100
0000
0100
0000
1000
0010
0000
1000
0000
0010
0000
0100
0000
,
0001
0000
1000
0010
0000
0100
0000
0010
1000
0000
1000
0000
0100
0000
0010
0000
,
0001
0000
1000
0010
0000
0100
0000
0001
0000
0000
0100
0000
0010
0000
1000
0000
,
0001
0000
0010
0100
0000
0010
0000
0001
0000
0000
0010
0000
0100
0000
1001
0000
,
1010
0110
0101
0110
1010
1000
0100
0001
,
1001
0000
1000
1000
0010
0000
0001
0010
,
1001
0100
0001
0010
1001
0000
0100
0100
,
0010
0000
0001
0010
1000
0000
0100
0010
,
1001
0100
0010
0010
1001
0000
0100
0010
,
0001
0000
0100
0010
1000
0000
1100
1000
,
0110
1000
1100
0010
1001
0000
1000
0001
,
1000
0000
0001
1000
0001
0000
1001
0100
,
1001
0010
1001
0100
1001
0000
0100
0010
,
1001
0000
0001
0100
1001
0000
1000
0010
,
0101
0010
1100
0100
0101
1010
0001
0110
,
1001
0000
1000
0100
1001
0000
0010
1000
,
0100
0010
0001
0100
1001
0000
1000
0100
,
0010
0000
1000
0100
0010
0000
1000
0100
,
0010
0100
0010
0001
1001
0000
0001
0010
,
0100
0000
0001
0010
0100
0000
0001
0010
,
0100
0000
0010
0000
0100
0000
1000
0000
1001
0000
0000
0000
0100
0010
0100
0000
,
1000
0100
1001
1000
0100
1001
0001
0010
,
1000
0100
1001
1000
0100
1001
0001
0010
,
1000
0100
1001
1000
0100
1001
0001
0010
,
1000
0100
1001
1000
0100
1001
0001
0010
,
1000
0010
1001
1000
0010
1001
0001
0100
,
1000
0010
1001
1000
0010
1001
0001
0100
,
1000
0010
1001
1000
0010
1001
0001
0100
,
1000
0010
1001
1000
0010
1001
0001
0100
,
1001
0000
0000
0000
;
