#TITLE:2007 November;
#SUBTITLE:;
#ARTIST:Yamajet;
#TITLETRANSLIT:;
#SUBTITLETRANSLIT:;
#ARTISTTRANSLIT:;
#CREDIT:;
#BANNER:2007 November.png;
#BACKGROUND:2007 November-bg.png;
#LYRICSPATH:;
#CDTITLE:cdtitle.png;
#MUSIC:2007 November.mp3;
#OFFSET:-0.940;
#SAMPLESTART:70.080;
#SAMPLELENGTH:12.000;
#SELECTABLE:YES;
#BPMS:0.000=125.000;
#STOPS:;
#BGCHANGES:;

//---------------dance-single - BASIC----------------
#NOTES:
     dance-single:
     BASIC:
     Easy:
     2:
     0.151,0.201,0.017,0.008,0.000:
0000
0000
0000
0000
,
0000
0000
0000
0000
,
0000
0000
0000
0000
,
0000
0000
0000
0000
,
1000
0000
0000
0000
,
1000
0000
0000
0000
,
1000
0000
0000
0000
,
1000
0000
0000
0000
,
0001
0000
0100
0000
,
1000
0001
1000
0000
,
1000
0000
0010
0000
,
0001
1000
0001
0000
,
1000
0010
0100
0000
,
0001
0010
0100
0000
,
1000
0100
0001
0000
,
0001
0100
1000
0000
,
1000
0001
0100
0000
,
0001
1000
0100
0000
,
0001
0100
0010
0000
,
1000
0100
0010
0000
,
0001
0000
0010
0000
,
1000
0000
0010
0000
,
0001
0000
0100
0000
,
1000
0000
0100
0000
,
0001
0000
1000
0000
,
0010
0000
0100
0000
,
0001
0000
0000
0000
,
0001
0000
0000
0000
,
1000
0000
0000
0100
,
0100
0000
0010
0000
,
0010
0000
0001
1000
,
0100
0000
0010
0000
,
0000
0100
0000
0010
,
0010
0000
1000
0000
,
0001
0000
0100
0000
,
0010
0010
0010
0010
,
1000
0000
0010
0000
,
1000
0000
0100
0000
,
1000
0010
1000
0100
,
1000
0010
1000
0000
,
0001
0000
0010
0000
,
0001
0000
0100
0000
,
0001
0010
0001
0100
,
0001
0010
0001
0000
,
1000
0000
0100
0000
,
0001
0100
1000
0000
,
0001
0000
0010
0000
,
1000
0010
0001
0100
,
1000
0000
0010
0100
,
1000
0000
0001
0000
,
0100
0010
0100
0000
,
1000
0100
0001
0000
,
1001
0000
0000
0000
,
0010
0000
0000
0000
,
0100
0000
0000
0000
,
0100
0000
0000
0000
,
1001
0000
0000
0000
,
0010
0000
0000
0000
,
1000
0000
0000
0000
,
0200
0000
0000
0300
;

//---------------dance-single - TRICK----------------
#NOTES:
     dance-single:
     TRICK:
     Medium:
     5:
     0.284,0.352,0.084,0.050,0.004:
0000
0000
0000
0000
,
0000
0000
0000
0000
,
0000
0000
0000
0000
,
0000
0000
0000
0000
,
1000
0000
1000
1000
,
1000
0000
1000
1000
,
1000
0000
1000
1000
,
1000
0000
0010
0100
,
1001
0000
0100
0000
0010
0001
0000
0001
,
1000
0100
0100
0010
,
0001
0000
0010
0100
1000
0000
0001
0000
,
0100
0000
0010
0000
0000
0010
0000
0000
1001
0000
0000
0000
0000
0000
0000
0000
,
1000
0010
0100
0000
0100
0000
0000
0000
,
0001
0010
0100
0000
0100
0000
0000
0000
,
1000
0100
0001
0000
0001
0000
0000
0000
,
0001
0100
1000
0000
1000
0100
0001
0000
,
0001
0010
0100
0000
0100
0000
0000
0000
,
1000
0010
0100
0000
0100
0000
0000
0000
,
1000
0100
0001
0000
0001
0100
1000
0000
,
1000
0010
0100
0000
0100
0000
0000
0000
,
0001
0010
0010
0100
,
1000
0100
1000
0000
,
0001
1000
0100
0000
,
1000
0000
0001
0000
,
0010
0100
0001
1000
,
0100
0000
0100
0010
,
0001
0000
0010
0000
,
0100
1000
0010
0000
,
1000
0000
1000
1000
0000
0000
0100
0000
,
0100
0000
0000
0010
0010
0000
0010
0000
,
0010
0001
0000
0000
0001
0000
0001
0000
,
0100
0000
0000
0010
0010
0000
0100
0000
,
1000
0000
0001
0000
0000
0001
0001
0000
,
0100
0000
0100
0000
0000
0010
0010
0000
,
1000
0000
1000
0001
0100
0000
1001
0000
,
0010
0010
0010
0010
,
1000
0001
0100
0000
0020
0000
0031
0000
,
1000
0010
0100
0000
0100
0000
1001
0000
,
0001
1000
0200
0000
0310
0000
0100
0000
,
1000
0100
0002
0000
0010
0000
1003
0000
,
0001
0010
0100
0000
0100
0000
0100
0000
,
1000
0001
0100
0000
0020
0000
1030
0000
,
1000
0100
0001
0000
0011
0000
1000
0000
,
1000
0010
0200
0000
0001
0000
1300
0000
,
1001
1000
0100
0010
,
0001
0100
1000
0100
,
0001
0000
0010
0100
0010
0000
0001
0000
,
1000
0100
0001
0100
1000
0000
1000
0000
,
0001
0100
0000
0100
0010
0000
0100
0000
,
1000
0010
0000
0010
0100
0000
0100
0000
,
0100
0000
1000
0100
0000
0001
0010
0000
,
1000
0000
1000
0000
0001
0010
1000
0000
,
1001
0000
0000
0100
0000
0000
0000
0000
,
0010
0010
0000
0000
0010
0000
0010
0000
,
1000
0000
0000
1000
0000
0000
0100
0000
,
1010
0000
0100
0000
,
1001
0000
0000
0010
0000
0000
0000
0000
,
0100
0000
0000
0000
,
1001
0000
0000
0010
0000
0000
0100
0000
,
0200
0000
0000
0300
;

//---------------dance-single - HEAVY----------------
#NOTES:
     dance-single:
     HEAVY:
     Hard:
     6:
     0.391,0.402,0.320,0.042,0.097:
0000
0000
0000
0000
,
0000
0000
0000
0000
,
0000
0000
0000
0000
,
0000
0000
0000
0000
,
1001
0000
0000
0100
1000
0100
0001
0000
,
1001
0000
0000
0100
1000
0100
0001
0000
,
1001
0000
0000
0100
0001
0100
1000
0000
,
1001
0110
1001
0110
,
1001
0000
0000
0000
0100
0000
0000
0000
0010
0001
0000
0010
0000
0000
1000
0000
,
0001
0000
1000
0000
0000
0010
0000
0000
0001
0000
0000
0100
0000
0000
0001
0000
,
1000
0000
0100
0000
0000
0010
0000
0000
0100
0000
0000
0010
0001
0000
0100
0000
,
0000
0000
0010
0000
0000
0010
0000
0000
1001
0000
0000
0000
0000
0000
0000
0000
,
1000
0010
0000
0000
0100
0000
1000
0000
0100
0000
0000
0000
0001
0000
0000
0000
,
0001
0010
0000
0000
0100
0000
0001
0000
0100
0000
0000
0000
1000
0000
0000
0000
,
1000
0001
0000
0000
0010
0000
1000
0000
0001
0000
0000
0000
0001
0000
0000
0000
,
0001
1000
0000
0000
0010
0000
0001
0000
1000
0000
0000
0000
1000
0000
0000
0000
,
0001
0010
0000
0000
0100
0000
0010
0000
0100
0000
0000
0000
0001
0000
0000
0000
,
1000
0010
0000
0000
0100
0000
0010
0000
0100
0000
0000
0000
1000
0000
0000
0000
,
1000
0010
0000
0000
0100
0000
1000
0000
0001
0000
0000
0000
1000
0000
0000
0000
,
0001
0010
0000
0000
0100
0000
0000
0000
0100
0000
0010
0000
0001
0000
0100
0000
,
1000
0000
1010
0000
1000
0100
0001
0000
,
0020
0100
1030
0001
,
0200
0000
0300
0000
0100
0000
0100
0010
,
0001
0010
1001
0100
,
1100
0000
0100
0010
0002
0000
1003
0100
,
0020
1000
0031
0011
,
0001
0010
0100
0000
2000
0000
0000
0000
,
3100
0001
0000
0010
0000
0000
0010
0000
,
1001
0000
0001
0001
0000
0001
0100
0000
,
0100
0100
0100
0000
0010
0000
0010
0000
,
0010
0100
0000
0100
1000
0000
1000
0000
,
0001
0000
0010
0010
0000
0010
0100
0000
,
0100
0000
1001
0000
0000
1000
1000
0000
,
0100
0000
0100
0010
0000
0010
0010
0000
,
1001
0100
1001
0100
,
0010
0010
0110
1001
,
1000
0000
0001
0000
0100
0000
0000
0001
0100
0000
0000
0000
1100
0000
0000
0000
,
1000
0010
0100
0010
0100
0000
1001
0000
,
0001
0010
0000
0000
0100
0000
1000
0000
0001
0000
0000
0000
0100
0000
0000
0000
,
1001
0100
0001
0010
0100
0000
1100
0000
,
1000
0010
0100
0000
0101
0000
1010
0000
,
1000
0010
0000
0000
0100
0000
1000
0000
0100
0000
0001
0000
1000
0000
0000
0000
,
1000
0100
0001
0000
0001
0000
0010
0000
,
1000
0010
0100
1000
0001
0000
0100
0000
,
1001
0000
1000
0100
0010
0000
0010
0000
,
1001
0011
1000
0101
,
0001
0000
0000
0010
0000
0000
1000
0000
1000
0000
0000
0000
0110
0000
0000
0000
,
1000
0001
0010
0100
0001
0000
1100
0000
,
0001
0000
0000
0010
0000
0000
1001
0000
0000
0000
0100
0000
0100
0000
0000
0000
,
1000
0000
0000
0010
0000
0000
1001
0000
0000
0000
0100
0000
0100
0000
0000
0000
,
0100
0000
0000
1010
0000
0000
0101
0000
0000
0000
0001
0000
0010
0000
0000
0000
,
1000
0000
0000
0100
0000
0000
0001
0000
0010
0000
0000
0000
0100
0000
0000
0000
,
1001
0000
1000
0100
0000
0000
0010
0100
,
0010
0000
0001
0100
0000
0000
0010
0100
,
1000
0000
0001
0010
0000
0000
0100
0010
,
1000
0000
0100
0001
0000
0000
0010
0000
,
1001
0000
0000
0010
0000
0000
1000
0010
,
0100
0000
0000
0100
0000
0000
0100
0000
,
1001
0000
0000
0010
0000
0000
0001
0010
,
0100
0000
0000
0100
0000
0000
0100
0000
;

//---------------dance-single - ONI----------------
#NOTES:
     dance-single:
     ONI:
     Challenge:
     9:
     0.580,0.655,0.404,0.025,0.509:
0000
0000
0000
0000
,
0000
0000
0000
0000
,
0000
0000
0000
0000
,
0000
0000
0000
0000
,
1001
0000
0000
0000
0000
0001
0010
0000
1000
0100
0010
0000
0001
0000
0100
0000
,
1001
0000
0000
0000
0001
0010
0100
1000
0100
0000
0010
0001
0010
0000
0100
0000
,
1001
0000
0000
0000
1000
0010
0100
0000
0001
0010
0100
0000
1000
0100
0010
0001
,
1001
0000
0000
1000
0100
0000
0000
0001
0010
0000
0000
0000
1001
0000
0110
0000
,
1001
0000
0000
0000
0110
0000
0000
0000
0010
0001
0000
0010
0000
0100
1000
0000
,
0010
0000
1000
0000
0100
0010
0000
0010
0001
0000
0010
0100
0010
0000
0001
0000
,
1000
0000
0100
0000
0010
0001
0000
0001
0100
0000
0100
0010
0001
0000
0100
0000
,
0000
0100
0010
0000
0010
0100
0000
0000
2002
0000
0000
0000
3003
0000
0000
0000
,
1000
0010
0000
0100
0000
1000
0010
0100
0010
0000
0100
0000
0001
0000
0000
0000
,
0001
0010
0000
0100
0000
0001
0010
0100
0010
0000
0100
0000
1000
0000
0000
0000
,
1000
0010
0000
0100
0000
1000
0100
0001
0010
0000
0100
0000
1000
0000
0000
0000
,
0001
0010
0000
0100
0000
0001
0100
1000
0010
0000
0100
0000
0001
0000
0000
0000
,
0001
0010
0000
0100
0000
0001
0010
0100
0010
0000
0100
0000
1000
0000
0000
0000
,
1000
0010
0000
0100
0000
1000
0010
0100
0010
0000
0100
0000
0001
0000
0000
0000
,
1000
0010
0000
0100
0000
1000
0100
0010
0001
0000
0010
0000
1000
0000
0000
0000
,
0001
0010
0000
0100
0000
0001
0100
0010
1000
0000
0010
0000
0001
0000
0110
0000
,
1001
0000
0000
1000
0010
0000
0100
0000
1000
0000
0000
0010
0001
0000
0100
0000
,
0010
0000
0000
1000
0100
0000
0001
0000
0010
0000
0000
0100
1000
0000
0100
0000
,
0001
0000
0000
1000
0010
0000
0100
0000
0001
0000
0000
0001
0010
0000
0100
0000
,
1000
0000
0000
0100
0001
0000
1000
0000
0010
0000
0000
0100
1000
0000
0001
0000
,
0010
0000
1100
0000
1001
0000
0010
0001
0000
0010
0100
1000
0100
0001
0010
0100
,
1000
0000
0000
1000
0100
0010
0001
0100
0000
0100
0000
1100
0000
0001
0000
0110
,
0000
1000
0010
0000
0100
0000
1000
0000
2000
0000
0000
0000
0000
0000
0000
0000
,
3100
0001
0000
0010
0000
0000
0010
0100
,
1001
0000
0000
1000
0100
0000
1001
0000
0000
0000
0010
0000
0010
0000
0100
0000
,
1001
0000
0000
0001
0100
0000
1000
0000
0100
0000
0001
0000
0000
0010
0100
0000
,
0100
0000
1001
0000
0000
0000
0000
1000
0010
0000
0100
0000
1000
0000
0000
0100
,
0001
0000
0010
0000
0100
0000
0000
0000
0100
0000
0100
0000
0100
0000
0000
0010
,
0100
0000
0100
0000
1001
0000
0000
1000
0010
0000
1000
0000
0100
0000
0000
0001
,
0010
0001
0100
0000
0100
0100
1000
0010
,
1001
0000
0000
0001
0100
0000
0000
1000
0010
0000
0000
0000
0110
0000
0000
0010
,
1000
0000
0000
0010
0001
0000
0000
0000
0110
0000
0000
0000
1001
0000
0000
0000
,
1000
0010
0000
0000
0100
0000
0000
0001
0100
0000
1000
0000
1100
0000
0000
0000
,
1000
0010
0000
0100
0000
0010
1000
0000
0100
0000
0001
0000
1001
0000
0000
0000
,
0001
0010
0000
0100
0000
1000
0010
0100
1000
0000
0100
0000
0001
0000
0000
0000
,
1001
0100
1010
0001
1100
0010
1001
0100
,
0001
0010
0000
0000
0100
0000
0000
0100
0001
0000
0100
0000
1001
0000
0000
0000
,
1000
0010
0000
0100
0000
1000
0100
0000
0001
0000
0000
0000
1001
0000
0000
0000
,
0001
0010
0000
0100
0000
0001
1000
0100
0010
0000
1000
0000
1001
0000
0000
0000
,
1000
0010
0000
0100
0000
0001
0010
0100
1000
0000
0010
0000
1001
0000
0000
0000
,
1001
0000
0000
0010
1000
0000
0100
0000
0010
0000
0010
0000
0001
0000
0000
0010
,
0001
0000
0000
0010
0001
0000
0000
0000
1000
0100
1000
0000
0101
0000
0100
0000
,
0011
0000
0000
0010
1000
0000
0100
0000
1000
0000
0100
0000
0010
0000
0001
0000
,
1010
0000
0100
0000
0011
0000
0100
0000
1010
0000
0000
0010
0100
0000
0100
0000
,
0001
0000
1000
0010
0000
0000
1001
0000
0010
0000
0010
0000
0100
0000
0000
0000
,
1000
0000
0010
0100
0000
0000
1001
0000
0010
0000
0010
0000
0100
0000
0000
0000
,
0100
0000
1000
0010
0000
0100
0001
0000
0010
0000
0100
0000
1000
0000
0000
0000
,
1000
0000
0001
0100
0000
0010
1000
0000
0100
0000
0001
0000
0100
0000
1000
0000
,
1001
0000
1000
0100
0000
0000
0010
0100
,
0010
0010
1000
0100
0000
0000
0010
0100
,
1001
0000
0001
0100
0000
0000
1000
0010
,
1001
0100
0100
1001
0000
0000
0010
0100
,
1001
0000
0010
0100
0000
0000
1000
0010
,
0100
0001
0100
1000
0000
0000
0100
0100
,
1001
0000
0010
0100
0000
0000
0001
0010
,
0100
1000
0100
0001
0000
0000
0100
0100
;

//---------------dance-double - ----------------
#NOTES:
     dance-double:
     :
     Challenge:
     9:
     0.603,0.553,0.286,0.143,0.652: // measure 1
00000000
00000000
00000000
00000000
,  // measure 2
00000000
00000000
00000000
00000000
,  // measure 3
00000000
00000000
00000000
00000000
,  // measure 4
00000000
00000000
00000000
00000000
,  // measure 5
00110000
00000000
00000000
00000000
10000000
00000000
01000000
00010000
00000000
00010000
00001000
00000000
00000100
00000000
00000010
00000000
,  // measure 6
00001001
00000000
00000000
00000000
00000000
00000010
00000100
00000001
00000000
00001000
00000010
00000000
00000100
00000000
00001000
00000000
,  // measure 7
00011000
00000000
00000000
00000000
00100000
00001000
00000000
00010000
00000000
01000000
10000000
00000000
00010000
00000000
00100000
00000000
,  // measure 8
01100000
00000000
00011000
00000000
00000110
00000001
00001100
00000010
,  // measure 9
00000101
00000000
00000000
00000000
00001010
00000000
00000000
00000000
00010000
00001000
00000000
00100000
00000000
00010000
10000000
00000000
,  // measure 10
01000000
00000000
00010000
00000000
00001000
00000100
00000000
00000100
00000001
00000000
00000001
00000010
00000000
00000010
00000100
00000000
,  // measure 11
00001000
00000000
00000010
00000000
00000100
00001000
00000000
00001000
00010000
00000000
00010000
01000000
00000000
10000000
01000000
00000000
,  // measure 12
00100000
00000000
01100000
00000000
00010000
00100000
00000000
00001000
00000000
00010000
00000000
00000100
00000010
00000000
00000001
00000000
,  // measure 13
00001000
00000100
00000000
00000001
00000000
00000100
00000010
00010000
00000000
00001000
00100000
00000000
00001000
00000000
01000000
00000000
,  // measure 14
10000000
01000000
00000000
00100000
00000000
00001000
00010000
00000010
00000000
00000100
00000001
00000000
00001000
00000000
00000100
00000000
,  // measure 15
00000001
00000010
00000000
00010000
00000000
00001000
00000100
00000001
00000000
00001000
00000100
00000000
00010000
00000000
00001000
00000000
,  // measure 16
00100000
00010000
00000000
10000000
00000000
01000000
00010000
00001000
00000000
00010000
01000000
00000000
00100000
00000000
00010000
00000000
,  // measure 17
10000000
01000000
00000000
00001000
00000000
00010000
00000100
00001000
00000000
00000010
00000100
00000000
00000001
00000000
00000010
00000000
,  // measure 18
00000100
00001000
00000000
00000010
00000000
00010000
00001000
00100000
00000000
00010000
10000000
00000000
01000000
00000000
00010000
00000000
,  // measure 19
00001000
00100000
00000000
01000000
00000000
00010000
00001000
00000100
00000000
00000001
00001000
00000000
00000100
00000000
00000010
00000000
,  // measure 20
00000001
00000100
00000000
00000010
00000000
00010000
00001000
00100000
00000000
00010000
10000000
00000000
01000000
00000000
00010000
00000000
,  // measure 21
00001000
00000000
00000100
00000000
00000001
00000000
00001000
00000000
00000100
00000000
00000010
00000001
00000100
00000000
00000010
00000000
,  // measure 22
00010000
00000000
00001000
00000000
00100000
00000000
01000000
00000000
10000000
00000000
00010000
00000000
01000000
00000000
10000000
01000000
,  // measure 23
00100000
00010000
00001000
00000100
00000001
00001000
00000100
00000010
,  // measure 24
00000001
00000100
00000010
00000000
00010000
00001000
00100000
00000000
00010000
00000000
10000000
00000000
01000000
00000000
00010000
00000000
,  // measure 25
00001000
00100000
01000000
00000000
00010000
00000000
00001000
00000000
00000100
00000000
00000001
00001000
00000100
00000000
00000010
00000000
,  // measure 26
00000001
00000000
00000100
00000000
00000010
00010000
00001000
00000000
00100000
00000000
00001000
00000000
00010000
00000000
01000000
10000000
,  // measure 27
01000000
00000000
00100000
00000000
00001000
00000000
00010000
00000000
00000010
00001000
00000010
00000000
00000100
00000000
00000001
00000000
,  // measure 28
00000010
00000000
00000001
00001000
00000100
00000000
00010000
00000000
00001000
00000000
00100000
00000000
00010000
10000000
00010000
00000000
,  // measure 29
11000000
00000000
00000000
00010000
00000000
00000000
01000000
00000000
00000000
00001000
00000000
00000000
00001100
00000000
00000000
00000000
,  // measure 30
00000011
00000000
00000000
00000100
00000000
00000000
00000010
00000000
00000000
00010000
00000000
00000000
00101000
00000000
00000000
00000000
,  // measure 31
01001000
00000000
00000000
10000000
00000000
00000000
00100000
00000000
00000000
01000000
00000000
00000000
00110000
00000000
00000000
00000000
,  // measure 32
01001000
00000000
00000000
00010000
00000000
00000000
00000010
00000000
00000000
00001000
00000000
00000000
00000011
00000000
00000000
00000000
,  // measure 33
00000100
00000010
00001001
00000100
00000000
00000010
00010000
00001000
,  // measure 34
00000010
00001000
00010100
00001000
00000000
00100000
01000000
10000000
,  // measure 35
01100000
00010000
01000000
00001000
00010100
00001000
00000010
00000001
,  // measure 36
00001100
00010010
00101000
01010000
,  // measure 37
01000000
00100000
00000000
10000000
00000000
01000000
00010000
00001000
00000000
00000100
00010000
00000000
00001000
00000000
00000001
00000000
,  // measure 38
00000010
00000100
00000000
00001000
00000000
00000001
00000100
00000010
00000000
00010000
00001000
00000000
00100000
00000000
00010000
00000000
,  // measure 39
10000000
01000000
00000000
00100000
00000000
00010000
01000000
00001000
00000000
00010000
00000010
00000000
00001000
00000000
00000100
00000000
,  // measure 40
00000010
00000001
00000000
00000100
00000000
00000010
00001000
00000100
00000000
00010000
00001000
00000000
00100000
00000000
00010000
00000000
,  // measure 41
10000000
01000000
00000000
00100000
00000000
00010000
01000000
00001000
00000000
00010000
00000010
00000000
00010000
00000000
00001000
00000000
,  // measure 42
00000100
00000001
00000000
00001000
00000000
00000100
00000010
00000001
00000000
00000100
00000010
00000000
00010000
00000000
00001000
00000000
,  // measure 43
00100000
00001000
00000000
00010000
00000000
01000000
00100000
00010000
00000000
10000000
01000000
00000000
00100000
00000000
00010000
00000000
,  // measure 44
00001000
01000000
00000000
00010000
00000000
00000010
00001000
00000100
00000000
00000010
00000001
00000000
00000100
00000000
00000010
00000000
,  // measure 45
00010000
00001000
00000000
00000010
00000000
00000100
00000010
00001000
00000000
00010000
00001000
00000000
00100000
00000000
00010000
00000000
,  // measure 46
10000000
01000000
00000000
00100000
00000000
00000000
11000000
00000000
00010000
00000000
00100000
01000000
00000000
00100000
00001000
00000000
,  // measure 47
00010000
00000010
00000000
00010000
00000000
00000000
00001100
00000000
00000010
00000000
00001000
00000001
00000000
00000010
00000100
00000000
,  // measure 48
00000001
00000010
00000000
00001000
00000000
00000000
00000011
00000000
00000100
00000000
00000010
00000100
00000000
00001000
00010000
00000000
,  // measure 49
00001000
00000100
00000000
00000010
00000000
00000000
00001100
00000000
00010000
00000000
00001000
00100000
00000000
00010000
01000000
00000000
,  // measure 50
01000000
00100000
00000000
00001000
00000000
00000000
01010000
00000000
10000000
00000000
01000000
00010000
00000000
00100000
00001000
00000000
,  // measure 51
00010000
00001000
00000000
00010000
00000000
00000000
00010010
00000000
00001000
00000000
00010000
00000100
00000000
00001000
00000001
00000000
,  // measure 52
00000100
00000010
00000000
00001000
00000000
00000000
00000011
00000000
00000100
00000000
00010000
00001000
00000000
00100000
00010000
00000000
,  // measure 53
20200000
30000000
00000000
00020000
00300000
00000000
01030000
00010000
,  // measure 54
00002000
00000000
00000010
00000200
00003000
00000000
00000301
00000100
,  // measure 55
00002000
00000000
00100000
00020000
00003000
00000000
01030000
00010000
,  // measure 56
00200000
00000000
01000000
00002000
00300000
00000000
00013000
00001000
,  // measure 57
00000200
00000000
00000000
00000002
00000300
00000000
00000010
00000000
,  // measure 58
00000200
00000003
00000000
00020000
00000300
00000000
00100000
00000000
,  // measure 59
00002000
00030000
00000000
02000000
00003000
00000000
00010000
00000000
,  // measure 60
00200000
03000000
00000000
20000000
00300000
00000000
30010000
00000000
;

//---------------dance-double - ----------------
#NOTES:
     dance-double:
     :
     Hard:
     7:
     0.405,0.427,0.168,0.042,0.000: // measure 1
00000000
00000000
00000000
00000000
,  // measure 2
00000000
00000000
00000000
00000000
,  // measure 3
00000000
00000000
00000000
00000000
,  // measure 4
00000000
00000000
00000000
00000000
,  // measure 5
11000000
00000000
00010000
00000000
00100000
00001000
00010000
00000000
,  // measure 6
00010010
00000000
00001000
00000000
00000100
00000001
00001000
00000000
,  // measure 7
00000110
00000000
00000001
00000000
00000010
00001000
00010000
00000000
,  // measure 8
00101000
00000000
00011000
00000000
00100000
01000000
10000000
00010000
,  // measure 9
00100000
00000000
01100000
00000000
00010000
00001000
00000100
00000000
,  // measure 10
00001000
00000100
00000010
00000000
00000001
00000100
00001000
00000000
,  // measure 11
00010000
00000000
00010010
00000000
00001000
00100000
00010000
00000000
,  // measure 12
10000000
01000000
00010000
00001000
00000100
00000000
00010100
00000000
,  // measure 13
00001000
00000100
00001000
00000000
00000001
00000010
00000001
00000000
,  // measure 14
00000100
00000001
00000100
00000000
00000010
00010000
00000010
00000000
,  // measure 15
00010000
00001000
00010000
00000000
00100000
00001000
00100000
00000000
,  // measure 16
00010000
01000000
00010000
00000000
10000000
00100000
10000000
00000000
,  // measure 17
01000000
00100000
00001000
00000000
00100000
01000000
10000000
00000000
,  // measure 18
00100000
01000000
00001000
00000000
00010000
00001000
00000100
00000000
,  // measure 19
00001000
00010000
00000010
00000000
00010000
00000100
00000010
00000000
,  // measure 20
00000001
00000010
00001000
00000000
00010000
00001000
00000100
00000000
,  // measure 21
00010000
00000000
00101000
00000000
10000000
00000000
01000000
00100000
,  // measure 22
00001000
00000000
00010100
00000000
00001000
00000000
00000010
00000001
,  // measure 23
00001000
00000000
00000110
00000000
00000001
00000000
00000100
00000010
,  // measure 24
00010000
00000000
00001000
00000000
00100000
00001000
01000000
00001000
,  // measure 25
00010000
00001000
00000100
00000010
,  // measure 26
00001000
00000000
00000001
00000000
00000010
00000100
00010000
00001000
,  // measure 27
00100000
00000000
10000000
01000000
00010000
00000000
00001000
00010000
,  // measure 28
00000010
00000000
00010000
00000100
00000001
00000000
00000100
00001000
,  // measure 29
00000010
00000101
00000010
00000100
,  // measure 30
00010000
00000000
00000010
00000000
00000100
00001000
00010000
00000000
,  // measure 31
00100000
00000000
00011000
00000000
00100000
00000000
01000000
10000000
,  // measure 32
00100000
01001000
00100000
00001000
,  // measure 33
00010000
00000000
00001100
00000000
00010000
00000000
00000100
00000010
,  // measure 34
00000001
00000000
00001100
00000000
00000010
00000100
00001000
00000000
,  // measure 35
00011000
01000000
00011000
00100000
,  // measure 36
11000000
00201000
00010000
00300100
,  // measure 37
00001000
00000100
00000001
00000010
00001000
00000000
00010000
00000000
,  // measure 38
00001000
00010000
01000000
10000000
01000000
00000000
00010000
00000000
,  // measure 39
00010000
01000000
10000000
00100000
00010000
00000000
00001000
00000000
,  // measure 40
00010000
00001000
00000100
00000001
00000100
00010000
00001000
00000000
,  // measure 41
00010000
00001000
00000010
00000000
00000100
00001000
00000010
00000000
,  // measure 42
00000001
00000100
00000010
00000000
00010000
00001000
00000100
00000000
,  // measure 43
00001000
00100000
00010000
00000000
00100000
00010000
10000000
00000000
,  // measure 44
01000000
00000000
00100000
01000000
10000000
00100000
01000000
00000000
,  // measure 45
00010000
00001000
00000100
00001000
00010000
01000000
10000000
01000000
,  // measure 46
00010000
00001000
00000100
00001000
00000010
00000001
00000100
00000010
,  // measure 47
00010000
00000010
00010000
00001000
00100000
00001000
00010000
00001000
,  // measure 48
00010000
01000000
10000000
01000000
00010000
01000000
00100000
00000000
,  // measure 49
00001000
00010000
00001000
00000100
00001000
00010000
00000100
00010000
,  // measure 50
00000010
00001000
00000100
00000010
00000100
00001000
00000010
00000001
,  // measure 51
00000010
00001000
00000001
00000100
00000010
00000100
00000001
00000010
,  // measure 52
00000100
00010000
00000100
00000010
00000100
00010000
00001000
00100000
,  // measure 53
00001000
00000000
00000000
00010000
00000000
00000000
10000000
01000000
,  // measure 54
00010000
00000000
00000000
00001000
00000000
00000000
00000001
00000100
,  // measure 55
00001000
00000000
00000000
00010000
00000000
00000000
00100000
01000000
,  // measure 56
10000000
00100000
00010000
00001000
00000000
00000000
00010000
00000100
,  // measure 57
00000020
00000000
00000000
00000031
00000000
00000000
00000100
00000000
,  // measure 58
00020000
00000000
00000000
00031000
00000000
00000000
00100000
00000000
,  // measure 59
20000000
00000000
00000000
31000000
00000000
00000000
00001000
00000000
,  // measure 60
00020000
00000000
00000000
00030010
00000000
00000000
00001000
00000000
;

//---------------dance-double - ----------------
#NOTES:
     dance-double:
     :
     Medium:
     5:
     0.262,0.352,0.168,0.059,0.000: // measure 1
00000000
00000000
00000000
00000000
,  // measure 2
00000000
00000000
00000000
00000000
,  // measure 3
00000000
00000000
00000000
00000000
,  // measure 4
00000000
00000000
00000000
00000000
,  // measure 5
01001000
00000000
01000000
01000000
,  // measure 6
01001000
00000000
01000000
01000000
,  // measure 7
01001000
00000000
01000000
01000000
,  // measure 8
01001000
00001000
00001000
00001000
,  // measure 9
00011000
00000000
00010010
00000000
00000100
00000010
00000000
00000010
,  // measure 10
00001000
00001000
00010000
00010000
,  // measure 11
00000000
01000000
00000000
01000000
10000000
00000000
10000000
00000000
,  // measure 12
00100000
00001000
00100000
00000000
00101000
00000000
00000000
00000000
,  // measure 13
00010000
00001000
00010000
00000100
,  // measure 14
00000010
00000100
00000010
00000001
,  // measure 15
00001000
00000001
00001000
00000010
,  // measure 16
00010000
00000010
00010000
00001000
,  // measure 17
00100000
00001000
00010000
01000000
,  // measure 18
00100000
00010000
00001000
01000000
,  // measure 19
00100000
10000000
01000000
00010000
,  // measure 20
00001000
00010000
00000100
00000000
,  // measure 21
00000010
00010010
00001000
00001000
,  // measure 22
00010000
00001000
00000010
00000100
,  // measure 23
00010000
00001000
00010000
00100000
,  // measure 24
10000000
00010000
00100000
01000000
,  // measure 25
10000000
10100000
01000000
00100000
,  // measure 26
00010000
00100000
01000000
00001000
,  // measure 27
00010000
00010100
00001000
00000010
,  // measure 28
00001000
00010010
00000100
00001000
,  // measure 29
00000101
00000010
00000000
00000100
,  // measure 30
00000000
00010000
00000000
00001000
,  // measure 31
00101000
00010000
00000000
01000000
,  // measure 32
00000000
10000000
00000000
01000000
,  // measure 33
00100000
00011000
00000000
00010000
,  // measure 34
00000000
00000110
00000000
00001000
,  // measure 35
00000101
00000010
00001001
00000100
,  // measure 36
00011000
00101000
01000000
00010000
,  // measure 37
10100000
10000000
00100000
10000000
,  // measure 38
01000000
00010000
01000000
00001000
,  // measure 39
00010000
00000100
00000010
00000100
,  // measure 40
00010000
00001000
00000010
00000001
,  // measure 41
00001000
00000100
00000001
00000010
,  // measure 42
00010000
00001000
00000010
00000100
,  // measure 43
00001000
01000000
00010000
00100000
,  // measure 44
10000000
01000000
00100000
00001000
,  // measure 45
00020000
00000000
00030100
00000100
,  // measure 46
00000020
00000000
00000031
00000001
,  // measure 47
00002000
00000000
00013000
00010000
,  // measure 48
00100000
01000000
10000000
00100000
,  // measure 49
00002000
00000000
00013000
00010000
,  // measure 50
00000200
00000000
00000310
00000010
,  // measure 51
00000002
00000000
00001003
00001000
,  // measure 52
00020000
00000000
00130000
01000000
,  // measure 53
10000000
00000000
00000000
01000000
00000000
00000000
00000000
00000000
,  // measure 54
00001000
00000000
00000000
00010000
00000000
00000000
00000000
00000000
,  // measure 55
00000100
00000000
00000000
00000010
00000000
00000000
00000000
00000000
,  // measure 56
00000001
00000000
00000000
00000100
00000000
00000000
00001000
00000000
,  // measure 57
00010000
00000000
00000000
00100000
00000000
00000000
00000000
00000000
,  // measure 58
10000000
00000000
00000000
01000000
00000000
00000000
00000000
00000000
,  // measure 59
00001000
00000000
00000000
00010000
00000000
00000000
00000000
00000000
,  // measure 60
00000100
00000000
00000000
00000010
00000000
00000000
00001000
00000000
;

//---------------dance-double - ----------------
#NOTES:
     dance-double:
     :
     Easy:
     2:
     0.144,0.199,0.000,0.000,0.000: // measure 1
00000000
00000000
00000000
00000000
,  // measure 2
00000000
00000000
00000000
00000000
,  // measure 3
00000000
00000000
00000000
00000000
,  // measure 4
00000000
00000000
00000000
00000000
,  // measure 5
00001000
00000000
00000000
00000000
,  // measure 6
00001000
00000000
00000000
00000000
,  // measure 7
00001000
00000000
00000000
00000000
,  // measure 8
00001000
00000000
00000000
00000000
,  // measure 9
00010000
00000000
00100000
00000000
,  // measure 10
10000000
10000000
00100000
00000000
,  // measure 11
01000000
00000000
00001000
00000000
,  // measure 12
00010000
00000100
00010000
00000000
,  // measure 13
00001000
00000000
00000010
00000000
,  // measure 14
00000001
00000000
00000010
00000000
,  // measure 15
00010000
00000000
00001000
00000000
,  // measure 16
00010000
00000000
00100000
00000000
,  // measure 17
00010000
00000000
00100000
00000000
,  // measure 18
10000000
00000000
00100000
00000000
,  // measure 19
00001000
00000000
00010000
00000000
,  // measure 20
00001000
00000000
00000010
00000000
,  // measure 21
00010000
00010000
00001000
00000000
,  // measure 22
00000100
00000100
00000010
00000000
,  // measure 23
00000001
00000001
00001000
00000000
,  // measure 24
00010000
01000000
00010000
00100000
,  // measure 25
10000000
00000000
01000000
00000000
,  // measure 26
00100000
00100000
00001000
00000000
,  // measure 27
00010000
00000000
00000100
00000000
,  // measure 28
00000010
00000010
00000001
00000000
,  // measure 29
00001000
00000000
00000100
00001000
,  // measure 30
00000010
00000000
00010000
00001000
,  // measure 31
00000010
00000000
00001000
01000000
,  // measure 32
00100000
00000000
00010000
01000000
,  // measure 33
00001000
00100000
00000000
00010000
,  // measure 34
00100000
10000000
00000000
00100000
,  // measure 35
10000000
00000000
01000000
00000000
,  // measure 36
00001000
00001000
00010000
00010000
,  // measure 37
00000010
00000000
00001000
00000000
,  // measure 38
00000010
00000001
00000010
00000000
,  // measure 39
00000100
00000000
00010000
00000000
,  // measure 40
00001000
00010000
00000100
00000000
,  // measure 41
00010000
00000000
00001000
00000000
,  // measure 42
01000000
00001000
00100000
00000000
,  // measure 43
00010000
00000000
00100000
00000000
,  // measure 44
00010000
10000000
01000000
00100000
,  // measure 45
10000000
00000000
00000000
00000000
,  // measure 46
01000000
00000000
00000000
00000000
,  // measure 47
00001000
00000000
00000000
00000000
,  // measure 48
00100000
00001000
00010000
00000100
,  // measure 49
00000010
00000000
00000000
00000000
,  // measure 50
00001000
00000000
00000000
00000000
,  // measure 51
00000001
00000000
00000000
00000000
,  // measure 52
00000100
00000010
00010000
00001000
,  // measure 53
00100000
00000000
00000000
00000000
,  // measure 54
01000000
00000000
00000000
00000000
,  // measure 55
10000000
00000000
00000000
00000000
,  // measure 56
00010000
00000000
00000000
00000000
,  // measure 57
01000000
00000000
00000000
00000000
,  // measure 58
00001000
00000000
00000000
00000000
,  // measure 59
00010000
00000000
00000000
00000000
,  // measure 60
00000010
00000000
00000000
00000000
;

//---------------dance-single - ----------------
#NOTES:
     dance-single:
     :
     Beginner:
     1:
     0.061,0.122,0.000,0.000,0.000:
0000
0000
0000
0000
,
0000
0000
0000
0000
,
0000
0000
0000
0000
,
0000
0000
0000
0000
,
0001
0000
0000
0000
,
0001
0000
0000
0000
,
0001
0000
0000
0000
,
0001
0000
0000
0000
,
0010
0000
0100
0000
,
0100
0000
0100
0000
,
0010
0000
0100
0000
,
1000
0000
0001
0000
,
0010
0000
0000
0000
,
0001
0000
0000
0000
,
1000
0000
0000
0000
,
0100
0000
0000
0000
,
0010
0000
0000
0000
,
0100
0000
0000
0000
,
0001
0000
0000
0000
,
1000
0000
0000
0000
,
0100
0000
0000
0000
,
0000
0000
0000
0000
,
0100
0000
0000
0000
,
0000
0000
0000
0000
,
0100
0000
0000
0000
,
0000
0000
0000
0000
,
0100
0000
0000
0000
,
0000
0000
0000
0000
,
0010
0000
0000
0000
,
0001
0000
0000
0000
,
1000
0000
0000
0000
,
0001
0000
0000
0000
,
1000
0000
0000
0000
,
0100
0000
0000
0000
,
0010
0000
0000
0000
,
0001
0000
0001
0000
,
1000
0000
0000
0000
,
0100
0000
0000
0000
,
0010
0000
0000
0000
,
0001
0000
0000
0000
,
0001
0000
0000
0000
,
0100
0000
0000
0000
,
0010
0000
0000
0000
,
1000
0000
0000
0000
,
0100
0000
0000
0000
,
0000
0000
0000
0000
,
0010
0000
0000
0000
,
0000
0000
0000
0000
,
0100
0000
0000
0000
,
0000
0000
0000
0000
,
0010
0000
0000
0000
,
0000
0000
0000
0000
,
0001
0000
0000
0000
,
1000
0000
0000
0000
,
0001
0000
0000
0000
,
1000
0000
0000
0000
,
0100
0000
0000
0000
,
0000
0000
0000
0000
,
0010
0000
0000
0000
;
