#TITLE:+imazinexo+;
#SUBTITLE:;
#ARTIST:TARIKI CNNMON;
#TITLETRANSLIT:;
#SUBTITLETRANSLIT:;
#ARTISTTRANSLIT:;
#CREDIT:;
#BANNER:imazinexo.png;
#BACKGROUND:imazinexo-bg.png;
#LYRICSPATH:;
#CDTITLE:cdtitle.png;
#MUSIC:imazinexo.mp3;
#OFFSET:-5.490;
#SAMPLESTART:108.760;
#SAMPLELENGTH:14.000;
#SELECTABLE:YES;
#DISPLAYBPM:85.000:600.000;
#BPMS:0.000=127.000,44.000=130.000,44.250=135.000,44.500=140.000,44.750=145.000,45.000=150.000,45.250=170.000,45.500=180.000,45.750=200.000,46.000=220.000,46.250=250.000,46.500=270.000,46.750=300.000,47.000=339.999,47.250=379.999,47.500=429.998,47.750=499.997,48.000=599.996,52.000=170.001,176.000=340.000,184.000=85.000,213.500=100.000,213.625=110.000,213.750=120.000,213.875=130.000,214.000=150.000,214.125=160.000,214.250=170.000,214.375=180.000,214.500=200.000,214.625=235.000,214.750=280.000,214.875=329.999,215.000=399.998,215.125=459.998,215.250=499.997,215.375=549.996,215.500=599.996,215.750=700.015,216.000=800.013,231.000=65.000,232.000=170.001,296.000=340.000,414.000=359.999,415.000=379.999,416.000=399.999,418.000=499.998,420.000=599.996,432.000=170.001;
#STOPS:51.938=0.280
,231.000=0.600
;
#BGCHANGES:;

//---------------dance-single - BASIC----------------
#NOTES:
     dance-single:
     BASIC:
     Easy:
     5:
     0.267,0.411,0.055,0.028,0.000:
0000
0000
0000
0000
,
0000
0000
0000
0000
,
0000
0000
0000
0000
,
0000
0000
0000
0000
,
0000
0000
0000
0000
,
0000
0000
0000
0000
,
1000
0000
0001
0000
,
0000
0100
0000
0100
,
1000
0000
0100
0001
,
1000
0000
0001
0000
,
0000
0100
0000
0100
,
0020
0000
0000
0000
,
0000
0000
0000
0000
,
0030
1000
0100
1000
,
0000
0001
0100
0001
,
1000
0000
0100
0000
1000
0000
0001
1000
,
0100
0010
0100
1000
,
0000
1000
0100
1000
,
0000
0001
0100
0001
,
1000
0000
0010
0000
0100
0000
0001
1000
,
0100
0010
0100
1000
,
0000
0001
0100
0001
,
0000
1000
0100
1000
,
0001
0000
0010
0000
0100
0000
1000
0001
,
0100
0010
0100
0001
,
0000
0001
0100
0001
,
0000
1000
0100
1000
,
0001
0000
0010
0000
0100
0000
1000
0001
,
0100
0010
0100
0001
,
1000
0000
0000
0100
0000
0000
0010
0000
,
0000
0001
0000
0000
1000
0000
0000
0000
,
1000
0000
0010
0000
0100
0000
1000
0001
,
0100
0010
0001
0000
,
0001
0000
0000
0010
0000
0000
0100
0000
,
0000
1000
0000
0000
0001
0000
0000
0000
,
0001
0000
0010
0000
0100
0000
0001
1000
,
0100
0010
0100
1000
,
0001
0000
0000
0010
0000
0000
0100
0000
,
0000
1000
0000
0000
0010
0000
0000
0000
,
1000
0000
0001
0000
0010
0000
1000
0001
,
0100
0010
1000
0001
,
1000
0000
0000
0010
0000
0000
0100
0000
,
0000
0001
0000
0000
0010
0000
0000
0000
,
0001
0000
1000
0000
0010
0000
0001
1000
,
0200
0000
0000
0000
,
0000
0000
0000
0000
,
0300
0000
0000
0000
,
0000
0000
0000
0000
,
0000
0000
0000
0000
,
0000
0000
0000
0000
,
1000
1000
0001
0001
,
0000
0000
0000
0000
,
1000
0100
0001
0010
,
1000
0200
0000
0000
,
0000
0000
0000
0000
,
0000
0000
0000
0000
,
0000
0000
0000
0000
,
0000
0000
0000
0000
0000
0000
0000
0000
0000
0000
0000
0000
0000
0000
0000
0000
0000
0000
0000
0000
0000
0000
0000
0000
0000
0000
0000
0000
0000
0000
0000
0000
0000
0000
0000
0000
0000
0000
0000
0000
0000
0000
0000
0000
0000
0000
0000
0000
0000
0300
0000
0000
0000
0000
0000
0000
0000
0000
0000
0000
0000
0000
0000
0000
,
0010
1000
0100
1000
,
0010
0001
0100
0001
,
0010
1000
0100
1000
,
0010
0001
0110
1001
,
0010
0001
0100
0001
,
0010
1000
0100
1000
,
0010
0001
0100
0001
,
0010
1000
0110
1001
,
1000
0100
0001
0100
,
1000
0010
0100
0010
,
1000
0001
0100
0001
,
1000
0010
0110
1001
,
0001
0100
1000
0100
,
0001
0100
0010
0100
,
0001
1000
0100
1000
,
0001
0010
0110
1001
,
1000
0000
0010
0000
,
0100
0000
0001
0000
,
1000
0000
0010
0000
,
0100
0000
0001
0000
,
0010
0000
0100
0000
,
1000
0000
0010
0000
,
0100
0000
0001
0000
,
1000
0000
0010
0000
,
0100
0000
0010
0000
,
1000
0000
0001
0000
,
0010
0000
0100
0000
,
1000
0000
0100
0000
,
0001
0000
0010
0000
,
1000
0000
0100
0000
,
0010
0000
1000
0000
,
0001
0000
0010
0000
,
0100
0000
0010
0000
,
1000
0000
0100
0000
,
0010
0000
0100
0000
,
1000
0000
0010
0000
,
1000
0000
0001
0000
,
0010
0000
0100
0000
,
1000
0000
0100
0000
,
0010
0000
0001
0000
,
1000
0000
0100
0000
,
0010
0000
0100
0000
,
1000
0000
0010
0000
,
0001
0000
0100
0000
,
1000
0000
0010
0000
,
1000
0000
0020
0000
,
0000
0000
0000
0000
,
0000
0000
0000
0000
,
0000
0000
0000
0000
,
0000
0000
0000
0000
,
0030
0000
0000
0000
;

//---------------dance-single - TRICK----------------
#NOTES:
     dance-single:
     TRICK:
     Medium:
     7:
     0.381,0.560,0.152,0.069,0.007:
0000
0000
0000
0000
,
0000
0000
0000
0000
,
0000
0000
0000
0000
,
0000
0000
0000
0000
,
0000
0000
0000
0000
,
0000
0000
0000
0000
,
1000
0100
0100
0000
0001
0000
0010
0010
,
0100
0000
0100
0000
1000
0001
0100
0000
,
1000
0000
0010
0010
0100
0000
0001
0000
,
1000
0100
0100
0000
0001
0000
0010
0010
,
0100
0000
0100
0000
0100
0100
0010
0000
,
0100
0020
0000
0000
0000
0000
0000
0000
,
0000
0000
0000
0000
,
0030
0000
1000
0100
0100
0000
1000
0000
,
0001
0001
0100
0000
0001
0000
0101
0000
,
1000
0010
0100
0010
1000
0100
0001
1000
,
0200
0300
0100
0000
,
0000
0000
1000
1000
0100
0000
1000
0000
,
0000
0000
0001
0001
0100
0000
0101
0000
,
1000
0010
0100
0010
1000
0100
0001
1000
,
0200
0000
0000
0000
0000
0000
0300
0000
0100
0000
1000
0000
,
0001
0000
0001
0001
0100
0000
0001
0000
,
0000
0000
1000
1000
0100
0000
1100
0000
,
0001
0100
0010
0100
0001
0100
1000
0001
,
0200
0300
0100
0000
,
0000
0000
0001
0001
0100
0000
0001
0000
,
0000
0000
1000
1000
0100
0000
1100
0000
,
0001
0100
0010
0100
0001
0100
1000
0001
,
0200
0000
0000
0300
,
1000
0000
0000
0010
0000
0000
0001
0000
,
0000
0100
0000
0000
1000
0000
0000
0000
,
1000
0100
0010
0100
0001
0100
1000
0010
,
0002
0000
0000
0003
,
0001
0000
0000
0010
0000
0000
1000
0000
,
0000
0100
0000
0000
0001
0000
0000
0000
,
0001
0100
0010
0100
1000
0100
0001
0010
,
2000
0000
0000
3000
,
0001
0000
0000
0010
0000
0000
1000
0000
,
0000
0100
0000
0000
0001
0000
0000
0000
,
1000
0100
0010
0100
0001
0100
1000
0010
,
0002
0000
0000
0003
,
1000
0000
0000
0010
0000
0000
0001
0000
,
0000
0100
0000
0000
1000
0000
0000
0000
,
0001
0100
1000
0010
1000
0100
0001
1000
,
0100
0010
0001
0100
,
0010
0100
0010
1000
,
0001
0000
0000
0000
,
0000
0000
0000
0000
,
0000
0000
0000
0000
,
0000
0000
0000
0000
,
1000
1000
0001
0001
,
0000
0000
0000
0000
,
1000
0100
0100
0000
0001
0010
0010
0000
,
1000
0100
0100
0020
0000
0000
0000
0000
,
0000
0000
0000
0000
,
0000
0000
0000
0000
,
0000
0000
0000
0000
,
0000
0000
0000
0000
0000
0000
0000
0000
0000
0000
0000
0000
0000
0000
0000
0000
0000
0000
0000
0000
0000
0000
0000
0000
0000
0000
0000
0000
0000
0000
0000
0000
0000
0000
0000
0000
0000
0000
0000
0000
0000
0000
0000
0000
0000
0000
0000
0000
0000
0030
0000
0000
0000
0000
0000
0000
0000
0000
0000
0000
0000
0000
0000
0000
,
0010
0000
1000
0000
0100
0100
1000
0000
,
0010
0000
0001
0000
0100
0100
0001
0000
,
0010
0000
1000
0001
0100
0000
0001
1000
,
0100
0001
0011
1010
,
0010
0000
0001
0000
0100
0100
0001
0000
,
0010
0000
1000
0000
0100
0100
1000
0000
,
0001
1000
0100
0000
1000
0001
0100
0000
,
0010
1000
1100
0101
,
1000
0000
0100
0000
0001
0001
0100
0000
,
1000
0000
0100
0000
0001
0001
0100
0000
,
1000
0010
0100
0000
1000
0010
0100
0000
,
1100
1010
0011
1010
,
0001
0000
0100
0000
1000
1000
0100
0000
,
0001
0000
0100
0000
1000
1000
0100
0000
,
0001
0010
0100
0000
0001
0010
0100
0000
,
0101
0011
1010
0011
,
1000
0000
0010
0000
,
1000
1000
0001
0000
,
1000
0000
0100
0000
,
1000
1000
0010
0000
,
0010
0001
0100
0010
,
1000
0100
0010
0001
,
0100
0000
0101
0000
,
1010
0000
1001
0000
,
0001
0000
0010
0000
,
0001
0001
1000
0000
,
0001
0000
0100
0000
,
0001
0001
0010
0000
,
0010
1000
0100
0010
,
0001
0100
0010
1000
,
0100
0000
1100
0000
,
0011
0000
1100
0000
,
0100
0010
1000
0000
,
0100
0010
1000
0000
,
0100
0001
0010
0000
,
0100
0001
0010
0000
,
0001
1000
0100
0000
,
0001
1000
0100
0000
,
1000
0001
0100
0000
,
1000
0001
0100
0000
,
0100
0100
0010
0100
,
1000
0100
1000
0010
,
0100
0010
0000
0100
,
0010
0100
0001
0100
,
0001
0100
0010
1000
,
0100
0001
0010
1000
,
0100
0020
0000
0000
,
0000
0000
0000
0000
,
0000
0000
0000
0000
,
0000
0000
0000
0000
,
0030
0000
0000
0000
;

//---------------dance-single - HEAVY----------------
#NOTES:
     dance-single:
     HEAVY:
     Hard:
     9:
     0.502,0.784,0.104,0.221,0.194:
0000
0000
0000
0000
,
0000
0000
0000
0000
,
0000
0000
0000
0000
,
0000
0000
0000
0000
,
0000
0000
0000
0000
,
0000
0000
0000
0000
,
1000
0100
1000
0000
0100
0000
0000
0010
0001
0000
0001
0000
0010
0001
0010
0000
,
0100
0000
0000
0000
0000
0000
0000
0000
0000
1000
0000
0000
0100
0000
0000
0000
0000
0000
0010
0000
0000
0000
0000
0000
1000
0000
0000
0000
0010
0000
0000
0000
0001
0000
0000
0000
0100
0000
0000
0000
0000
0000
0000
0000
0000
0100
0000
0000
,
1000
0000
0000
0000
0000
0000
0100
0000
0000
0000
0000
0000
0010
0000
0000
0100
0000
0000
0010
0000
0000
0000
0000
0000
0100
0000
0000
0000
0000
0000
0000
0000
0010
0000
0000
0000
1000
0000
0000
0000
0100
0000
0000
0000
0010
0000
0000
0000
,
1000
0010
0001
0000
0100
0000
0000
0010
1000
0000
1000
0000
0010
0100
0010
0000
,
0100
0000
0000
0000
0000
0000
0000
0000
0000
1000
0000
0000
0100
0000
0000
0000
0010
0000
0000
0000
1000
0000
0000
0000
0001
0000
0000
0000
0000
0000
0100
0000
0000
0000
0000
0000
0010
0000
0000
0000
0000
0000
1000
0000
0000
0000
0000
0000
,
0100
0020
0000
0000
0000
0000
0000
0000
,
0000
0000
0000
0000
,
0030
0000
1000
0100
0100
0000
1000
0100
,
0001
0000
0001
0000
0100
0000
0000
0000
0100
0000
1000
0000
0100
0000
0010
0001
,
1000
0010
0100
0010
1000
0100
0001
2000
,
0000
0100
0010
3001
,
0011
0000
0001
0001
0100
0000
0001
0100
,
1000
0000
1000
0000
0100
0000
0000
0000
0001
0000
0001
0000
0100
0000
0010
1000
,
0001
0010
0100
0010
1000
0100
0001
1000
,
0200
0000
0000
0000
0000
0000
0300
0000
0110
0000
1010
0000
,
0101
0000
0001
0001
0100
0000
0001
0100
,
1000
0000
1000
0000
0100
0000
0000
0000
0100
0000
0001
0000
0100
0000
0010
1000
,
0001
0100
0010
0100
0001
0100
1000
0002
,
0000
0010
0100
1003
,
1010
0000
1000
1000
0100
0000
1000
0100
,
0001
0000
0001
0000
0100
0000
0000
0000
0010
0000
0100
0000
0001
0000
0100
1000
,
0001
0100
0010
0100
0001
0100
1000
0001
,
0200
0000
0000
0300
,
2000
0000
0000
0100
0000
0000
3020
0000
0000
0100
0000
0000
0032
0000
0000
1000
,
0000
0000
0203
0000
0000
0010
0000
0000
2300
0000
0000
0100
0000
0000
3010
0100
,
1000
0100
0010
0100
0001
0100
1000
0010
,
0002
0100
1000
0013
,
0002
0000
0000
0010
0000
0000
0023
0000
0000
1000
0000
0000
2030
0000
0000
0001
,
0000
0000
3200
0000
0000
0010
0000
0000
0302
0000
0000
1000
0000
0000
0103
0010
,
0001
0100
0010
0100
1000
0100
0001
0010
,
0200
0000
0000
0300
,
0002
0000
0000
0100
0000
0000
0023
0000
0000
0001
0000
0000
2030
0000
0000
0100
,
0000
0000
3200
0000
0000
0001
0000
0000
0302
0000
0000
0100
0000
0000
0013
0100
,
1000
0100
0010
0100
0001
0100
1000
0010
,
0002
0010
1000
0103
,
2000
0000
0000
0100
0000
0000
3020
0000
0000
0100
0000
0000
0032
0000
0000
1000
,
0000
0000
0203
0000
0000
0010
0000
0000
2300
0000
0000
0001
0000
0000
3100
0010
,
0001
0100
1000
0010
1000
0100
0001
1000
,
0100
0010
0001
0100
,
0010
0100
0001
0100
0010
1000
0100
0001
,
0020
0000
0000
0000
,
0000
0000
0000
0000
,
0000
0000
0000
0000
,
0000
0000
0000
0000
,
1030
0100
0100
0000
1000
0000
0000
0000
0001
0100
0100
0000
0020
0000
0000
0000
,
0000
0000
0000
0000
,
1030
0100
1000
0000
0100
0000
1000
0000
0001
0010
0001
0000
0010
0000
0100
0000
,
1000
0000
0010
0000
0001
0000
0100
0020
0000
0000
0000
0000
0000
0000
0000
0000
,
0000
0000
0000
0000
,
0000
0000
0000
0000
,
0000
0000
0000
0000
,
0000
0000
0000
0000
0000
0000
0000
0000
0000
0000
0000
0000
0000
0000
0000
0000
0000
0000
0000
0000
0000
0000
0000
0000
0000
0000
0000
0000
0000
0000
0000
0000
0000
0000
0000
0000
0000
0000
0000
0000
0000
0000
0000
0000
0000
0000
0000
0000
0000
0030
0000
0000
0000
0000
0000
0000
0000
0000
0000
0000
0000
0000
0000
0000
,
1001
0000
0000
0100
0000
0000
0010
0000
,
1000
0000
0000
0010
0000
0000
0001
0000
,
0010
0000
0000
0000
0000
0000
0100
0000
0000
0000
0000
0000
0001
0000
0100
0010
,
1000
0100
0001
0010
1000
0010
0100
0001
,
0010
0000
0000
1000
0000
0000
0001
0000
,
0010
0000
0000
0001
0000
0000
1000
0000
,
0010
0000
0000
0000
0000
0000
0100
0000
0000
0000
0000
0000
1000
0000
0001
0100
,
0010
1000
0100
0001
0010
0100
0010
1000
,
0001
0000
0000
0100
0000
0000
1001
0000
,
1100
0000
0000
0100
0000
0000
0101
0000
,
1010
0000
0000
0000
0000
0000
0100
0000
0000
0000
0000
0000
0001
0000
0010
0100
,
1000
0100
0001
0010
0100
1000
0001
1000
,
0010
0000
0000
0100
0000
0000
0110
0000
,
0101
0000
0000
0010
0000
0000
1010
0000
,
0101
0000
0000
0000
0000
0000
0001
0000
0000
0000
0000
0000
0100
0000
0010
1000
,
0001
0100
1000
0010
0001
0100
1000
0010
,
0001
0100
0000
0100
,
0000
0010
0000
0100
,
0000
0001
0000
0100
,
0000
1000
0010
0000
,
0010
0001
0100
0010
,
1000
0100
0010
0001
,
0100
0010
1000
0001
,
0100
0010
1000
0100
,
0001
0000
0000
0100
,
0000
0001
0000
1000
,
0000
0010
0000
0100
,
0000
0001
0100
0000
,
0010
1000
0100
0010
,
0001
0100
0010
1000
,
0100
0010
0001
1000
,
0010
0100
0001
1000
,
1001
0010
1000
0001
,
0100
0010
1000
0001
,
0100
0001
0010
1000
,
0100
0001
0010
0100
,
0001
1000
0100
0010
,
0001
1000
0100
0001
,
1000
0001
0100
0010
,
1000
0001
0100
0010
,
0100
1000
0010
0100
,
1000
0010
1000
0001
,
0100
0010
1000
0100
,
0010
1000
0001
0010
,
0001
0100
0010
1000
,
0100
0001
0010
1000
,
0100
0000
0010
0000
0000
0001
0000
0000
,
0010
0000
1000
0000
,
0100
0000
0001
0000
,
0020
0000
0000
0000
,
0030
0000
0000
0000
;

//---------------dance-single - ONI----------------
#NOTES:
     dance-single:
     ONI:
     Challenge:
     11:
     0.797,0.934,0.394,0.346,0.349: // measure 1
0000
0000
0000
0000
,  // measure 2
0000
0000
0000
0000
,  // measure 3
0000
0000
0000
0000
,  // measure 4
0000
0000
0000
0000
,  // measure 5
0000
0000
0000
0000
,  // measure 6
0000
0000
0000
0000
,  // measure 7
1000
0000
0000
0100
1000
0100
0000
0000
0010
0000
0000
0000
0000
0000
0010
0000
0001
0000
0000
0001
0000
0100
0000
0000
0010
0000
0000
0001
0010
0001
0000
0000
,  // measure 8
0100
0000
0000
0000
0000
0000
0000
0000
1000
0000
0000
0000
0100
0000
0000
0000
0001
0000
0000
0000
0010
0000
0000
0000
1000
0000
0000
0000
0010
0000
0000
0000
0001
0000
0000
0000
0100
0000
0000
0000
0000
0000
0000
0000
0000
0001
0000
0000
,  // measure 9
0001
0000
0000
0000
0000
0000
0000
0000
0000
0000
0000
0000
0000
0000
0000
0000
0100
0000
0000
0000
0000
0000
0000
0000
0000
0000
0000
0000
0000
0000
0000
0000
0010
0000
0000
0000
0000
0000
0000
0000
0000
0000
0000
0000
0000
0000
0000
0000
1000
0000
0000
0000
0000
0000
0000
0000
0000
0000
0000
0000
0000
0000
0000
0000
0000
0000
0100
0000
0000
0000
0000
0000
0010
0000
0000
0000
0000
0000
0100
0000
0000
0000
0000
0000
0000
0000
0000
0000
0000
0000
0000
0000
0000
0000
0000
0000
0100
0000
0000
0000
0000
0000
0000
0000
0000
0000
0000
0000
0000
0000
0000
0000
0000
0000
0000
0000
0000
0000
0000
0000
0000
0000
0000
0000
0000
0000
0000
0000
0010
0000
0000
0000
0000
0000
0000
0000
0000
0000
0000
0000
0000
0000
0000
0000
0001
0000
0000
0000
0000
0000
0000
0000
0000
0000
0000
0000
0000
0000
0000
0000
0100
0000
0000
0000
0000
0000
0000
0000
0000
0000
0000
0000
0000
0000
0000
0000
0010
0000
0000
0000
0000
0000
0000
0000
0000
0000
0000
0000
0000
0000
0000
0000
,  // measure 10
1000
0000
0000
0000
0000
0000
0000
0000
0000
0000
0000
0000
0000
0000
0000
0000
0000
0000
0010
0000
0000
0000
0000
0000
0100
0000
0000
0000
0000
0000
0010
0000
0000
0000
0000
0000
0000
0000
0000
0000
0000
0000
0000
0000
0000
0000
0000
0000
0100
0000
0000
0000
0000
0000
0000
0000
0000
0000
0000
0000
0000
0000
0000
0000
0000
0000
0000
0000
0000
0000
0000
0000
0000
0000
0000
0000
0000
0000
0000
0000
0000
0000
0000
0000
0010
0000
0000
0000
0000
0000
0000
0000
0000
0000
0000
0000
0000
0000
0000
0000
0000
0000
0000
0000
1000
0000
0000
0000
0000
0000
0000
0000
0000
0000
0000
0000
0000
0000
0000
0000
0100
0000
0000
0000
0000
0000
0000
0000
0000
0000
0000
0000
0000
0000
0000
0000
0000
0000
0000
0000
0000
0000
0000
0000
0010
0000
0000
0000
0000
0000
0000
0000
0000
0000
0000
0000
0000
0000
0000
0000
0000
0000
0100
0000
0000
0000
0000
0000
0010
0000
0000
0000
0000
0000
0100
0000
0000
0000
0000
0000
0000
0000
0000
0000
0000
0000
0000
0000
0000
0000
0000
0000
,  // measure 11
0001
0000
0000
0000
0000
0000
0000
0000
0100
0000
0000
0000
0010
0000
0000
0000
1000
0000
0000
0000
0001
0000
0000
0000
0100
0000
0000
0000
1000
0000
0000
0000
0100
0000
0000
0000
0001
0000
0000
0000
0000
0000
0000
0000
0000
0100
0000
0000
,  // measure 12
0100
0020
0000
0000
0000
0000
0000
0000
,  // measure 13
0000
0000
0000
0000
,  // measure 14
0130
0001
0100
0010
0000
1000
1000
0100
,  // measure 15
0001
0000
0010
1000
0001
0000
0000
0000
0001
0000
0100
0000
1000
0000
0010
0100
,  // measure 16
1000
0010
0100
0010
1000
0100
0001
1001
,  // measure 17
0000
0000
0100
1000
0100
0000
0010
0000
0010
0000
0100
0000
0001
0000
0000
0000
,  // measure 18
0100
0000
0001
0100
0001
0000
1000
0000
0100
0000
0000
0000
1000
0000
0100
0000
,  // measure 19
0001
0000
1000
0001
0100
0000
0000
0000
0100
0000
0001
0000
1000
0000
0010
0100
,  // measure 20
1000
0010
0100
0010
1000
0100
0001
1002
,  // measure 21
0200
0000
0000
0000
0000
0000
0303
0000
0110
0000
1010
0000
,  // measure 22
0101
0000
0001
1000
0100
0000
0001
0000
0100
0000
0000
0000
0001
0000
0100
0000
,  // measure 23
1000
0000
1000
0001
0100
0000
0000
0000
0100
0000
1000
0000
0001
0000
0100
0010
,  // measure 24
0001
0100
0010
0100
0001
0100
1000
1001
,  // measure 25
0000
0000
0001
0010
0001
0000
0010
0000
0010
0000
0100
0000
1000
0000
0000
0000
,  // measure 26
1010
0000
1000
0001
0100
0000
0001
0000
0100
0000
0000
0000
0001
0000
0100
0000
,  // measure 27
1000
0000
0001
1000
0100
0000
0000
0000
0010
0000
0100
0000
1000
0000
0100
0010
,  // measure 28
0001
0100
0010
0100
0001
0100
1000
2001
,  // measure 29
0200
0000
0000
3300
,  // measure 30
1000
0100
1000
0000
0010
0000
0100
0010
0100
0000
0001
0000
0100
0010
0100
0000
,  // measure 31
0001
0000
1000
0010
1000
0000
0001
0000
0100
0010
0100
0000
0001
0000
0010
0100
,  // measure 32
1000
0100
0010
0100
0001
0100
1000
0010
,  // measure 33
1001
0000
0001
0100
0001
0000
0100
0000
0010
0000
0010
0000
0001
0000
0000
0000
,  // measure 34
0001
0010
0001
0000
1000
0000
0010
0100
0010
0000
1000
0000
0001
0100
0001
0000
,  // measure 35
1000
0000
0010
0100
0010
0000
1000
0000
0001
0100
0001
0000
1000
0000
0100
0010
,  // measure 36
0001
0100
0010
0100
1000
0100
0001
0012
,  // measure 37
0200
0000
0000
0303
,  // measure 38
0001
0010
0001
0000
1001
0000
1000
0100
1000
0000
1010
0000
0010
0100
0010
0000
,  // measure 39
1010
0000
1000
0100
1000
0000
1001
0000
0001
0100
0001
0000
0011
0000
0010
0100
,  // measure 40
1000
0010
0100
1000
0001
0100
1000
1010
,  // measure 41
1000
0100
1000
0000
0010
0000
0010
0000
1000
0000
0100
0000
0010
0000
0000
0000
,  // measure 42
1000
0100
1000
0000
1010
0000
0010
0100
0010
0000
1010
0000
1000
0100
1000
0000
,  // measure 43
1001
0000
0001
0100
0001
0000
0011
0000
0001
1000
0001
0000
1001
0000
0100
0010
,  // measure 44
0001
0100
1000
0010
1000
0100
0001
1001
,  // measure 45
0100
0010
1000
0010
,  // measure 46
0001
0100
0010
1000
0100
1000
0100
0001
,  // measure 47
0010
0200
0000
0320
0000
2030
0000
3002
,  // measure 48
0000
0203
0000
0300
0020
0000
0230
0000
,  // measure 49
0300
0000
0000
0000
0020
0000
0000
0000
0000
0000
0000
0000
0030
0000
0000
0000
0000
0000
0000
0000
0000
0020
0000
0000
,  // measure 50
0000
0000
0000
0030
0000
0000
0000
0000
0000
0000
0000
0000
0000
0000
0000
0000
,  // measure 51
1000
0010
0100
0010
1000
0001
0100
0010
1000
0100
0001
0100
0010
0000
0200
0000
,  // measure 52
0000
0000
0000
0000
0000
0000
0000
0300
,  // measure 53
1000
0000
0100
1000
0100
0000
0010
0000
0000
0000
0001
0000
1000
0000
0000
0000
0001
0000
0010
0001
0010
0000
0000
0000
0000
0000
0001
0000
0100
0000
0000
0000
,  // measure 54
1000
0100
0010
0001
0000
1000
0010
0100
0001
0000
0100
0000
0010
0000
0000
0000
,  // measure 55
1000
0000
0100
0000
,  // measure 56
0010
0000
0000
0001
0000
0000
0100
0000
,  // measure 57
0000
1000
0000
0000
0001
0000
0000
0010
,  // measure 58
0000
0000
0000
0000
0000
0000
0000
0000
0000
0000
0000
0000
0000
0000
0000
0000
0001
0000
0000
0000
0000
0000
0000
0000
0000
0000
0000
0000
0000
0000
0000
0000
0000
0000
0000
0000
0000
0000
0000
0000
0200
0000
0000
0000
0000
0000
0000
0000
0000
0300
0000
0000
0000
0000
0000
0000
0000
0000
0000
0000
0000
0000
0000
0000
,  // measure 59
1001
1000
0010
0110
1000
0100
0110
0100
,  // measure 60
1100
1000
0100
0011
0010
0100
1100
1000
,  // measure 61
1010
0000
1000
0000
0001
0000
0110
0000
1000
0000
0100
0000
0010
0000
0100
0010
,  // measure 62
1000
0100
0001
0010
1000
0010
0100
0011
,  // measure 63
1001
1000
0100
1100
1000
0001
0011
0010
,  // measure 64
0110
0100
1000
0101
0001
1000
1010
0100
,  // measure 65
1010
0000
1000
0000
0001
0000
0101
0000
0100
0000
0010
0000
1000
0000
0001
0100
,  // measure 66
0010
1000
0100
0001
0010
0100
0010
1010
,  // measure 67
1001
0000
0001
0100
0001
0000
0101
0000
0000
0000
0100
0000
1001
0000
0000
0000
,  // measure 68
1100
0000
1000
0100
1000
0000
1100
0000
0000
0000
0010
0000
0101
0000
0000
0000
,  // measure 69
1010
0000
1000
0100
1000
0000
1100
0000
0010
0000
0100
0000
0001
0000
0010
0100
,  // measure 70
1000
0100
0001
0100
1000
0010
0100
1001
,  // measure 71
0011
0000
0001
0010
0001
0000
0101
0000
0000
0000
0100
0000
0110
0000
0000
0000
,  // measure 72
1001
0000
1000
0100
1000
0000
1010
0000
0000
0000
0100
0000
1010
0000
0000
0000
,  // measure 73
0101
0000
0001
0100
0001
0000
1100
0000
1000
0000
0100
0000
0010
0000
0100
0001
,  // measure 74
1000
0010
0001
0100
1000
0010
0001
0100
,  // measure 75
1000
0001
0010
0100
,  // measure 76
1000
0100
0010
0100
,  // measure 77
1000
0010
0001
1000
,  // measure 78
0100
0001
0100
1000
,  // measure 79
0100
1000
0010
0100
,  // measure 80
0001
0010
0100
1000
,  // measure 81
0010
0100
0001
1000
,  // measure 82
0010
0100
0001
0010
,  // measure 83
1000
0010
0100
0010
,  // measure 84
0100
1000
0010
0001
,  // measure 85
0010
1000
0100
0010
,  // measure 86
0001
1000
0010
1000
,  // measure 87
0100
0001
1000
0010
,  // measure 88
0001
1000
0100
0001
,  // measure 89
0100
1000
0010
0001
,  // measure 90
0010
1000
0100
1000
,  // measure 91
0001
1000
0010
1000
0010
1000
0001
0100
,  // measure 92
0001
0100
0001
0010
0100
1000
0010
0100
,  // measure 93
0001
0010
0001
0010
0001
0010
0001
0010
,  // measure 94
0100
1000
0100
1000
0100
1000
0100
0010
,  // measure 95
0001
0010
0001
0010
0001
0010
0001
0010
,  // measure 96
0100
1000
0010
0100
0001
0010
0100
1000
,  // measure 97
0100
0010
0001
0010
0001
0010
0001
0010
,  // measure 98
0100
1000
0100
1000
0100
1000
0100
1000
,  // measure 99
0200
0010
0301
0010
0001
0010
0002
1000
,  // measure 100
0023
1000
0230
0010
0302
0100
0023
1000
,  // measure 101
0230
0010
0301
0010
0001
0010
0002
1000
,  // measure 102
0023
1000
0230
0010
0302
0100
0023
1000
,  // measure 103
0130
1000
0100
2000
0100
3010
0002
0100
,  // measure 104
0023
2030
0100
3001
0200
0000
2300
0000
,  // measure 105
3200
0000
0320
0000
0030
0002
0000
0003
,  // measure 106
0020
0230
2300
3002
,  // measure 107
0203
0320
0230
0302
,  // measure 108
0023
2030
3200
0000
,  // measure 109
0300
0000
0000
0000
;
