#TITLE:un deux trois;
#SUBTITLE:;
#ARTIST:SDMS;
#TITLETRANSLIT:;
#SUBTITLETRANSLIT:;
#ARTISTTRANSLIT:;
#CREDIT:;
#BANNER:../ddrstream fallback-bn.png;
#BACKGROUND:../ddrstream fallback-bg.png;
#LYRICSPATH:;
#CDTITLE:;
#MUSIC:un deux trois.ogg;
#OFFSET:-0.200;
#SAMPLESTART:13.900;
#SAMPLELENGTH:13.650;
#SELECTABLE:YES;
#BPMS:0.000=140.000;
#STOPS:;
#BGCHANGES:;

//---------------dance-single - ----------------
#NOTES:
     dance-single:
     Dossar:
     Challenge:
     11:
     0.997,0.930,0.000,0.085,1.000:
0000
0000
0000
0000
,
0000
0000
0000
0000
,
0000
0000
0000
0000
,
0000
0000
0000
0000
,
1000
0010
0100
0001
0000
0001
0100
0010
1000
0000
0000
0000
1000
0000
0001
0000
,
1000
0100
0010
0001
0000
0001
0010
0100
1000
0000
0000
0000
1000
0000
0001
0000
,
1000
0010
0100
0001
0000
0001
0100
0010
1000
0000
0000
0000
1000
0000
0001
0000
,
1000
0100
0010
0001
1000
0100
1000
0001
0010
0100
1000
0001
0010
0100
0010
0001
,
1000
0010
0100
0001
1000
0010
0100
0001
0100
0010
1000
0001
0100
0010
1000
0001
,
0010
0100
1000
0001
0010
0100
1000
0001
0010
0100
0010
0001
1000
0100
0010
0001
,
1000
0010
1000
0001
0100
0010
1000
0001
0100
0010
0100
0001
1000
0010
0100
0001
,
1000
0100
0010
0001
1000
0100
0010
0100
1000
0001
0010
0100
1000
0001
0010
0001
,
1000
0010
0100
0010
1000
0001
0100
0010
1000
0001
0010
0001
1000
0010
0100
0001
,
1000
0100
0010
0001
1000
0100
1000
0001
0010
0100
1000
0001
0010
0001
1000
0010
,
0100
0001
1000
0010
1000
0001
0100
0010
1000
0001
0100
0001
1000
0010
0100
0001
,
1000
0100
0010
0001
1000
0100
0010
0001
1000
0100
0010
0001
1000
0100
0010
0001
,
1000
0010
0100
0001
0000
0000
1000
0001
1000
0000
0000
0000
0001
0000
0100
0000
,
0010
1000
0001
0100
0000
0000
0010
1000
0010
0000
0000
0000
1000
0000
0001
0000
,
1000
0100
0010
0001
0000
0000
1000
0100
1000
0000
0000
0000
0001
0000
1000
0000
,
0001
0010
0100
1000
0000
0000
0001
0010
0001
0000
0000
0000
1000
0100
1000
0000
,
0001
0100
0010
1000
0001
0100
0010
0100
0001
1000
0010
0100
0001
1000
0010
1000
,
0001
0010
0100
1000
0001
0010
0100
0010
0001
1000
0100
0010
0001
1000
0100
1000
,
0001
0100
0010
1000
0001
0100
0001
1000
0010
0100
0001
1000
0010
1000
0001
0100
,
0001
1000
0100
0010
0001
0010
0100
1000
0001
0010
0100
1000
0100
0010
0001
1000
,
0010
0100
0000
0001
0000
1000
0000
0001
0000
0100
0000
0010
0000
0000
0000
0000
,
1000
0001
0010
0100
0010
0001
1000
0000
,
0001
0100
0010
1000
0000
0001
0100
0010
2000
0000
0000
0000
0000
0000
0000
0000
,
3001
0010
0100
1000
0000
0001
0010
0100
2000
0000
0000
3200
0000
0000
0320
0000
,
0031
1000
0010
0100
0000
0001
1000
0010
0200
0000
0000
0000
0000
0000
0000
0000
,
0301
1000
0100
0010
0001
0010
0100
1000
0002
0000
0000
0000
0000
0000
0000
0000
,
1003
0010
0100
0001
0100
0010
1000
0001
0100
0010
1000
0010
0100
0001
1000
0100
,
0010
0001
1000
0100
0010
0001
0010
0100
1000
0001
0010
0100
1000
0100
0010
0001
,
1000
0010
1000
0001
0100
0010
1000
0001
0100
0010
0100
0001
1000
0010
0100
0001
,
2000
0000
3000
0000
0000
0000
0000
0001
,
1000
0010
0100
0001
0000
0000
0100
0000
0010
0000
1000
0000
0001
0000
0100
0000
,
0001
1000
0100
0010
0000
0000
0001
0000
0010
0000
0100
0000
0010
0000
0001
0000
,
1000
0001
0100
0010
0000
0000
1000
0000
0001
0000
0100
0000
0010
0000
1000
0000
,
0001
0010
0100
1000
0000
0000
0001
0000
0010
0000
0100
0000
1000
0000
0001
0000
,
1000
0010
0100
0010
1000
0001
0100
0010
1000
0001
0010
0001
1000
0010
0100
0001
,
1000
0100
0010
0001
1000
0100
1000
0001
0010
0100
1000
0001
0010
0001
1000
0010
,
0100
0001
1000
0010
1000
0001
0100
0010
1000
0001
0100
0001
1000
0010
0100
0001
,
1000
0100
0010
0001
1000
0100
0010
0001
1000
0100
0010
0001
1000
0100
0010
0001
,
1000
0010
0100
0001
1000
0010
0100
0001
0100
0010
1000
0001
0100
0010
1000
0001
,
0010
0100
1000
0001
0010
0100
1000
0001
0010
0100
0010
0001
1000
0100
0010
0001
,
1000
0010
1000
0001
0100
0010
1000
0001
0100
0010
0100
0001
1000
0010
0100
0001
,
1000
0100
0010
0001
1000
0100
0010
0100
1000
0001
0010
0100
1000
0001
0010
0001
,
1000
0010
0100
0010
1000
0001
0100
0010
1000
0001
0010
0001
1000
0010
0100
0001
,
1000
0100
0010
0001
1000
0100
1000
0001
0010
0100
1000
0001
0010
0001
1000
0010
,
0100
0001
1000
0010
1000
0001
0100
0010
1000
0001
0100
0001
1000
0010
0100
0001
,
1000
0100
0010
0001
1000
0100
0010
0001
1000
0100
0010
0001
1000
0100
0010
0001
,
1000
0010
1000
0001
0100
0010
1000
0001
0100
0010
0100
0001
1000
0010
0100
0001
,
1000
0100
1000
0001
0010
0100
1000
0001
0010
0100
0010
0001
1000
0100
0010
0001
,
1000
0010
1000
0001
0100
0010
1000
0001
0100
0010
0100
0001
1000
0010
0100
0001
,
2000
3000
0000
0000
;

//---------------dance-single - ----------------
#NOTES:
     dance-single:
     Dossar:
     Hard:
     10:
     0.905,0.930,0.000,0.085,1.000:
0000
0000
0000
0000
,
0000
0000
0000
0000
,
0000
0000
0000
0000
,
0000
0000
0000
0000
,
1000
0010
0100
0001
0000
0001
0100
0010
1000
0000
0000
0000
1000
0000
0001
0000
,
1000
0100
0010
0001
0000
0001
0010
0100
1000
0000
0000
0000
1000
0000
0001
0000
,
1000
0010
0100
0001
0000
0001
0100
0010
1000
0000
0000
0000
1000
0000
0001
0000
,
1000
0100
0010
0001
1000
0100
1000
0001
0010
0100
1000
0001
0010
0100
0010
0001
,
1000
0010
0100
0001
1000
0010
0100
0001
0100
0010
1000
0001
0100
0010
1000
0001
,
0010
0100
1000
0001
0010
0100
1000
0001
0010
0100
0010
0001
1000
0100
0010
0001
,
1000
0010
1000
0001
0100
0010
1000
0001
0100
0010
0100
0001
1000
0010
0100
0001
,
1000
0100
0010
0001
1000
0100
0010
0100
1000
0001
0010
0100
1000
0001
0010
0001
,
1000
0010
0100
0010
1000
0001
0100
0010
1000
0001
0010
0001
1000
0010
0100
0001
,
1000
0100
0010
0001
1000
0100
1000
0001
0010
0100
1000
0001
0010
0001
1000
0010
,
0100
0001
1000
0010
1000
0001
0100
0010
1000
0001
0100
0001
1000
0010
0100
0001
,
1000
0100
0010
0001
1000
0100
0010
0001
1000
0100
0010
0001
1000
0100
0010
0001
,
1000
0010
0100
0001
0000
0000
1000
0001
1000
0000
0000
0000
0001
0000
0100
0000
,
0010
1000
0001
0100
0000
0000
0010
1000
0010
0000
0000
0000
1000
0000
0001
0000
,
1000
0100
0010
0001
0000
0000
1000
0100
1000
0000
0000
0000
0001
0000
1000
0000
,
0001
0010
0100
1000
0000
0000
0001
0010
0001
0000
0000
0000
1000
0100
1000
0000
,
0001
0100
0010
1000
0000
0000
0001
0100
0001
0000
0000
0000
1000
0000
0001
0000
,
1000
0100
0010
0001
0000
0000
1000
0100
1000
0000
0000
0000
0001
0000
1000
0000
,
0010
0100
0001
1000
0000
0000
0010
0100
0010
0000
0000
0000
1000
0000
0001
0000
,
1000
0100
0010
0001
0000
0000
1000
0100
1000
0000
0001
0010
0001
0000
1000
0001
,
1000
0010
0000
1000
0000
0001
0000
1000
0000
0010
0000
0100
0000
0000
0000
0000
,
0001
1000
0100
0010
0100
1000
0001
0000
,
1000
0010
0100
0001
0000
1000
0010
0100
0002
0000
0000
0000
0000
0000
0000
0000
,
1003
0100
0010
0001
0000
1000
0100
0010
0002
0000
0000
0023
0000
0000
0230
0000
,
1300
0001
0100
0010
0000
1000
0001
0100
0020
0000
0000
0000
0000
0000
0000
0000
,
1030
0001
0010
0100
1000
0100
0010
0001
2000
0000
0000
0000
0000
0000
0000
0000
,
3001
0100
0010
1000
0010
0100
0001
1000
0010
0100
0001
0100
0010
1000
0001
0010
,
0100
1000
0001
0010
0100
1000
0100
0010
0001
1000
0100
0010
0001
0010
0100
1000
,
0001
0100
0001
1000
0010
0100
0001
1000
0010
0100
0010
1000
0001
0100
0010
1000
,
0002
0000
0003
0000
0000
0000
0000
1000
,
0001
0100
0010
1000
0000
0000
0010
0000
0100
0000
0001
0000
1000
0000
0010
0000
,
1000
0001
0010
0100
0000
0000
1000
0000
0100
0000
0010
0000
0100
0000
1000
0000
,
0001
1000
0010
0100
0000
0000
0001
0000
1000
0000
0010
0000
0100
0000
0001
0000
,
1000
0100
0010
0001
0000
0000
1000
0000
0100
0000
0010
0000
0001
0000
1000
0000
,
0001
0100
0010
1000
0000
0000
0001
0000
0100
0000
0010
0000
1000
0000
0001
0000
,
1000
0100
0010
0001
0000
0000
1000
0000
0100
0000
0010
0000
0001
0000
1000
0000
,
0010
0100
0001
1000
0000
0000
0010
0000
0100
0000
0001
0000
1000
0000
0100
0000
,
0010
0001
1000
0100
0000
0000
0010
0000
0001
0000
1000
0000
0010
0000
0100
0000
,
0001
0100
0010
1000
0001
0100
0010
1000
0010
0100
0001
1000
0010
0100
0001
1000
,
0100
0010
0001
1000
0100
0010
0001
1000
0100
0010
0100
1000
0001
0010
0100
1000
,
0001
0100
0001
1000
0010
0100
0001
1000
0010
0100
0010
1000
0001
0100
0010
1000
,
0001
0010
0100
1000
0001
0010
0100
0010
0001
1000
0100
0010
0001
1000
0100
1000
,
0001
0100
0010
0100
0001
1000
0010
0100
0001
1000
0100
1000
0001
0100
0010
1000
,
0001
0010
0100
1000
0001
0010
0001
1000
0100
0010
0001
1000
0100
1000
0001
0100
,
0010
1000
0001
0100
0001
1000
0010
0100
0001
1000
0010
1000
0001
0100
0010
1000
,
0001
1000
0001
1000
0001
1000
0001
1000
,
0001
0100
0001
1000
0010
0100
0001
1000
0010
0100
0010
1000
0001
0100
0010
1000
,
0001
0010
0001
1000
0100
0010
0001
1000
0100
0010
0100
1000
0001
0010
0100
1000
,
0001
0100
0001
1000
0010
0100
0001
1000
0010
0100
0010
1000
0001
0100
0010
1000
,
0002
0003
0000
0000
;

//---------------dance-single - ----------------
#NOTES:
     dance-single:
     Dossar:
     Medium:
     10:
     0.820,0.930,0.000,0.085,1.000:
0000
0000
0000
0000
,
0000
0000
0000
0000
,
0000
0000
0000
0000
,
0000
0000
0000
0000
,
1000
0010
0100
0001
0000
0001
0100
0010
1000
0000
0000
0000
1000
0000
0001
0000
,
1000
0100
0010
0001
0000
0001
0010
0100
1000
0000
0000
0000
1000
0000
0001
0000
,
1000
0010
0100
0001
0000
0001
0100
0010
1000
0000
0000
0000
1000
0000
0001
0000
,
1000
0100
0010
0001
1000
0100
1000
0001
0010
0100
1000
0001
0010
0100
0010
0001
,
1000
0010
0100
0001
0000
0000
1000
0000
0010
0000
0100
0000
0001
0000
1000
0000
,
0001
0010
0100
1000
0000
0000
0001
0000
0010
0000
0100
0000
0010
0000
0001
0000
,
1000
0010
0100
0001
0000
0000
1000
0000
0010
0000
1000
0000
0001
0000
0100
0000
,
0001
1000
0100
0010
0000
0000
0001
0000
1000
0000
0100
0000
0010
0000
0001
0000
,
1000
0010
0100
0010
1000
0001
0100
0010
1000
0001
0010
0001
1000
0010
0100
0001
,
1000
0100
0010
0001
1000
0100
1000
0001
0010
0100
1000
0001
0010
0001
1000
0010
,
0100
0001
1000
0010
1000
0001
0100
0010
1000
0001
0100
0001
1000
0010
0100
0001
,
1000
0100
0010
0001
1000
0100
0010
0001
1000
0100
0010
0001
1000
0100
0010
0001
,
1000
0010
0100
0001
0000
0000
1000
0001
1000
0000
0000
0000
0001
0000
0100
0000
,
0010
1000
0001
0100
0000
0000
0010
1000
0010
0000
0000
0000
1000
0000
0001
0000
,
1000
0100
0010
0001
0000
0000
1000
0100
1000
0000
0000
0000
0001
0000
1000
0000
,
0001
0010
0100
1000
0000
0000
0001
0010
0001
0000
0000
0000
1000
0100
1000
0000
,
0001
0100
0010
1000
0000
0000
0001
0100
0001
0000
0000
0000
1000
0000
0001
0000
,
1000
0100
0010
0001
0000
0000
1000
0100
1000
0000
0000
0000
0001
0000
1000
0000
,
0010
0100
0001
1000
0000
0000
0010
0100
0010
0000
0000
0000
1000
0000
0001
0000
,
1000
0100
0010
0001
0000
0000
1000
0100
1000
0000
0001
0010
0001
0000
1000
0001
,
1000
0010
0000
1000
0000
0001
0000
1000
0000
0010
0000
0100
0000
0000
0000
0000
,
0001
1000
0100
0010
0100
1000
0001
0000
,
1000
0010
0100
0001
0000
1000
0010
0100
0002
0000
0000
0000
0000
0000
0000
0000
,
1003
0100
0010
0001
0000
1000
0100
0010
0002
0000
0000
0023
0000
0000
0230
0000
,
1300
0001
0100
0010
0000
1000
0001
0100
0020
0000
0000
0000
0000
0000
0000
0000
,
1030
0001
0010
0100
1000
0100
0010
0001
2000
0000
0000
0000
0000
0000
0000
0000
,
3001
0100
0010
1000
0010
0100
0001
1000
0010
0100
0001
0100
0010
1000
0001
0010
,
0100
1000
0001
0010
0100
1000
0100
0010
0001
1000
0100
0010
0001
0010
0100
1000
,
0001
0100
0001
1000
0010
0100
0001
1000
0010
0100
0010
1000
0001
0100
0010
1000
,
0002
0000
0003
0000
0000
0000
0000
1000
,
0001
0100
0010
1000
0000
0000
0010
0000
0100
0000
0001
0000
1000
0000
0010
0000
,
1000
0001
0010
0100
0000
0000
1000
0000
0100
0000
0010
0000
0100
0000
1000
0000
,
0001
1000
0010
0100
0000
0000
0001
0000
1000
0000
0010
0000
0100
0000
0001
0000
,
1000
0100
0010
0001
0000
0000
1000
0000
0100
0000
0010
0000
0001
0000
1000
0000
,
0001
0100
0010
1000
0000
0000
0001
0000
0100
0000
0010
0000
1000
0000
0001
0000
,
1000
0100
0010
0001
0000
0000
1000
0000
0100
0000
0010
0000
0001
0000
1000
0000
,
0010
0100
0001
1000
0000
0000
0010
0000
0100
0000
0001
0000
1000
0000
0100
0000
,
0010
0001
1000
0100
0000
0000
0010
0000
0001
0000
1000
0000
0010
0000
0100
0000
,
0001
1000
0010
0100
0000
0000
0001
0000
1000
0000
0010
0000
0100
0000
0001
0000
,
1000
0100
0010
0001
0000
0000
1000
0000
0100
0000
0010
0000
0100
0000
1000
0000
,
0001
0100
0010
1000
0000
0000
0001
0000
0100
0000
0001
0000
1000
0000
0010
0000
,
1000
0001
0010
0100
0000
0000
1000
0000
0100
0000
0010
0000
0100
0000
1000
0000
,
0001
0100
0010
0100
0001
1000
0010
0100
0001
1000
0100
1000
0001
0100
0010
1000
,
0001
0010
0100
1000
0001
0010
0001
1000
0100
0010
0001
1000
0100
1000
0001
0100
,
0010
1000
0001
0100
0001
1000
0010
0100
0001
1000
0010
1000
0001
0100
0010
1000
,
0001
1000
0001
1000
0001
1000
0001
1000
,
0001
0100
0001
1000
0010
0100
0001
1000
0010
0100
0010
1000
0001
0100
0010
1000
,
0001
0010
0001
1000
0100
0010
0001
1000
0100
0010
0100
1000
0001
0010
0100
1000
,
0001
0100
0001
1000
0010
0100
0001
1000
0010
0100
0010
1000
0001
0100
0010
1000
,
0002
0003
0000
0000
;

//---------------dance-double - ----------------
#NOTES:
     dance-double:
     Dossar:
     Challenge:
     10:
     0.772,0.930,0.000,0.106,0.842: // measure 1
00000000
00000000
00000000
00000000
,  // measure 2
00000000
00000000
00000000
00000000
,  // measure 3
00000000
00000000
00000000
00000000
,  // measure 4
00000000
00000000
00000000
00000000
,  // measure 5
10000000
00010000
10000000
00010000
00000000
01000000
00001000
01000000
00001000
00000000
00000000
00000000
00010000
00000000
00000100
00000000
,  // measure 6
00000010
00000001
00000010
00000001
00000000
00001000
00000100
00001000
00000100
00000000
00000000
00000000
00010000
00000000
00001000
00000000
,  // measure 7
01000000
00010000
01000000
00010000
00000000
00100000
00001000
00100000
00001000
00000000
00000000
00000000
00010000
00000000
00000100
00000000
,  // measure 8
00010000
00001000
00010000
00000100
00001000
00000001
00000100
00000010
00000100
00000001
00001000
00000100
00010000
00001000
00010000
00001000
,  // measure 9
00100000
01000000
00100000
01000000
10000000
00000000
00010000
00000000
01000000
00000000
00001000
00000000
00010000
00000000
00000100
00000000
,  // measure 10
00001000
00000001
00001000
00000001
00000100
00000000
00000010
00000000
00010000
00000000
00001000
00000000
00100000
00000000
00010000
00000000
,  // measure 11
01000000
00001000
01000000
00001000
00010000
00000000
00000100
00000000
00000010
00000000
00000001
00000000
00001000
00000000
00000100
00000000
,  // measure 12
00010000
00001000
00010000
00001000
00100000
00000000
00010000
00000000
10000000
00000000
00100000
00000000
01000000
00000000
00010000
00000000
,  // measure 13
00100000
00001000
00100000
00001000
00010000
00000000
00000010
00000000
00000100
00000000
00000001
00000000
00001000
00000000
00000100
00000000
,  // measure 14
00000010
00000001
00000010
00000001
00001000
00000000
00000100
00000000
00010000
00000000
00001000
00000000
00100000
00000000
00010000
00000000
,  // measure 15
10000000
00100000
10000000
00100000
01000000
00000000
00001000
00000000
00010000
00000000
00000010
00000000
00000100
00000000
00000001
00000000
,  // measure 16
00001000
00000100
00001000
00000100
00010000
00000000
00001000
00000000
00100000
00000000
00010000
00000000
10000000
00000000
01000000
00000000
,  // measure 17
00100000
00001000
00100000
00001000
00000000
00000000
00010000
00000010
00010000
00000000
00000000
00000000
00001000
00000000
00100000
00000000
,  // measure 18
00010000
10000000
00010000
10000000
00000000
00000000
00001000
01000000
00001000
00000000
00000000
00000000
00010000
00000000
00000100
00000000
,  // measure 19
00000010
00000001
00000010
00000001
00000000
00000000
00001000
00000100
00001000
00000000
00000000
00000000
00000100
00000000
00010000
00000000
,  // measure 20
00001000
00100000
00001000
00100000
00000000
00000000
00010000
10000000
00010000
00000000
00000000
00000000
10000000
00000000
00100000
00000000
,  // measure 21
01000000
00010000
01000000
00001000
00010000
00000000
00000100
00000000
00001000
00000000
00000000
00000000
00000001
00000000
00000010
00000000
,  // measure 22
00000100
00001000
00000100
00010000
00001000
00000000
00100000
00000000
00010000
00000000
00000000
00000000
10000000
00000000
01000000
00000000
,  // measure 23
00100000
00010000
00100000
00001000
00010000
00000000
00000010
00000000
00001000
00000000
00000000
00000000
00000001
00000000
00000100
00000000
,  // measure 24
00000010
00001000
00000010
00010000
00001000
00000000
00100000
00010000
10000000
00000000
01000000
00100000
00010000
00000000
00100000
00001000
,  // measure 25
00020000
00000000
00000000
00000000
,  // measure 26
00030000
00000000
00000000
00000000
,  // measure 27
00001000
00100000
00010000
01000000
00100000
10000000
00100000
01000000
00020000
00000000
00000000
00000000
00000000
00000000
00000000
00000000
,  // measure 28
00130000
00001000
00010000
00000100
00001000
00000100
00000010
00000001
00002000
00000000
00000000
00003020
00000000
00000000
00020030
00000000
,  // measure 29
00031000
00100000
00010000
00100000
01000000
10000000
00010000
01000000
00002000
00000000
00000000
00000000
00000000
00000000
00000000
00000000
,  // measure 30
00013000
00000010
00001000
00000010
00000100
00000001
00001000
00000100
00020000
00000000
00000000
00000000
00002000
00000000
00003000
00000000
,  // measure 31
00031000
00100000
00010000
10000000
00100000
01000000
00100000
10000000
00010000
00100000
00001000
00100000
00001000
00010000
00000010
00001000
,  // measure 32
00000001
00000100
00000010
00001000
00000001
00001000
00000100
00010000
00001000
01000000
00001000
00010000
00001000
01000000
00010000
01000000
,  // measure 33
00100000
10000000
00010000
01000000
00001000
00010000
00000100
00010000
00001000
01000000
00010000
10000000
00010000
00100000
00001000
00100000
,  // measure 34
00020000
00000000
00030000
00000000
00000000
00000000
00000000
00010000
,  // measure 35
10000000
01000000
00100000
00010000
00000000
00000000
00100000
00000000
00001000
00000000
00010000
00000000
00000100
00000000
00000010
00000000
,  // measure 36
00000001
00001000
00000100
00010000
00000000
00000000
00001000
00000000
00100000
00000000
00010000
00000000
10000000
00000000
00100000
00000000
,  // measure 37
01000000
00010000
10000000
00100000
00000000
00000000
01000000
00000000
00001000
00000000
00010000
00000000
00000010
00000000
00001000
00000000
,  // measure 38
00000001
00000100
00000010
00001000
00000000
00000000
00000100
00000000
00010000
00000000
00001000
00100000
00010000
00000000
10000000
00000000
,  // measure 39
00001000
00100000
00010000
00100000
00001000
00000000
00010000
00000000
00000010
00000000
00001000
00000000
00000001
00000000
00000010
00000000
,  // measure 40
00000100
00010000
00001000
00010000
00000100
00000000
00010000
00000000
00001000
00000000
00100000
00000000
01000000
00000000
10000000
00000000
,  // measure 41
00010000
01000000
00001000
01000000
00010000
00000000
00100000
00000000
00001000
00000000
00010000
00000000
00000100
00000000
00000010
00000000
,  // measure 42
00000001
00001000
00000100
00001000
00000001
00000000
00001000
00000000
00000100
00000000
00010000
00000000
00001000
00000000
00100000
00000000
,  // measure 43
00010000
10000000
01000000
10000000
00010000
00000000
01000000
00000000
00001000
00000000
00010000
00000000
00000010
00000000
00001000
00000000
,  // measure 44
00000001
00000100
00000010
00000100
00000001
00000000
00001000
00000000
00000100
00000000
00010000
00000000
00001000
00000000
00100000
00000000
,  // measure 45
01000000
10000000
00010000
10000000
01000000
00000000
00100000
00000000
00001000
00000000
00010000
00000000
00000010
00000000
00001000
00000000
,  // measure 46
00000100
00010000
00001000
00010000
00000100
00000000
00000010
00000000
00000001
00000000
00001000
00000000
00000100
00000000
00010000
00000000
,  // measure 47
00001000
00100000
00010000
00100000
00001000
00000000
01000000
00000000
00010000
00000000
00100000
00000000
00001000
00000000
00010000
00000000
,  // measure 48
00000010
00010000
00001000
00010000
00000010
00000000
00001000
00000000
00000100
00000000
00010000
00000000
00001000
00000000
00100000
00000000
,  // measure 49
00001000
00100000
00010000
00100000
00001000
00000000
01000000
00000000
00010000
00000000
00100000
00000000
00001000
00000000
00010000
00000000
,  // measure 50
00000100
00000010
00000001
00000010
00000100
00000000
00001000
00000100
00010000
00000000
00001000
01000000
00010000
00000000
10000000
00000000
,  // measure 51
00100000
01000000
00010000
01000000
00001000
00010000
00001000
00010000
00000100
00001000
00000100
00000010
00000001
00001000
00000100
00010000
,  // measure 52
00001000
01000000
00001000
00010000
00000100
00001000
00000100
00000010
00000100
00010000
00001000
00100000
00010000
00100000
01000000
10000000
,  // measure 53
00010000
01000000
00010000
00100000
00001000
00100000
00001000
00010000
00000010
00001000
00000010
00000100
00000001
00001000
00000100
00010000
,  // measure 54
00002000
00003000
00000000
00000000
;
