#TITLE:gentle stress;
#SUBTITLE:;
#ARTIST:DJ Swan;
#TITLETRANSLIT:;
#SUBTITLETRANSLIT:;
#ARTISTTRANSLIT:;
#CREDIT:;
#BANNER:../ddrstream fallback-bn.png;
#BACKGROUND:../ddrstream fallback-bg.png;
#LYRICSPATH:;
#CDTITLE:;
#MUSIC:gentle stress.ogg;
#OFFSET:0.000;
#SAMPLESTART:64.420;
#SAMPLELENGTH:10.930;
#SELECTABLE:YES;
#DISPLAYBPM:175.000;
#BPMS:0.000=175.020;
#STOPS:;
#BGCHANGES:;

//---------------dance-single - ----------------
#NOTES:
     dance-single:
     Dossar:
     Hard:
     12:
     0.968,1.000,0.058,0.710,0.993:
0000
0000
0000
0000
,
0000
0000
0000
0000
,
0000
0000
0000
0000
,
2001
3000
0001
0000
1000
0000
0001
0000
,
1000
0100
0010
0001
,
2000
3000
0010
0000
1000
0000
0010
0000
,
1000
0100
0010
0001
,
0200
0300
0010
0000
0100
0000
0010
0000
,
1000
0100
0010
0001
,
0200
0300
0001
0000
0100
0000
0001
0000
,
2000
3000
0001
0000
1000
0000
0001
0000
,
0020
0130
0010
0000
0100
0010
0100
0000
,
1000
0001
1000
0000
0001
1000
0001
0000
,
0020
0031
0010
0000
0001
0010
0001
0000
,
0100
0010
0100
0000
0010
0100
0010
0000
,
2000
3100
1000
0000
0100
1000
0100
0000
,
1000
0001
1000
0000
0001
1000
0001
0000
,
0200
0310
0100
0000
0010
0100
0010
0000
,
2000
3001
1000
0000
0001
1000
0001
0000
,
1000
0010
0100
0001
1000
0010
0100
0001
1000
0010
0100
0010
1000
0001
1000
0100
,
0010
0001
1000
0100
0010
0001
1000
0100
0010
0100
1000
0001
0010
0100
1000
0001
,
0100
0010
1000
0001
0100
0010
1000
0001
0100
0010
1000
0010
0100
0001
1000
0001
,
0010
0100
1000
0001
0010
0100
1000
0100
0010
0001
1000
0100
0010
0001
1000
0010
,
1000
0001
0100
0010
1000
0001
0100
0001
1000
0010
0100
0010
1000
0001
0100
0010
,
1000
0001
0010
0100
1000
0001
0010
0100
1000
0001
0010
0100
0010
0001
1000
0100
,
1000
0001
0010
0001
1000
0010
1000
0001
0100
0010
1000
0001
0100
0001
1000
0100
,
0010
0001
0010
0100
1000
0001
0010
0100
1000
0001
0010
0001
1000
0100
0010
0001
,
2000
3000
0000
0000
0000
0000
0002
0003
,
0200
0300
0000
0020
0030
0000
2000
3000
,
0002
0003
0000
0000
0000
0000
2000
3000
,
0200
0000
0300
0000
0000
0000
0010
0001
0020
0000
0030
0002
0000
0003
2000
0000
,
3020
0030
0000
0000
0000
0000
0000
0000
,
2000
3000
0000
0020
0030
0000
0200
0300
,
0002
0003
0000
0000
0000
0000
0200
0300
,
0020
0030
0000
2000
3002
0003
0000
0000
,
2000
3001
1000
0000
0001
1000
0001
0000
,
0010
0100
0010
0000
0100
0010
0100
0000
,
1000
0001
0100
0010
1000
0010
0100
0001
,
1000
0100
0010
0001
0010
0000
1001
0000
,
0001
0100
0010
1000
0001
0100
0010
1000
0001
0100
0010
0100
0001
1000
0001
0010
,
0100
1000
0001
0010
0100
1000
0001
0010
0100
0010
0001
1000
0100
0010
0001
1000
,
0010
0100
0001
1000
0010
0100
0001
1000
0010
0100
0001
0100
0010
1000
0001
1000
,
0100
0010
0001
1000
0100
0010
0001
0010
0100
1000
0001
0010
0100
1000
0001
0100
,
0001
1000
0010
0100
0001
1000
0010
1000
0001
0100
0010
0100
0001
1000
0010
0100
,
0001
1000
0100
0010
0001
1000
0100
0010
0001
1000
0100
0010
0100
1000
0001
0010
,
0001
1000
0100
1000
0001
0100
0001
1000
0010
0100
0001
1000
0010
0100
0001
1000
,
0200
0000
1300
0001
1000
0000
0001
0100
0001
1000
0010
0100
0001
0000
0100
0001
,
1000
0010
1000
0000
0001
0000
0100
0001
0100
0000
0001
0000
1000
0000
0100
0000
,
0010
0000
0001
2000
3000
0000
2000
3000
,
0001
0010
0001
0000
1000
0000
0001
1000
0001
0000
1000
0000
0100
0000
0010
0000
,
0001
0000
0011
0020
0030
1100
0000
0000
,
1000
0001
1000
0000
0010
0000
0100
0010
0100
0000
0010
0000
1000
0000
0001
0000
,
0010
0000
0100
0020
0030
0000
0010
0000
,
0001
1000
0001
0000
0100
0000
0010
0100
0010
0000
0100
0000
0001
0000
1000
0000
,
0002
0000
1003
0010
1000
0000
0001
0100
0001
1000
0010
0100
0001
0000
0100
0001
,
2000
3002
0023
0230
2300
3002
0023
0230
,
2300
0000
3002
0000
0023
0000
0230
0000
0300
0000
1000
0000
1000
0000
0000
1000
,
0002
0203
0320
2030
3002
0203
0320
2030
,
3002
0000
0203
0000
0320
0000
2030
0000
3000
0000
0001
0000
0001
0000
0000
0001
,
0010
0000
0200
0300
0000
2000
3000
0000
,
0002
0003
0000
0200
0300
0000
0020
0030
,
2000
3002
0023
0230
2300
3002
0023
0230
,
1300
0000
0001
0100
0001
0000
1000
0010
1000
0001
0100
0010
1000
0000
0010
0100
,
0001
1000
0010
0100
0001
1000
0010
1000
0001
0100
0010
0100
0001
1000
0010
0100
,
0001
1000
0100
0010
0001
1000
0100
0010
0001
1000
0100
0010
0100
1000
0001
0010
,
0001
1000
0100
1000
0001
0100
0001
1000
0010
0100
0001
1000
0010
0100
0010
1000
,
0001
1000
0100
0010
0001
1000
0100
0010
0001
1000
0100
1000
0001
0010
0001
1000
,
0010
0100
0001
0100
0010
1000
0001
0100
0001
1000
0010
0100
0001
1000
0010
1000
,
0001
0010
0100
1000
0001
0010
0001
1000
0100
0010
0001
1000
0100
0010
0001
1000
,
0010
0100
0001
1000
0010
0100
0010
1000
0001
0100
0010
1000
0001
1000
0100
0010
,
0001
1000
0100
0010
0001
0010
0100
1000
0001
0000
0000
0000
1001
0000
0000
0000
,
0110
0000
0000
0000
;

//---------------dance-single - ----------------
#NOTES:
     dance-single:
     Dossar:
     Challenge:
     13:
     1.000,1.000,0.038,0.480,1.000:
0000
0000
0000
0000
,
0000
0000
0000
0000
,
0000
0000
0000
0000
,
2001
3000
0001
0000
1000
0000
0001
0000
,
1000
0100
0010
0001
,
2000
3000
0010
0000
1000
0000
0010
0000
,
1000
0100
0010
0001
,
0200
0300
0010
0000
0100
0000
0010
0000
,
1000
0100
0010
0001
,
0200
0300
0001
0000
0100
0000
0001
0000
,
2000
3000
0001
0000
1000
0000
0001
0000
,
0020
0130
0010
0000
0100
0010
0100
0000
,
1000
0001
1000
0000
0001
1000
0001
0000
,
0020
0031
0010
0000
0001
0010
0001
0000
,
0100
0010
0100
0000
0010
0100
0010
0000
,
2000
3100
1000
0000
0100
1000
0100
0000
,
1000
0001
1000
0000
0001
1000
0001
0000
,
0200
0310
0100
0000
0010
0100
0010
0000
,
2000
3001
1000
0000
0001
1000
0001
0000
,
1000
0010
0100
0001
1000
0010
0100
0001
1000
0010
0100
0010
1000
0001
1000
0100
,
0010
0001
1000
0100
0010
0001
1000
0100
0010
0100
1000
0001
0010
0100
1000
0001
,
0100
0010
1000
0001
0100
0010
1000
0001
0100
0010
1000
0010
0100
0001
1000
0001
,
0010
0100
1000
0001
0010
0100
1000
0100
0010
0001
1000
0100
0010
0001
1000
0010
,
1000
0001
0100
0010
1000
0001
0100
0001
1000
0010
0100
0010
1000
0001
0100
0010
,
1000
0001
0010
0100
1000
0001
0010
0100
1000
0001
0010
0100
0010
0001
1000
0100
,
1000
0001
0010
0001
1000
0010
1000
0001
0100
0010
1000
0001
0100
0001
1000
0100
,
0010
0001
0010
0100
1000
0001
0010
0100
1000
0001
0010
0001
1000
0100
0010
0001
,
1000
0010
1000
0001
0100
0010
1000
0001
0100
0010
1000
0010
0100
0001
1000
0010
,
1000
0001
0010
0100
1000
0001
0010
0100
1000
0001
0010
0001
1000
0100
1000
0001
,
0100
0010
1000
0010
0100
0001
1000
0010
1000
0001
0100
0010
1000
0001
0100
0001
,
1000
0100
0010
0001
1000
0100
1000
0001
0010
0100
1000
0001
0010
0100
1000
0001
,
0100
0010
1000
0001
0100
0010
0100
0001
1000
0010
0100
0001
1000
0001
0010
0100
,
1000
0001
0010
0100
1000
0100
0010
0001
1000
0100
0010
0001
0010
0100
1000
0001
,
0100
0010
1000
0010
0100
0001
1000
0010
1000
0001
0100
0010
1000
0001
0100
0001
,
1000
0100
0010
0001
1000
0100
0010
0001
1000
0100
0010
0100
1000
0001
0010
0100
,
2000
3001
1000
0000
0001
1000
0001
0000
,
0010
0100
0010
0000
0100
0010
0100
0000
,
1000
0001
0100
0010
1000
0010
0100
0001
,
1000
0100
0010
0001
0010
0000
1001
0000
,
0001
0100
0010
1000
0001
0100
0010
1000
0001
0100
0010
0100
0001
1000
0001
0010
,
0100
1000
0001
0010
0100
1000
0001
0010
0100
0010
0001
1000
0100
0010
0001
1000
,
0010
0100
0001
1000
0010
0100
0001
1000
0010
0100
0001
0100
0010
1000
0001
1000
,
0100
0010
0001
1000
0100
0010
0001
0010
0100
1000
0001
0010
0100
1000
0001
0100
,
0001
1000
0010
0100
0001
1000
0010
1000
0001
0100
0010
0100
0001
1000
0010
0100
,
0001
1000
0100
0010
0001
1000
0100
0010
0001
1000
0100
0010
0100
1000
0001
0010
,
0001
1000
0100
1000
0001
0100
0001
1000
0010
0100
0001
1000
0010
0100
0001
1000
,
0200
0000
1300
0001
1000
0000
0001
0100
0001
1000
0010
0100
0001
0000
0100
0001
,
1000
0010
1000
0001
0100
0010
1000
0001
0100
0010
1000
0010
0100
0001
1000
0010
,
1000
0001
0010
0100
1000
0001
0010
0100
1000
0001
0010
0001
1000
0100
1000
0001
,
0100
0010
1000
0010
0100
0001
1000
0010
1000
0001
0100
0010
1000
0001
0100
0001
,
1000
0100
0010
0001
1000
0100
1000
0001
0010
0100
1000
0001
0010
0100
1000
0001
,
0100
0010
1000
0001
0100
0010
0100
0001
1000
0010
0100
0001
1000
0001
0010
0100
,
1000
0001
0010
0100
1000
0100
0010
0001
1000
0100
0010
0001
0010
0100
1000
0001
,
0100
0010
1000
0010
0100
0001
1000
0010
1000
0001
0100
0010
1000
0001
0100
0001
,
2000
0000
3001
0100
0001
0000
1000
0010
1000
0001
0100
0010
1000
0000
0010
1000
,
0002
2003
3200
0320
0032
2003
3200
0320
,
0032
0000
2003
0000
3200
0000
0320
0000
0030
0000
0001
0000
0001
0000
0000
0001
,
2000
3020
0230
0302
2003
3020
0230
0302
,
2003
0000
3020
0000
0230
0000
0302
0000
0003
0000
1000
0000
1000
0000
0000
1000
,
0100
0000
0020
0030
0000
0002
0003
0000
,
2000
3000
0000
0020
0030
0000
0200
0300
,
0002
2003
3200
0320
0032
2003
3200
0320
,
0031
0000
1000
0010
1000
0000
0001
0100
0001
1000
0010
0100
0001
0000
0100
0010
,
1000
0001
0100
0010
1000
0001
0100
0001
1000
0010
0100
0010
1000
0001
0100
0010
,
1000
0001
0010
0100
1000
0001
0010
0100
1000
0001
0010
0100
0010
0001
1000
0100
,
1000
0001
0010
0001
1000
0010
1000
0001
0100
0010
1000
0001
0100
0010
0100
0001
,
1000
0001
0010
0100
1000
0001
0010
0100
1000
0001
0010
0001
1000
0100
1000
0001
,
0100
0010
1000
0010
0100
0001
1000
0010
1000
0001
0100
0010
1000
0001
0100
0001
,
1000
0100
0010
0001
1000
0100
1000
0001
0010
0100
1000
0001
0010
0100
1000
0001
,
0100
0010
1000
0001
0100
0010
0100
0001
1000
0010
0100
0001
1000
0001
0010
0100
,
1000
0001
0010
0100
1000
0100
0010
0001
1000
0000
0000
0000
1001
0000
0000
0000
,
0110
0000
0000
0000
;

//---------------dance-single - ----------------
#NOTES:
     dance-single:
     Dossar:
     Medium:
     11:
     0.865,1.000,0.058,1.000,0.600:
0000
0000
0000
0000
,
0000
0000
0000
0000
,
0000
0000
0000
0000
,
2001
3000
0001
0000
1000
0000
0001
0000
,
1000
0100
0010
0001
,
2000
3000
0010
0000
1000
0000
0010
0000
,
1000
0100
0010
0001
,
0200
0300
0010
0000
0100
0000
0010
0000
,
1000
0100
0010
0001
,
0200
0300
0001
0000
0100
0000
0001
0000
,
2000
3000
0001
0000
1000
0000
0001
0000
,
0020
0130
0010
0000
0100
0010
0100
0000
,
1000
0001
1000
0000
0001
1000
0001
0000
,
0020
0031
0010
0000
0001
0010
0001
0000
,
0100
0010
0100
0000
0010
0100
0010
0000
,
2000
3100
1000
0000
0100
1000
0100
0000
,
1000
0001
1000
0000
0001
1000
0001
0000
,
0200
0310
0100
0000
0010
0100
0010
0000
,
2000
3001
1000
0000
0001
1000
0001
0000
,
1000
0010
0100
0001
1000
0010
0100
0001
1000
0010
0100
0010
1000
0001
1000
0100
,
0010
0001
1000
0100
0010
0001
1000
0100
0010
0100
1000
0001
0010
0100
1000
0001
,
0100
0010
1000
0001
0100
0010
1000
0001
0100
0010
1000
0010
0100
0001
1000
0001
,
0010
0100
1000
0001
0010
0100
1000
0100
0010
0001
1000
0100
0010
0001
1000
0010
,
0200
0300
0010
0000
0100
0000
0010
0000
,
1000
0001
0100
0010
,
2000
3000
0100
0000
1000
0000
0002
0003
,
0020
0030
0001
0000
0200
0300
0010
0000
,
2000
3000
0000
0000
0000
0000
0002
0003
,
0200
0300
0000
0020
0030
0000
2000
3000
,
0002
0003
0000
0000
0000
0000
2000
3000
,
0200
0000
0300
0000
0000
0000
0010
0001
0020
0000
0030
0002
0000
0003
2000
0000
,
3020
0030
0000
0000
0000
0000
0000
0000
,
2000
3000
0000
0020
0030
0000
0200
0300
,
0002
0003
0000
0000
0000
0000
0200
0300
,
0020
0030
0000
2000
3002
0003
0000
0000
,
2000
3001
1000
0000
0001
1000
0001
0000
,
0010
0100
0010
0000
0100
0010
0100
0000
,
1000
0001
0100
0010
1000
0010
0100
0001
,
1000
0100
0010
0001
0010
0000
1001
0000
,
0001
0100
0010
1000
0001
0100
0010
1000
0001
0100
0010
0100
0001
1000
0001
0010
,
0100
1000
0001
0010
0100
1000
0001
0010
0100
0010
0001
1000
0100
0010
0001
1000
,
0010
0100
0001
1000
0010
0100
0001
1000
0010
0100
0001
0100
0010
1000
0001
1000
,
0100
0010
0001
1000
0100
0010
0001
0010
0100
1000
0001
0010
0100
1000
0001
0100
,
0010
1000
0010
0000
0100
0000
0001
0100
0001
0000
0100
0000
0010
0000
1000
0000
,
0001
0000
0010
0002
0003
0000
0002
0003
,
1000
0100
1000
0000
0001
0000
0100
0001
0100
0000
0001
0000
1000
0000
0010
0000
,
0200
0000
0301
1000
0001
0000
1000
0010
1000
0001
0100
0010
1000
0000
0010
1000
,
0001
0100
0001
0000
1000
0000
0010
1000
0010
0000
1000
0000
0001
0000
0010
0000
,
0100
0000
1000
0002
0003
0000
0002
0003
,
1000
0100
1000
0000
0001
0000
1000
0001
1000
0000
0001
0000
0010
0000
0100
0000
,
1000
0000
1100
0200
0300
0011
0000
0000
,
0001
1000
0001
0000
0100
0000
0010
0100
0010
0000
0100
0000
0001
0000
1000
0000
,
0100
0000
0010
0200
0300
0000
0100
0000
,
1000
0001
1000
0000
0010
0000
0100
0010
0100
0000
0010
0000
1000
0000
0001
0000
,
2000
0000
3001
0100
0001
0000
1000
0010
1000
0001
0100
0010
1000
0000
0010
1000
,
0002
2003
3200
0320
0032
2003
3200
0320
,
0032
0000
2003
0000
3200
0000
0320
0000
0030
0000
0001
0000
0001
0000
0000
0001
,
2000
3020
0230
0302
2003
3020
0230
0302
,
2003
0000
3020
0000
0230
0000
0302
0000
0003
0000
1000
0000
1000
0000
0000
1000
,
0100
0000
0020
0030
0000
0002
0003
0000
,
2000
3000
0000
0020
0030
0000
0200
0300
,
0002
2003
3200
0320
0032
2003
3200
0320
,
0031
0000
1000
0010
1000
0000
0001
0100
0001
1000
0010
0100
0001
0000
0100
0001
,
2000
3020
0230
0302
2003
3020
0230
0302
,
2003
0000
3020
0000
0230
0000
0302
0000
0003
0000
1000
0000
1000
0000
0000
1000
,
0200
0320
0032
2003
3200
0320
0032
2003
,
3200
0000
0320
0000
0032
0000
2003
0000
3000
0000
0001
0000
0001
0000
0000
0001
,
0100
0010
1000
0010
0100
0001
1000
0010
1000
0001
0100
0010
1000
0001
0100
0001
,
1000
0100
0010
0001
1000
0100
1000
0001
0010
0100
1000
0001
0010
0100
1000
0001
,
0100
0010
1000
0001
0100
0010
0100
0001
1000
0010
0100
0001
1000
0001
0010
0100
,
1000
0001
0010
0100
1000
0100
0010
0001
1000
0000
0000
0000
1001
0000
0000
0000
,
0110
0000
0000
0000
;

//---------------dance-double - ----------------
#NOTES:
     dance-double:
     Dossar:
     Challenge:
     12:
     0.950,1.000,0.355,1.000,0.700: // measure 1
00000000
00000000
00000000
00000000
,  // measure 2
00000000
00000000
00000000
00000000
,  // measure 3
00000000
00000000
00000000
00000000
,  // measure 4
20020000
30030000
00010000
00000000
01000000
00010000
10000000
00000000
,  // measure 5
00100000
00000000
10000000
00000000
00010000
01000000
00001000
00000000
,  // measure 6
00022000
00033000
00010000
00000000
00000100
00000010
00000001
00000000
,  // measure 7
00001000
00000000
00000010
00000000
00001000
00000010
00010000
00000000
,  // measure 8
00020020
00030030
00000010
00000000
00001000
00000010
00010000
00000000
,  // measure 9
00001000
00000000
00100000
00000000
01000000
00100000
00001000
00000000
,  // measure 10
00202000
00303000
00100000
00000000
01000000
10000000
00010000
00000000
,  // measure 11
20020000
30030000
10000000
00000000
00010000
01000000
00001000
00000000
,  // measure 12
00022000
00033000
00010000
00000000
00000100
00000000
00001000
00000000
,  // measure 13
00000001
00000100
00000010
00001000
,  // measure 14
00002002
00003003
00000001
00000000
00001000
00000000
00000010
00000000
,  // measure 15
00010000
00001000
00100000
01000000
,  // measure 16
02200000
03300000
00100000
00000000
00001000
00000000
00010000
00000000
,  // measure 17
00000010
00001000
00000001
00000100
,  // measure 18
00000202
00000303
00000001
00000000
00001000
00000000
00000010
00000000
,  // measure 19
00000220
00000330
00000100
00000000
00000001
00000000
00001000
00000000
,  // measure 20
00000001
00000100
00000010
00001000
00000001
00000100
00000010
00001000
00000001
00000100
00000010
00000100
00000001
00001000
00000100
00010000
,  // measure 21
00000100
00010000
00001000
01000000
00001000
00010000
00001000
01000000
00010000
01000000
00001000
00010000
00001000
01000000
00001000
01000000
,  // measure 22
00010000
10000000
01000000
00100000
00010000
10000000
01000000
00100000
00010000
00100000
01000000
10000000
00010000
00100000
00001000
00010000
,  // measure 23
00001000
00100000
00001000
00010000
00000100
00010000
00001000
00010000
00000100
00001000
00000100
00000010
00000001
00001000
00000100
00001000
,  // measure 24
00000001
00000100
00000010
00001000
00000001
00000100
00000010
00001000
00000001
00000100
00000010
00000100
00000001
00001000
00000100
00010000
,  // measure 25
00000100
00010000
00001000
01000000
00001000
00010000
00001000
01000000
00010000
01000000
00001000
00010000
00001000
01000000
00001000
01000000
,  // measure 26
00010000
10000000
01000000
00100000
00010000
10000000
01000000
00100000
00010000
00100000
01000000
10000000
00010000
00100000
00001000
00010000
,  // measure 27
00001000
00100000
00001000
00010000
00000100
00010000
00001000
00010000
00000100
00001000
00000100
00000010
00000001
00001000
00000100
00001000
,  // measure 28
00000002
00000003
00000000
00000000
00000000
00000000
00001000
00000000
,  // measure 29
00000010
00000000
00000000
00020020
00030030
00000000
00010000
00000000
,  // measure 30
00022000
00033000
00000000
00000000
00000000
00000000
00001000
00000000
,  // measure 31
00202000
00000000
00303000
00000000
00000000
00000000
00100000
00001000
00010000
00000000
00000000
00000100
00000000
00000000
00001000
00000000
,  // measure 32
00002002
00003003
00000000
00000000
00000000
00000000
00000000
00000000
,  // measure 33
00002020
00003030
00000000
00000010
00000000
00000000
00020020
00030030
,  // measure 34
00022000
00033000
00000000
00000000
00000000
00000000
00001000
00000000
,  // measure 35
00220000
00330000
00000000
01000000
10000000
00000000
00000000
00000000
,  // measure 36
20020000
00000000
00000000
30030000
,  // measure 37
00000000
00000000
00000000
00000000
,  // measure 38
10000000
00010000
10000000
00010000
01000000
00001000
01000000
00001000
,  // measure 39
00010000
00000100
00010000
00000100
00000010
00000000
00000011
00000000
,  // measure 40
00000001
00001000
00000001
00000000
00000100
00000000
00000010
00001000
00000010
00000000
00010000
00000000
00001000
00000000
00100000
00000000
,  // measure 41
00010000
00000000
10000000
20020000
00000000
30030000
10010000
00000000
,  // measure 42
10000000
00010000
10000000
00000000
00100000
00000000
01000000
00010000
01000000
00000000
00001000
00000000
00010000
00000000
00000100
00000000
,  // measure 43
00000010
00000000
00000001
00000022
00000000
00000033
00000000
00000000
,  // measure 44
00000001
00000010
00000001
00000000
00001000
00000000
00000100
00000010
00000100
00000000
00010000
00000000
00001000
00000000
00100000
00000000
,  // measure 45
00010000
00000000
10000000
22000000
00000000
33000000
11000000
00000000
,  // measure 46
01000000
10000000
01000000
00000000
00100000
00000000
00001000
00010000
00001000
00000000
00010000
00000000
00000100
00000000
00000010
00000000
,  // measure 47
00000100
00000000
00001000
00000100
00001000
00000000
00000100
00010000
00000100
00010000
00001000
00100000
00001000
00000000
00100000
00010000
,  // measure 48
10000000
00010000
01000000
00100000
10000000
00010000
01000000
00100000
10000000
00010000
01000000
00100000
10000000
00010000
00100000
00001000
,  // measure 49
00100000
00001000
00010000
00000010
00010000
00001000
00010000
00000010
00001000
00000010
00010000
00001000
00010000
00000010
00010000
00000010
,  // measure 50
00001000
00000001
00000010
00000100
00001000
00000001
00000010
00000100
00001000
00000100
00000010
00000001
00001000
00000100
00010000
00001000
,  // measure 51
00010000
00000000
00000100
00000000
00010000
00000000
00001000
00000000
00200000
00300000
00010000
00000000
10000000
00000000
01000000
00000000
10000000
00000000
00010000
00000000
00200000
00300000
01000000
00000000
10000000
00000000
00010000
00000000
00100000
00000000
00010000
00000000
,  // measure 52
10000000
00100000
01000000
00010000
10000000
00100000
01000000
00010000
10000000
00100000
01000000
00100000
10000000
00010000
00100000
00001000
,  // measure 53
00100000
00001000
00010000
00000010
00010000
00001000
00010000
00000010
00001000
00000010
00010000
00001000
00010000
00000010
00010000
00000010
,  // measure 54
00001000
00000001
00000010
00000100
00001000
00000001
00000010
00000100
00001000
00000100
00000010
00000001
00001000
00000100
00010000
00001000
,  // measure 55
00010000
00000000
00001000
00000000
00100000
00000000
00010000
10000000
00010000
01000000
00100000
10000000
00010000
00000000
10000000
00010000
,  // measure 56
20000000
30200000
20300000
30020000
02030000
03002000
00203000
00302000
,  // measure 57
00023000
00000000
00030200
00000000
00000320
00000000
00000032
00000000
00000003
00000000
00001000
00000000
00001000
00000000
00000000
00001000
,  // measure 58
00000002
00000203
00000302
00002003
00003020
00020030
00030200
00020300
,  // measure 59
00032000
00000000
00203000
00000000
02300000
00000000
23000000
00000000
30000000
00000000
00010000
00000000
00010000
00000000
00000000
00010000
,  // measure 60
10000000
00000000
22000000
33000000
00000000
00220000
00330000
00000000
,  // measure 61
00002200
00003300
00000000
00000022
00000033
00000000
00002002
00003003
,  // measure 62
00000002
00000023
00000032
00002003
00003200
00020300
00032000
00023000
,  // measure 63
00030100
00000000
00001000
00000000
00000001
00000000
00001000
00000000
00000010
00000100
00000010
00001000
00000001
00000000
00001000
00000001
,  // measure 64
00000200
00000320
00000230
00000302
00020003
00030200
00002300
00003200
,  // measure 65
00020300
00000000
00032000
00000000
00203000
00000000
02300000
00000000
03000000
00000000
10000000
00000000
10000000
00000000
00000000
00010000
,  // measure 66
00200000
02300000
03200000
00320000
02030000
03002000
00203000
00302000
,  // measure 67
00023000
00000000
00030200
00000000
00000320
00000000
00000032
00000000
00000003
00000000
00001000
00000000
00001000
00000000
00000000
00000001
,  // measure 68
00000100
00000000
00000202
00000303
00000000
00002020
00003030
00000000
,  // measure 69
02020000
03030000
00000000
20200000
30300000
00000000
20020000
30030000
,  // measure 70
10000000
00001000
00010000
00000010
10000000
00001000
01000000
00000100
,  // measure 71
10000000
00001000
00010000
00000010
00000100
00000000
00000202
00000303
,  // measure 72
00001001
00000000
00000000
00000000
;
