#TITLE:butterfly (UPSWING MIX);
#SUBTITLE:;
#ARTIST:SMILE.dk;
#TITLETRANSLIT:;
#SUBTITLETRANSLIT:;
#ARTISTTRANSLIT:;
#CREDIT:;
#BANNER:../ddrstream fallback-bn.png;
#BACKGROUND:../ddrstream fallback-bg.png;
#LYRICSPATH:;
#CDTITLE:;
#MUSIC:butterfly (UPSWING MIX).ogg;
#OFFSET:0.000;
#SAMPLESTART:18.360;
#SAMPLELENGTH:11.220;
#SELECTABLE:YES;
#DISPLAYBPM:170.000;
#BPMS:0.000=170.009;
#STOPS:;
#BGCHANGES:;

//---------------dance-single - ----------------
#NOTES:
     dance-single:
     Dossar:
     Challenge:
     14:
     1.000,1.000,0.011,0.000,1.000:
0000
0000
0000
0000
,
0000
0000
0000
0000
,
0000
0000
0000
0000
,
0000
0000
0000
0000
,
1000
0010
0100
0001
1000
0000
1001
0000
,
0001
0100
0001
1000
0010
0100
0001
1000
0001
0100
0010
1000
0001
1000
0010
0100
,
0001
1000
0001
0010
0100
1000
0100
0010
0001
1000
0100
1000
0001
0010
0100
1000
,
0001
0100
0010
0100
0001
1000
0010
0100
0010
1000
0001
0100
0010
1000
0010
0100
,
0001
1000
0100
1000
0001
0010
0100
1000
0001
0100
0001
1000
0010
0100
0001
1000
,
0100
1000
0001
0010
0100
1000
0100
0010
0001
1000
0100
1000
0001
0010
0100
1000
,
0001
0100
0001
1000
0010
1000
0001
0100
0010
1000
0010
0100
0001
1000
0010
0100
,
0001
1000
0100
1000
0001
0010
0001
1000
0100
0010
0001
0010
0100
1000
0001
0010
,
0001
1000
0010
1000
0001
0100
0010
0100
0001
1000
0001
0010
0100
1000
0100
0010
,
0001
1000
0010
1000
0001
0100
0010
0100
0001
1000
0010
1000
0001
0100
0010
0100
,
0001
1000
0001
0010
0100
1000
0100
0010
0001
1000
0100
0010
0100
1000
0001
1000
,
0010
0100
0001
0100
0010
1000
0001
1000
0010
0100
0001
1000
0001
0100
0010
1000
,
0001
0010
0100
1000
0100
0010
0001
1000
0001
0100
0010
1000
0010
0100
0001
1000
,
0001
0010
0100
0010
0001
1000
0100
0010
0001
0010
0100
1000
0001
0010
0100
0010
,
0001
1000
0010
1000
0001
0100
0010
0100
0001
1000
0010
1000
0001
0100
0010
0100
,
0001
1000
0100
1000
0001
0010
0100
1000
0100
0010
0001
1000
0100
1000
0001
0010
,
0001
1000
0010
0100
0001
1000
0010
1000
0001
0100
0010
1000
0001
0100
0010
1000
,
0001
0000
0000
0000
0000
0000
0000
0000
0000
0000
0000
0000
1000
0010
0100
0001
,
1000
0010
1000
0001
0100
0010
1000
0001
1000
0010
0100
0001
1000
0001
0100
0010
,
1000
0001
1000
0100
0010
0001
0010
0100
1000
0001
0010
0001
1000
0100
0010
0001
,
1000
0010
0100
0010
1000
0001
0100
0010
0100
0001
1000
0010
0100
0001
0100
0010
,
1000
0001
0010
0001
1000
0100
0010
0001
1000
0010
1000
0001
0100
0010
1000
0001
,
0010
0001
1000
0100
0010
0001
0010
0100
1000
0001
0010
0001
1000
0100
0010
0001
,
1000
0010
1000
0001
0100
0001
1000
0010
0100
0001
0100
0010
1000
0001
0100
0010
,
1000
0001
0010
0001
1000
0100
1000
0001
0010
0100
1000
0100
0010
0001
1000
0100
,
1000
0001
0100
0001
1000
0010
0100
0010
1000
0001
1000
0100
0010
0001
0010
0100
,
1000
0001
0100
0001
1000
0010
0100
0010
1000
0001
0100
0001
1000
0010
0100
0010
,
1000
0001
1000
0100
0010
0001
0010
0100
1000
0001
0010
0100
0010
0001
1000
0001
,
0100
0010
1000
0010
0100
0001
1000
0001
0100
0010
1000
0001
1000
0010
0100
0001
,
1000
0100
0010
0001
0010
0100
1000
0001
1000
0010
0100
0001
0100
0010
1000
0001
,
1000
0100
0010
0100
1000
0001
0010
0100
1000
0100
0010
0001
1000
0100
0010
0100
,
1000
0001
0100
0001
1000
0010
0100
0010
1000
0001
0100
0001
1000
0010
0100
0010
,
1000
0001
0010
0001
1000
0100
0010
0001
0010
0100
1000
0001
0010
0001
1000
0100
,
1000
0001
0100
0010
1000
0001
0100
0001
1000
0010
0100
0001
1000
0010
0100
0001
,
1000
0001
1000
0100
0010
0001
0010
0100
1000
0001
0010
0001
1000
0100
0010
0001
,
1000
0010
0100
0010
1000
0001
0100
0010
0100
0001
1000
0010
0100
0001
0100
0010
,
1000
0001
0010
0001
1000
0100
0010
0001
1000
0010
1000
0001
0100
0010
1000
0001
,
0010
0001
1000
0100
0010
0001
0010
0100
1000
0001
0010
0001
1000
0100
0010
0001
,
1000
0010
1000
0001
0100
0001
1000
0010
0100
0001
0100
0010
1000
0001
0100
0010
,
1000
0001
0010
0001
1000
0100
1000
0001
0010
0100
1000
0100
0010
0001
1000
0100
,
1000
0001
0100
0001
1000
0010
0100
0010
1000
0001
1000
0100
0010
0001
0010
0100
,
1000
0001
0100
0001
1000
0010
0100
0010
1000
0001
0100
0001
1000
0010
0100
0010
,
1000
0001
1000
0100
0010
0001
0010
0100
1000
0001
0010
0100
0010
0001
1000
0001
,
0100
0010
1000
0010
0100
0001
1000
0001
0100
0010
1000
0001
1000
0010
0100
0001
,
1000
0100
0010
0001
0010
0100
1000
0001
1000
0010
0100
0001
0100
0010
1000
0001
,
1000
0100
0010
0100
1000
0001
0010
0100
1000
0100
0010
0001
1000
0100
0010
0100
,
1000
0001
0100
0001
1000
0010
0100
0010
1000
0001
0100
0001
1000
0010
0100
0010
,
1000
0001
0010
0001
1000
0100
0010
0001
0010
0100
1000
0001
0010
0001
1000
0100
,
1000
0001
0100
0010
1000
0001
0100
0001
1000
0010
0100
0001
1000
0010
0100
0001
,
1000
0100
1000
0100
0010
0001
0010
0100
1000
0001
0010
0001
1000
0100
0010
0001
,
1000
0010
0100
0010
1000
0001
0100
0010
0100
0001
1000
0010
0100
0001
0100
0010
,
1000
0001
0010
0001
1000
0100
0010
0001
1000
0010
1000
0001
0100
0010
1000
0001
,
0010
0001
1000
0100
0010
0001
0010
0100
1000
0001
0010
0001
1000
0100
0010
0001
,
1000
0010
1000
0001
0100
0001
1000
0010
0100
0001
0100
0010
1000
0001
0100
0010
,
1000
0001
0010
0001
1000
0100
1000
0001
0010
0100
1000
0100
0010
0001
1000
0100
,
1000
0001
0100
0001
1000
0010
0100
0010
1000
0001
1000
0100
0010
0001
0010
0100
,
1000
0001
0100
0001
1000
0010
0100
0010
1000
0001
0100
0001
1000
0010
0100
0010
,
1000
0001
1000
0100
0010
0001
0010
0100
1000
0001
0010
0100
0010
0001
1000
0001
,
0100
0000
0000
0000
;

//---------------dance-single - ----------------
#NOTES:
     dance-single:
     Dossar:
     Hard:
     13:
     1.000,1.000,0.011,0.000,1.000:
0000
0000
0000
0000
,
0000
0000
0000
0000
,
0000
0000
0000
0000
,
0000
0000
0000
0000
,
1000
0010
0100
0001
1000
0000
1001
0000
,
0001
0100
0001
1000
0010
0100
0001
1000
0001
0100
0010
1000
0001
1000
0010
0100
,
0001
1000
0001
0010
0100
1000
0100
0010
0001
1000
0100
1000
0001
0010
0100
1000
,
0001
0100
0010
0100
0001
1000
0010
0100
0010
1000
0001
0100
0010
1000
0010
0100
,
0001
1000
0100
1000
0001
0010
0100
1000
0001
0100
0001
1000
0010
0100
0001
1000
,
0100
1000
0001
0010
0100
1000
0100
0010
0001
1000
0100
1000
0001
0010
0100
1000
,
0001
0100
0001
1000
0010
1000
0001
0100
0010
1000
0010
0100
0001
1000
0010
0100
,
0001
1000
0100
1000
0001
0010
0001
1000
0100
0010
0001
0010
0100
1000
0001
0010
,
0001
1000
0010
1000
0001
0100
0010
0100
0001
1000
0001
0010
0100
1000
0100
0010
,
0001
1000
0010
1000
0001
0100
0010
0100
0001
1000
0010
1000
0001
0100
0010
0100
,
0001
1000
0001
0010
0100
1000
0100
0010
0001
1000
0100
0010
0100
1000
0001
1000
,
0010
0100
0001
0100
0010
1000
0001
1000
0010
0100
0001
1000
0001
0100
0010
1000
,
0001
0010
0100
1000
0100
0010
0001
1000
0001
0100
0010
1000
0010
0100
0001
1000
,
0001
0010
0100
0010
0001
1000
0100
0010
0001
0010
0100
1000
0001
0010
0100
0010
,
0001
1000
0010
1000
0001
0100
0010
0100
0001
1000
0010
1000
0001
0100
0010
0100
,
0001
1000
0100
1000
0001
0010
0100
1000
0100
0010
0001
1000
0100
1000
0001
0010
,
0001
1000
0010
0100
0001
1000
0010
1000
0001
0100
0010
1000
0001
0100
0010
1000
,
0001
0000
0000
0000
0000
0000
1000
0010
,
0100
0000
0000
0001
1000
0000
0100
0000
0010
0000
0000
0000
0100
0000
0000
0000
,
0010
0000
0000
0001
0010
0000
0100
0000
1000
0000
0000
0000
0001
0000
0000
0000
,
0100
0010
1000
0001
,
0100
0000
0010
0000
0100
0000
0010
0000
0100
0000
0001
1000
0001
0000
0100
0010
,
0100
0000
0000
0001
1000
0000
0100
0000
0010
0000
0000
0000
0100
0000
0000
0000
,
1000
0000
0000
0001
0100
0000
0010
0000
1000
0000
0000
0000
0001
0000
0000
0000
,
1000
0100
0010
0001
,
1000
0100
0010
0001
1000
0100
0010
0001
1000
0100
0010
0001
1000
0100
0010
0100
,
1000
0001
0100
0001
1000
0010
0100
0010
1000
0001
0100
0001
1000
0010
0100
0010
,
1000
0001
1000
0100
0010
0001
0010
0100
1000
0001
0010
0100
0010
0001
1000
0001
,
0100
0010
1000
0010
0100
0001
1000
0001
0100
0010
1000
0001
1000
0010
0100
0001
,
1000
0100
0010
0001
0010
0100
1000
0001
1000
0010
0100
0001
0100
0010
1000
0001
,
1000
0100
0010
0100
1000
0001
0010
0100
1000
0100
0010
0001
1000
0100
0010
0100
,
1000
0001
0100
0001
1000
0010
0100
0010
1000
0001
0100
0001
1000
0010
0100
0010
,
1000
0001
0010
0001
1000
0100
0010
0001
0010
0100
1000
0001
0010
0001
1000
0100
,
1000
0001
0100
0010
1000
0001
0100
0001
1000
0010
0100
0001
1000
0010
0100
0001
,
1000
0001
1000
0100
0010
0001
0010
0100
1000
0001
0010
0001
1000
0100
0010
0001
,
1000
0010
0100
0010
1000
0001
0100
0010
0100
0001
1000
0010
0100
0001
0100
0010
,
1000
0001
0010
0001
1000
0100
0010
0001
1000
0010
1000
0001
0100
0010
1000
0001
,
0010
0001
1000
0100
0010
0001
0010
0100
1000
0001
0010
0001
1000
0100
0010
0001
,
1000
0010
1000
0001
0100
0001
1000
0010
0100
0001
0100
0010
1000
0001
0100
0010
,
1000
0001
0010
0001
1000
0100
1000
0001
0010
0100
1000
0100
0010
0001
1000
0100
,
1000
0001
0100
0001
1000
0010
0100
0010
1000
0001
1000
0100
0010
0001
0010
0100
,
1000
0001
0100
0001
1000
0010
0100
0010
1000
0001
0100
0001
1000
0010
0100
0010
,
1000
0000
0000
0001
0100
0000
0010
0000
1000
0000
0000
0000
0001
0000
1000
0000
,
0100
0000
0010
0001
1000
0000
0100
0000
,
1000
0001
0100
0010
,
1000
0000
0001
0000
1000
0000
0001
0000
1000
0000
0010
0100
0010
0000
1000
0001
,
1000
0000
0000
0001
0010
0000
0100
0000
1000
0000
0000
0000
0100
0000
0010
0000
,
0001
0000
0000
1000
0010
0000
0100
0000
0001
0000
0000
0000
1000
0000
0000
0000
,
0001
0100
0010
1000
,
0001
0010
0100
1000
0001
0010
0100
1000
0001
0010
0100
1000
0001
0010
0100
0010
,
0001
1000
0010
0100
0001
1000
0010
0100
0010
1000
0001
0100
0010
1000
0010
0100
,
0001
1000
0100
1000
0001
0010
0100
1000
0001
0100
0001
1000
0010
0100
0001
1000
,
0100
1000
0001
0010
0100
1000
0100
0010
0001
1000
0100
1000
0001
0010
0100
1000
,
0001
0100
0001
1000
0010
1000
0001
0100
0010
1000
0010
0100
0001
1000
0010
0100
,
0001
1000
0100
1000
0001
0010
0001
1000
0100
0010
0001
0010
0100
1000
0001
0010
,
0001
1000
0010
1000
0001
0100
0010
0100
0001
1000
0001
0010
0100
1000
0100
0010
,
0001
1000
0010
1000
0001
0100
0010
0100
0001
1000
0010
1000
0001
0100
0010
0100
,
0001
1000
0001
0010
0100
1000
0100
0010
0001
1000
0100
0010
0100
1000
0001
1000
,
0010
0000
0000
0000
;

//---------------dance-single - ----------------
#NOTES:
     dance-single:
     Dossar:
     Medium:
     12:
     0.999,1.000,0.011,0.000,1.000:
0000
0000
0000
0000
,
0000
0000
0000
0000
,
0000
0000
0000
0000
,
0000
0000
0000
0000
,
1000
0010
0100
0001
1000
0000
1001
0000
,
0001
0000
1000
0100
1000
0000
0001
0100
,
0010
1000
0010
0100
0001
0000
0000
0000
,
1000
0000
0001
0010
0001
0000
1000
0010
,
0100
0000
0001
0000
0100
0000
0010
0000
1000
0000
0001
0100
0001
0000
1000
0010
,
1000
0000
0001
0010
0001
0000
1000
0100
,
0010
0001
0010
0100
1000
0000
0000
0000
,
0001
0000
1000
0010
1000
0000
0001
0100
,
0001
1000
0010
1000
0001
0100
0010
0100
0001
1000
0001
0010
0100
1000
0100
0010
,
0001
1000
0010
1000
0001
0100
0010
0100
0001
1000
0010
1000
0001
0100
0010
0100
,
0001
1000
0001
0010
0100
1000
0100
0010
0001
1000
0100
0010
0100
1000
0001
1000
,
0010
0100
0001
0100
0010
1000
0001
1000
0010
0100
0001
1000
0001
0100
0010
1000
,
0001
0010
0100
1000
0100
0010
0001
1000
0001
0100
0010
1000
0010
0100
0001
1000
,
0001
0010
0100
0010
0001
1000
0100
0010
0001
0010
0100
1000
0001
0010
0100
0010
,
0001
1000
0010
1000
0001
0100
0010
0100
0001
1000
0010
1000
0001
0100
0010
0100
,
0001
1000
0100
1000
0001
0010
0100
1000
0100
0010
0001
1000
0100
1000
0001
0010
,
0001
1000
0010
0100
0001
1000
0010
1000
0001
0100
0010
1000
0001
0100
0010
1000
,
0001
0000
0000
0000
0000
0000
1000
0010
,
0100
0000
0000
0001
1000
0000
0100
0000
0010
0000
0000
0000
0100
0000
0000
0000
,
0010
0000
0000
0001
0010
0000
0100
0000
1000
0000
0000
0000
0001
0000
0000
0000
,
0100
0010
1000
0001
,
0100
0000
0010
0000
0100
0000
0010
0000
0100
0000
0001
1000
0001
0000
0100
0010
,
0100
0000
0000
0001
1000
0000
0100
0000
0010
0000
0000
0000
0100
0000
0000
0000
,
1000
0000
0000
0001
0100
0000
0010
0000
1000
0000
0000
0000
0001
0000
0000
0000
,
1000
0100
0010
0001
,
1000
0100
0010
0001
1000
0100
0010
0001
1000
0100
0010
0001
1000
0100
0010
0100
,
1000
0000
0001
0100
0001
0000
1000
0010
,
0100
0001
0100
0010
1000
0000
0000
0000
,
0001
0000
1000
0100
1000
0000
0001
0010
,
0100
0000
1000
0000
0100
0000
0010
0000
0001
0000
1000
0100
1000
0000
0001
0010
,
0001
0000
1000
0010
1000
0000
0001
0100
,
0010
1000
0010
0100
0001
0000
0000
0000
,
1000
0000
0001
0100
0001
0000
1000
0010
,
1000
0001
0100
0010
1000
0001
0100
0001
1000
0010
0100
0001
1000
0010
0100
0001
,
1000
0001
1000
0100
0010
0001
0010
0100
1000
0001
0010
0001
1000
0100
0010
0001
,
1000
0010
0100
0010
1000
0001
0100
0010
0100
0001
1000
0010
0100
0001
0100
0010
,
1000
0001
0010
0001
1000
0100
0010
0001
1000
0010
1000
0001
0100
0010
1000
0001
,
0010
0001
1000
0100
0010
0001
0010
0100
1000
0001
0010
0001
1000
0100
0010
0001
,
1000
0010
1000
0001
0100
0001
1000
0010
0100
0001
0100
0010
1000
0001
0100
0010
,
1000
0001
0010
0001
1000
0100
1000
0001
0010
0100
1000
0100
0010
0001
1000
0100
,
1000
0001
0100
0001
1000
0010
0100
0010
1000
0001
1000
0100
0010
0001
0010
0100
,
1000
0001
0100
0001
1000
0010
0100
0010
1000
0001
0100
0001
1000
0010
0100
0010
,
1000
0000
0000
0001
0100
0000
0010
0000
1000
0000
0000
0000
0001
0000
1000
0000
,
0100
0000
0010
0001
1000
0000
0100
0000
,
1000
0001
0100
0010
,
1000
0000
0001
0000
1000
0000
0001
0000
1000
0000
0010
0100
0010
0000
1000
0001
,
1000
0000
0000
0001
0010
0000
0100
0000
1000
0000
0000
0000
0100
0000
0010
0000
,
0001
0000
0000
1000
0010
0000
0100
0000
0001
0000
0000
0000
1000
0000
0000
0000
,
0001
0100
0010
1000
,
0001
0010
0100
1000
0001
0010
0100
1000
0001
0010
0100
1000
0001
0010
0100
0010
,
0001
1000
0010
0100
0001
1000
0010
0100
0010
1000
0001
0100
0010
1000
0010
0100
,
0001
1000
0100
1000
0001
0010
0100
1000
0001
0100
0001
1000
0010
0100
0001
1000
,
0100
1000
0001
0010
0100
1000
0100
0010
0001
1000
0100
1000
0001
0010
0100
1000
,
0001
0100
0001
1000
0010
1000
0001
0100
0010
1000
0010
0100
0001
1000
0010
0100
,
0001
1000
0100
1000
0001
0010
0001
1000
0100
0010
0001
0010
0100
1000
0001
0010
,
0001
1000
0010
1000
0001
0100
0010
0100
0001
1000
0001
0010
0100
1000
0100
0010
,
0001
1000
0010
1000
0001
0100
0010
0100
0001
1000
0010
1000
0001
0100
0010
0100
,
0001
1000
0001
0010
0100
1000
0100
0010
0001
1000
0100
0010
0100
1000
0001
1000
,
0010
0000
0000
0000
;

//---------------dance-single - ----------------
#NOTES:
     dance-single:
     Dossar:
     Easy:
     11:
     0.855,1.000,0.033,0.000,0.869:
0000
0000
0000
0000
,
0000
0000
0000
0000
,
0000
0000
0000
0000
,
0000
0000
0000
0000
,
1000
0010
0100
0001
1000
0000
1001
0000
,
0001
0000
1000
0100
1000
0000
0001
0100
,
0010
1000
0010
0100
0001
0000
0000
0000
,
1000
0000
0001
0010
0001
0000
1000
0010
,
0100
0000
0001
0000
0100
0000
0010
0000
1000
0000
0001
0100
0001
0000
1000
0010
,
1000
0000
0001
0010
0001
0000
1000
0100
,
0010
0001
0010
0100
1000
0000
0000
0000
,
0001
0000
1000
0010
1000
0000
0001
0100
,
0001
1000
0010
1000
0001
0000
1001
0000
,
1000
0000
0001
1000
0001
0100
0010
1000
0001
0100
0010
1000
0001
0100
0010
0100
,
0001
0000
1000
0100
0010
0001
0010
0100
1000
0001
0010
0100
1000
0100
0010
0001
,
1000
0000
0001
0100
0010
1000
0001
1000
0010
0100
0001
1000
0001
0100
0010
1000
,
0001
0000
0100
0000
0010
0000
1000
0000
0001
0000
0100
0010
0100
0000
0001
1000
,
0001
0000
0010
0100
1000
0001
0010
0100
1000
0100
0010
0001
1000
0100
0010
0001
,
1000
0000
0010
1000
0001
0100
0010
0100
0001
1000
0010
0100
0001
1000
0010
1000
,
0001
0000
0010
0001
1000
0100
0010
0001
0010
0100
1000
0001
0010
0001
1000
0100
,
1000
0000
0001
0000
0010
0000
0100
0000
1000
0000
0001
0010
0001
0000
1000
0100
,
1000
0000
0000
0000
0000
0000
0001
0100
,
0010
0000
0000
1000
0001
0000
0010
0000
0100
0000
0000
0000
0010
0000
0000
0000
,
0100
0000
0000
1000
0100
0000
0010
0000
0001
0000
0000
0000
1000
0000
0000
0000
,
0010
0100
0001
1000
,
0010
0000
0100
0000
0010
0000
0100
0000
0010
0000
1000
0001
1000
0000
0010
0100
,
0010
0000
0000
1000
0001
0000
0010
0000
0100
0000
0000
0000
0010
0000
0000
0000
,
0001
0000
0000
1000
0010
0000
0100
0000
0001
0000
0000
0000
1000
0000
0000
0000
,
0001
0010
0100
1000
,
0001
0010
0100
1000
0001
0010
0100
1000
0001
0010
0100
1000
0001
0010
0100
1000
,
0001
0000
1000
0010
1000
0000
0001
0100
,
0010
1000
0010
0100
0001
0000
0000
0000
,
1000
0000
0001
0010
0001
0000
1000
0100
,
0010
0000
0001
0000
0010
0000
0100
0000
1000
0000
0001
0010
0001
0000
1000
0100
,
1000
0000
0001
0100
0001
0000
1000
0010
,
0100
0001
0100
0010
1000
0000
0000
0000
,
0001
0000
1000
0010
1000
0000
0001
0100
,
0010
1000
0010
0100
0001
0000
1001
0000
,
0001
0000
1000
0100
0010
0001
0010
0100
1000
0001
0010
0001
1000
0100
0010
0001
,
1000
0000
0010
0100
0001
1000
0010
0100
0010
1000
0001
0100
0010
1000
0010
0100
,
0001
0000
0010
0001
1000
0100
0010
0001
1000
0100
0010
0001
1000
0100
1000
0001
,
0010
0000
0100
0000
1000
0000
0001
0000
0100
0000
0001
1000
0001
0000
0100
0010
,
0100
0000
0001
1000
0010
1000
0001
0100
0010
1000
0010
0100
0001
1000
0010
0100
,
0001
0000
0010
0001
1000
0100
1000
0001
0010
0100
1000
0100
0010
0001
1000
0100
,
1000
0000
0001
1000
0001
0100
0010
0100
0001
1000
0010
0100
0001
1000
0010
1000
,
0001
0000
1000
0000
0100
0000
0010
0000
0001
0000
1000
0010
1000
0000
0001
0100
,
0001
0000
0000
1000
0010
0000
0100
0000
0001
0000
0000
0000
1000
0000
0001
0000
,
0010
0000
0100
1000
0001
0000
0010
0000
,
0001
1000
0010
0100
,
0001
0000
1000
0000
0001
0000
1000
0000
0001
0000
0100
0010
0100
0000
0001
1000
,
0001
0000
0000
1000
0100
0000
0010
0000
0001
0000
0000
0000
0010
0000
0100
0000
,
1000
0000
0000
0001
0100
0000
0010
0000
1000
0000
0000
0000
0001
0000
0000
0000
,
1000
0010
0100
0001
,
1000
0100
0010
0001
1000
0100
0010
0001
1000
0100
0010
0001
1000
0100
0010
0001
,
1000
0000
0001
0100
0001
0000
1000
0010
,
0100
0001
0100
0010
1000
0000
0000
0000
,
0001
0000
1000
0100
1000
0000
0001
0010
,
0100
0000
1000
0000
0100
0000
0010
0000
0001
0000
1000
0100
1000
0000
0001
0010
,
0001
1000
0100
0010
0001
1000
0100
1000
0001
0010
0100
1000
0001
0010
0100
1000
,
0001
0100
0010
1000
0001
0100
0010
1000
0001
0100
0001
1000
0010
0100
0001
1000
,
0100
0010
0001
1000
0100
0010
0001
1000
0100
1000
0001
0010
0001
1000
0100
0010
,
0001
1000
0010
0100
0001
1000
0010
0100
0001
0100
0010
1000
0001
0100
0010
1000
,
0001
0000
0000
0000
;

//---------------dance-double - ----------------
#NOTES:
     dance-double:
     Dossar:
     Challenge:
     11:
     0.806,1.000,0.033,0.000,0.736:
00000000
00000000
00000000
00000000
,
00000000
00000000
00000000
00000000
,
00000000
00000000
00000000
00000000
,
00000000
00000000
00000000
00000000
,
10000000
00010000
01000000
00001000
00010000
00000000
00011000
00000000
,
00001000
00000000
00010000
00000100
00000010
00000000
00000001
00000010
,
00000100
00001000
00000100
00000010
00000001
00000000
00000000
00000000
,
00001000
00000000
00000100
00010000
00001000
00000000
00100000
00010000
,
00100000
00000000
01000000
00000000
10000000
00000000
01000000
00000000
00100000
00000000
00001000
00010000
00001000
00000000
00100000
00010000
,
00100000
00000000
00001000
00010000
00000010
00000000
00001000
00000001
,
00000100
00000010
00000100
00000001
00001000
00000000
00000000
00000000
,
00000001
00000000
00001000
00000010
00010000
00000000
00001000
01000000
,
00001000
00100000
00010000
00100000
01000000
00000000
10010000
00000000
,
10000000
00000000
00010000
10000000
00010000
01000000
00100000
10000000
00010000
01000000
00100000
10000000
00010000
01000000
00001000
00010000
,
00001000
00000000
00010000
00000100
00001000
00000100
00000010
00000001
00001000
00000100
00000010
00000001
00000010
00000100
00010000
00001000
,
00010000
00000000
00001000
01000000
00010000
01000000
00100000
10000000
00010000
01000000
00100000
10000000
00100000
01000000
00001000
00010000
,
00001000
00000000
00010000
00000000
00000100
00000000
00000010
00000000
00000001
00000000
00001000
00000010
00001000
00000000
00000001
00000100
,
00000001
00000000
00001000
00000100
00000010
00000001
00001000
00000100
00001000
00000001
00000010
00000001
00001000
00000100
00010000
00001000
,
00010000
00000000
00001000
00100000
00010000
00100000
01000000
10000000
00010000
00100000
00010000
10000000
01000000
00100000
00001000
00010000
,
00001000
00000000
00010000
00000010
00001000
00000010
00000100
00000001
00001000
00000010
00001000
00000001
00000100
00000010
00001000
00000001
,
00001000
00000000
00000010
00000000
00010000
00000000
00001000
00000000
00100000
00000000
00010000
10000000
00010000
00000000
01000000
00100000
,
01000000
00000000
00000000
00000000
00000000
00000000
00010000
01000000
,
00100000
00000000
00000000
10000000
00010000
00000000
01000000
00000000
00001000
00000000
00000000
00000000
00010000
00000000
00000000
00000000
,
00000100
00000000
00000000
00000010
00000001
00000000
00001000
00000000
00000010
00000000
00000000
00000000
00010000
00000000
00000000
00000000
,
00001000
00100000
00010000
00100000
,
01000000
00000000
10000000
00000000
01000000
00000000
10000000
00000000
01000000
00000000
00100000
00010000
00100000
00000000
00001000
00010000
,
00001000
00000000
00000000
00100000
00010000
00000000
10000000
00000000
01000000
00000000
00000000
00000000
00100000
00000000
00000000
00000000
,
00001000
00000000
00000000
00010000
00000100
00000000
00000010
00000000
00000001
00000000
00000000
00000000
00001000
00000000
00000000
00000000
,
00000010
00010000
00001000
01000000
,
00010000
10000000
00100000
01000000
00010000
10000000
00010000
01000000
00100000
10000000
00010000
01000000
00100000
10000000
00100000
01000000
,
00010000
00000000
01000000
00001000
00010000
00000000
00000100
00000010
,
00000001
00001000
00000001
00000010
00000100
00000000
00000000
00000000
,
00001000
00000000
00000100
00010000
00001000
00000000
00100000
00010000
,
00100000
00000000
01000000
00000000
10000000
00000000
01000000
00000000
00100000
00000000
00010000
10000000
00010000
00000000
01000000
00100000
,
01000000
00000000
00010000
01000000
00001000
00000000
00010000
00000100
,
00010000
00000010
00001000
00000010
00000100
00000000
00000000
00000000
,
00000001
00000000
00001000
00000010
00010000
00000000
00001000
00100000
,
00001000
01000000
00010000
01000000
00100000
00000000
10010000
00000000
,
10000000
00000000
00010000
00100000
01000000
10000000
00010000
00100000
01000000
10000000
00010000
10000000
00010000
00100000
00001000
00010000
,
00001000
00000000
00010000
00000010
00001000
00000010
00000100
00000001
00001000
00000010
00000100
00000001
00001000
00000010
00010000
00001000
,
00010000
00000000
00001000
01000000
00010000
01000000
00100000
10000000
00010000
01000000
00100000
01000000
00010000
10000000
00010000
01000000
,
00100000
00000000
10000000
00000000
00010000
00000000
01000000
00000000
00001000
00000000
00010000
00001000
00010000
00000000
00000100
00001000
,
00000100
00000000
00000010
00000001
00001000
00000100
00000010
00000001
00000010
00000100
00001000
00000100
00000010
00000100
00010000
00001000
,
00010000
00000000
00001000
01000000
00010000
01000000
00010000
10000000
00100000
01000000
00010000
10000000
00010000
01000000
00001000
00010000
,
00001000
00000000
00010000
00000100
00001000
00000100
00000010
00000001
00001000
00000100
00001000
00000100
00000010
00000100
00010000
00001000
,
00010000
00000000
00001000
00000000
00100000
00000000
00010000
00000000
10000000
00000000
00100000
01000000
00100000
00000000
10000000
00010000
,
10000000
00000000
00000000
00100000
01000000
00000000
00001000
00000000
00010000
00000000
00000000
00000000
00000010
00000000
00001000
00000000
,
00000001
00000000
00001000
00000010
00010000
00000000
00001000
00000000
,
00100000
01000000
10000000
01000000
,
00100000
00000000
00010000
00000000
00100000
00000000
00010000
00000000
00100000
00000000
00001000
00010000
00001000
00000000
00010000
00000010
,
00010000
00000000
00000000
00001000
00100000
00000000
01000000
00000000
10000000
00000000
00000000
00000000
00010000
00000000
01000000
00000000
,
00100000
00000000
00000000
01000000
00001000
00000000
00010000
00000000
00000100
00000000
00000000
00000000
00010000
00000000
00000000
00000000
,
00001000
01000000
00100000
10000000
,
00010000
01000000
00100000
10000000
00010000
01000000
00010000
10000000
00100000
01000000
00010000
10000000
00100000
10000000
00010000
01000000
,
00010000
00000000
01000000
00001000
00010000
00000000
00001000
00010000
,
00000100
00001000
00000100
00010000
00001000
00000000
00000000
00000000
,
00100000
00000000
00010000
10000000
01000000
00000000
10000000
00100000
,
01000000
00000000
00010000
00000000
01000000
00000000
00100000
00000000
10000000
00000000
00010000
01000000
00010000
00000000
01000000
00001000
,
01000000
00000000
00001000
00010000
00000100
00000000
00010000
00000100
,
00001000
00000001
00001000
00000100
00010000
00000000
00000000
00000000
,
00001000
00000000
00010000
00000100
00001000
00000000
00000001
00000010
,
00000100
00001000
00000100
00010000
00000100
00010000
00001000
01000000
00001000
01000000
00010000
10000000
00010000
01000000
00100000
10000000
,
00010000
00000000
00000000
00000000
;
