#TITLE:YOZORA NO MUKO;
#SUBTITLE:;
#ARTIST:EUROBEAT LOVERS;
#SUBTITLETRANSLIT:;
#ARTISTTRANSLIT:;
#CREDIT:;
#BANNER:../ddrstream fallback-bn.png;
#BACKGROUND:../ddrstream fallback-bg.png;
#LYRICSPATH:;
#CDTITLE:;
#MUSIC:YOZORA NO MUKO.ogg;
#OFFSET:0.000;
#SAMPLESTART:26.150;
#SAMPLELENGTH:24.550;
#SELECTABLE:YES;
#DISPLAYBPM:156.000;
#BPMS:0.000=156.000;
#STOPS:;
#BGCHANGES:;

//---------------dance-single - ----------------
#NOTES:
     dance-single:
     Dossar:
     Challenge:
     12:
     1.000,1.000,0.050,0.150,1.000:
0000
0000
0000
0000
,
0000
0000
0000
0000
,
0000
0000
0000
0000
,
0000
0000
0000
0000
,
0000
0000
0000
0000
,
1000
0010
0000
0100
0000
0001
2000
0000
3001
0100
0010
1000
0001
1000
0010
0100
,
0001
1000
0000
0100
0000
0010
0002
0000
1003
0100
0010
0001
1000
0100
0010
0001
,
1000
0010
1000
0001
0100
0010
0100
0001
1000
0010
0100
0001
0100
0010
1000
0001
,
0010
0100
0010
0001
1000
0001
0010
0100
2000
0000
3002
0000
0000
0000
0000
0000
,
1003
0001
0100
0001
0000
1000
0000
0000
,
0001
0010
0100
1000
0000
0000
0000
0001
,
1000
0010
0100
0001
0000
1000
0100
0020
,
0030
0000
0001
1000
0001
0000
0100
0010
0100
0000
0001
0100
0010
1000
0010
0100
,
0001
1000
0100
0010
0000
0001
0000
0010
,
0100
0010
0001
1000
0000
0000
0001
0200
,
0000
0310
1000
0001
0100
0010
0000
1001
,
0000
0000
0011
0000
0000
0000
0110
0000
0000
0000
1100
0000
1000
0100
0010
0001
,
1000
0010
0100
0001
1000
0010
0100
0001
1000
0010
1000
0001
0100
0001
1000
0100
,
0010
0001
1000
0100
0010
0001
1000
0100
0010
0100
1000
0001
0010
0100
1000
0001
,
0100
0010
1000
0001
0100
0010
1000
0010
0100
0001
1000
0010
0100
0001
1000
0001
,
0010
0100
1000
0001
0010
0100
1000
0100
0010
0001
1000
0100
0010
0100
1000
0001
,
1000
0010
0100
0001
1000
0010
0100
0010
1000
0001
0100
0010
1000
0001
0100
0010
,
1000
0001
0010
0100
1000
0001
0010
0100
1000
0001
0010
0100
0010
0001
1000
0100
,
1000
0001
0100
0010
1000
0001
0100
0010
1000
0010
0100
0001
1000
0010
0100
0001
,
1000
0100
0010
0001
1000
0100
0010
0100
1000
0001
0010
0100
1000
0001
0010
0001
,
2000
3000
2000
3000
0002
2003
3100
0010
,
0001
1000
0010
1000
0001
0100
0010
1000
0001
0100
0001
1000
0010
1000
0001
0010
,
0100
1000
0001
0010
0100
1000
0001
0010
0100
0010
0001
1000
0100
0010
0001
1000
,
0010
0100
0001
1000
0010
0100
0001
0100
0010
1000
0001
0100
0010
1000
0001
1000
,
0100
0010
0001
1000
0100
0010
0001
0010
0100
1000
0001
0010
0100
0010
0001
1000
,
0001
0100
0010
1000
0001
0100
0010
0100
0001
1000
0010
0100
0001
1000
0010
0100
,
0001
1000
0100
0010
0001
1000
0100
0010
0001
1000
0100
0010
0100
1000
0001
0010
,
0001
1000
0010
0100
0001
1000
0010
0100
0001
0100
0010
1000
0001
0100
0010
1000
,
0001
0010
0100
1000
0001
0010
0100
0010
0001
1000
0100
0010
0001
1000
0100
1000
,
0001
0100
0001
1000
0010
0100
0001
1000
0010
0100
0001
0100
0010
1000
0001
0100
,
0001
1000
0100
0010
0001
1000
0100
0010
0001
1000
0100
1000
0001
0010
0001
1000
,
0010
0100
0001
0100
0010
1000
0001
0100
0001
1000
0010
0100
0001
1000
0001
0010
,
0100
1000
0001
0010
0100
1000
0001
0010
0100
1000
0100
0010
0001
1000
0100
0010
,
0001
1000
0010
0100
0001
0100
0010
1000
0001
0100
0001
1000
0010
1000
0001
0010
,
0100
1000
0001
0010
0100
1000
0001
0010
0100
0010
0001
1000
0100
0010
0001
1000
,
0010
0100
0001
1000
0010
0100
0001
0100
0010
1000
0001
0100
0010
1000
0001
1000
,
0100
0010
0001
0010
0100
0000
1000
0100
0010
0001
1000
0100
0010
0100
1000
0001
,
1000
0010
0100
0001
1000
0010
0100
0010
1000
0001
0100
0010
1000
0001
0100
0010
,
1000
0001
0010
0100
1000
0001
0010
0100
1000
0001
0010
0100
0010
0001
1000
0100
,
1000
0001
0100
0010
1000
0001
0100
0010
1000
0010
0100
0001
1000
0010
0100
0001
,
1000
0100
0010
0001
1000
0100
0010
0100
1000
0001
0010
0100
1000
0001
0010
0001
,
1000
0010
0100
0001
1000
0010
0100
0001
1000
0010
1000
0001
0100
0001
1000
0100
,
0010
0001
1000
0100
0010
0001
1000
0100
0010
0100
1000
0001
0010
0100
1000
0001
,
0100
0010
1000
0001
0100
0010
1000
0001
0100
0010
1000
0001
0100
0010
0100
0001
,
1000
0100
1000
0001
0010
0001
1000
0100
0020
0000
0032
0000
0000
0000
0000
0000
,
0003
0000
0000
0000
;

//---------------dance-single - ----------------
#NOTES:
     dance-single:
     Dossar:
     Medium:
     11:
     0.980,1.000,0.063,0.400,1.000:
0000
0000
0000
0000
,
0000
0000
0000
0000
,
0000
0000
0000
0000
,
0000
0000
0000
0000
,
0000
0000
0000
0000
,
1000
0010
0000
0100
0000
0001
2000
0000
3001
0100
0010
1000
0001
1000
0010
0100
,
0001
1000
0000
0100
0000
0010
0002
0000
1003
0100
0010
0001
1000
0100
0010
0001
,
1000
0010
1000
0001
0100
0010
0100
0001
1000
0010
0100
0001
0100
0010
1000
0001
,
0010
0100
0010
0001
1000
0001
0010
0100
2000
0000
3002
0000
0000
0000
0000
0000
,
1003
0001
0100
0001
0000
1000
0000
0000
,
0001
0010
0100
1000
0000
0000
0000
0001
,
1000
0010
0100
0001
0000
1000
0100
0020
,
0030
0000
0001
1000
0001
0000
0100
0010
0100
0000
0001
0100
0010
1000
0010
0100
,
0001
1000
0100
0010
0000
0001
0000
0010
,
0100
0010
0001
1000
0000
0000
0001
0200
,
0000
0310
1000
0001
0100
0010
0000
1001
,
0000
0000
0011
0000
0000
0000
0110
0000
0000
0000
1100
0000
1000
0100
0010
0001
,
1000
0001
0000
0100
0000
0010
1000
0001
,
0000
0010
0100
1000
0000
0000
0000
0000
,
0001
0100
0010
1000
0000
0000
0001
0020
,
0000
0000
0000
0000
0031
0000
1000
0100
0010
0001
1000
0100
0010
0001
0010
0100
,
2000
0000
0000
0000
3001
0000
1000
0010
0100
0001
0100
0010
1000
0001
0100
0010
,
2000
0000
0000
0000
3001
0000
1000
0100
1000
0000
0001
0010
0001
1000
0100
0010
,
0002
0000
0000
0000
1003
0000
0010
0100
0001
0100
0010
1000
0001
0100
0010
1000
,
0002
0000
1003
0100
0010
0001
1000
0100
1000
0001
0010
0100
1000
0001
0010
0001
,
2000
3000
2000
3000
0002
2003
3100
0010
,
0001
1000
0010
1000
0001
0100
0010
1000
0001
0100
0001
1000
0010
1000
0001
0010
,
0100
1000
0001
0010
0100
1000
0001
0010
0100
0010
0001
1000
0100
0010
0001
1000
,
0010
0100
0001
1000
0010
0100
0001
0100
0010
1000
0001
0100
0010
1000
0001
1000
,
0100
0010
0001
1000
0100
0010
0001
0010
0100
1000
0001
0010
0100
0010
0001
1000
,
0001
0000
1000
0000
2002
0000
3003
0000
0001
0000
0100
0000
0001
1000
0010
0100
,
0001
0000
1000
0100
0010
0001
0010
0100
1000
0000
0001
0010
0100
1000
0100
0010
,
0001
1000
0010
0100
0001
1000
0010
0100
0001
0100
0010
1000
0001
0100
0010
1000
,
0001
0010
0100
1000
0001
0010
0100
0010
0001
1000
0100
0010
0001
1000
0100
1000
,
0001
0100
0001
1000
0010
0100
0001
1000
0010
0100
0001
0100
0010
1000
0001
0100
,
0001
1000
0100
0010
0001
1000
0100
0010
0001
1000
0100
1000
0001
0010
0001
1000
,
0010
0100
0001
0100
0010
1000
0001
0100
0001
1000
0010
0100
0001
1000
0001
0010
,
0100
1000
0001
0010
0100
1000
0001
0010
0100
1000
0100
0010
0001
1000
0100
0010
,
0001
0000
1000
0000
0020
0000
0030
0000
0200
0000
0301
0000
1000
0010
0100
0001
,
1000
0010
1000
0000
0001
0000
1000
0100
1000
0000
0001
0010
0100
1000
0100
0010
,
0001
0000
1000
0010
0100
0001
0100
0010
1000
0001
0100
0010
1000
0001
1000
0010
,
0200
0320
0030
2000
3000
0002
2003
3000
,
0001
0100
0000
0010
0000
1000
0002
0000
1003
0010
0100
0001
1000
0001
0100
0010
,
1000
0001
0000
0010
0000
0100
2000
0000
3001
0010
0100
0010
0001
2000
0000
0000
,
3010
0100
0000
0001
0000
1000
0020
0000
0000
0000
0130
0000
0001
0000
1000
0100
,
1000
0001
0010
0100
1000
0001
0010
0001
1000
0000
0100
0000
0010
0001
0010
0100
,
1000
0001
0000
0100
0000
0010
2000
0000
3001
0100
0010
1000
0001
1000
0010
0100
,
0001
1000
0000
0100
0000
0010
0002
0000
1003
0100
0010
0001
1000
0100
0010
0001
,
1000
0010
1000
0001
0100
0010
0100
0001
1000
0010
0100
0001
0100
0010
1000
0001
,
0010
0100
0010
0001
1000
0001
0010
0100
2000
0000
3002
0000
0000
0000
0000
0000
,
0003
0000
0000
0000
;

//---------------dance-single - ----------------
#NOTES:
     dance-single:
     Dossar:
     Hard:
     12:
     1.000,1.000,0.050,0.350,1.000:
0000
0000
0000
0000
,
0000
0000
0000
0000
,
0000
0000
0000
0000
,
0000
0000
0000
0000
,
0000
0000
0000
0000
,
1000
0010
0000
0100
0000
0001
2000
0000
3001
0100
0010
1000
0001
1000
0010
0100
,
0001
1000
0000
0100
0000
0010
0002
0000
1003
0100
0010
0001
1000
0100
0010
0001
,
1000
0010
1000
0001
0100
0010
0100
0001
1000
0010
0100
0001
0100
0010
1000
0001
,
0010
0100
0010
0001
1000
0001
0010
0100
2000
0000
3002
0000
0000
0000
0000
0000
,
1003
0001
0100
0001
0000
1000
0000
0000
,
0001
0010
0100
1000
0000
0000
0000
0001
,
1000
0010
0100
0001
0000
1000
0100
0020
,
0030
0000
0001
1000
0001
0000
0100
0010
0100
0000
0001
0100
0010
1000
0010
0100
,
0001
1000
0100
0010
0000
0001
0000
0010
,
0100
0010
0001
1000
0000
0000
0001
0200
,
0000
0310
1000
0001
0100
0010
0000
1001
,
0000
0000
0011
0000
0000
0000
0110
0000
0000
0000
1100
0000
1000
0100
0010
0001
,
1000
0001
0000
0100
0000
0010
1000
0001
,
0000
0010
0100
1000
0000
0000
0000
0000
,
0001
0100
0010
1000
0000
0000
0001
0020
,
0000
0000
0000
0000
0031
0000
1000
0100
0010
0001
1000
0100
0010
0001
0010
0100
,
2000
0000
0000
0000
3001
0000
1000
0010
0100
0001
0100
0010
1000
0001
0100
0010
,
2000
0000
0000
0000
3001
0000
1000
0100
1000
0000
0001
0010
0001
1000
0100
0010
,
0002
0000
0000
0000
1003
0000
0010
0100
0001
0100
0010
1000
0001
0100
0010
1000
,
0002
0000
1003
0100
0010
0001
1000
0100
1000
0001
0010
0100
1000
0001
0010
0001
,
2000
3000
2000
3000
0002
2003
3100
0010
,
0001
1000
0010
1000
0001
0100
0010
1000
0001
0100
0001
1000
0010
1000
0001
0010
,
0100
1000
0001
0010
0100
1000
0001
0010
0100
0010
0001
1000
0100
0010
0001
1000
,
0010
0100
0001
1000
0010
0100
0001
0100
0010
1000
0001
0100
0010
1000
0001
1000
,
0100
0010
0001
1000
0100
0010
0001
0010
0100
1000
0001
0010
0100
0010
0001
1000
,
0001
0100
0010
1000
0001
0100
0010
0100
0001
1000
0010
0100
0001
1000
0010
0100
,
0001
1000
0100
0010
0001
1000
0100
0010
0001
1000
0100
0010
0100
1000
0001
0010
,
0001
1000
0010
0100
0001
1000
0010
0100
0001
0100
0010
1000
0001
0100
0010
1000
,
0001
0010
0100
1000
0001
0010
0100
0010
0001
1000
0100
0010
0001
1000
0100
1000
,
0001
0100
0001
1000
0010
0100
0001
1000
0010
0100
0001
0100
0010
1000
0001
0100
,
0001
1000
0100
0010
0001
1000
0100
0010
0001
1000
0100
1000
0001
0010
0001
1000
,
0010
0100
0001
0100
0010
1000
0001
0100
0001
1000
0010
0100
0001
1000
0001
0010
,
0100
1000
0001
0010
0100
1000
0001
0010
0100
1000
0100
0010
0001
1000
0100
0010
,
0001
1000
0010
0100
0001
0100
0010
1000
0001
0100
0001
1000
0010
1000
0001
0010
,
0100
1000
0001
0010
0100
1000
0001
0010
0100
0010
0001
1000
0100
0010
0001
1000
,
0010
0100
0001
1000
0010
0100
0001
0100
0010
1000
0001
0100
0010
1000
0001
1000
,
0200
0320
0030
0002
0003
2000
3002
0003
,
1000
0010
0000
0100
0000
0001
2000
0000
3001
0100
0010
1000
0001
1000
0010
0100
,
0001
1000
0000
0100
0000
0010
0002
0000
1003
0100
0010
0100
1000
0002
0000
0000
,
0103
0010
0000
1000
0000
0001
0200
0000
0000
0000
0310
0000
1000
0000
0001
0010
,
0001
1000
0100
0010
0001
1000
0100
1000
0001
0000
0010
0000
0100
1000
0100
0010
,
0001
1000
0000
0010
0000
0100
0002
0000
1003
0010
0100
0001
1000
0001
0100
0010
,
1000
0001
0000
0010
0000
0100
2000
0000
3001
0010
0100
1000
0001
0010
0100
1000
,
0001
0100
0001
1000
0010
0100
0010
1000
0001
0100
0010
1000
0010
0100
0001
1000
,
0100
0010
0100
1000
0001
1000
0100
0010
0002
0000
2003
0000
0000
0000
0000
0000
,
3000
0000
0000
0000
;

//---------------dance-double - ----------------
#NOTES:
     dance-double:
     Dossar:
     Challenge:
     11:
     0.946,1.000,0.063,0.425,1.000: // measure 1
00000000
00000000
00000000
00000000
,  // measure 2
00000000
00000000
00000000
00000000
,  // measure 3
00000000
00000000
00000000
00000000
,  // measure 4
00000000
00000000
00000000
00000000
,  // measure 5
00000000
00000000
00000000
00000000
,  // measure 6
10000000
00100000
00000000
01000000
00000000
00001000
00020000
00000000
00030100
00001000
00000100
00000010
00000001
00001000
00000100
00010000
,  // measure 7
00001000
00100000
00000000
01000000
00000000
00100000
00020000
00000000
10030000
01000000
00100000
00010000
10000000
01000000
00100000
00010000
,  // measure 8
10000000
01000000
00100000
00010000
00200000
00000000
00000000
00000000
,  // measure 9
00301000
00010000
00001000
00100000
01000000
00100000
00001000
00010000
00002000
00000000
00023000
00000000
00000000
00000000
00000000
00000000
,  // measure 10
00030010
00000100
00000001
00001000
00000000
00000010
00000000
00010000
,  // measure 11
00001000
01000000
00010000
10000000
00000000
00000000
00000000
00010000
,  // measure 12
10000000
00100000
01000000
00010000
00000000
10000000
00001000
00020000
,  // measure 13
00030000
00000000
00000010
00001000
00000010
00000000
00000100
00000001
00000100
00000000
00000010
00001000
00000010
00000100
00000001
00001000
,  // measure 14
00000100
00010000
00001000
00100000
00000000
01000000
00000000
10000000
,  // measure 15
01000000
00100000
00001000
00010000
00000000
00000000
00000100
00000020
,  // measure 16
00000000
00000031
00001000
00000010
00010000
00001000
00000000
00011000
,  // measure 17
00000000
00000000
00101000
00000000
00000000
00000000
00110000
00000000
00000000
00000000
11000000
00000000
10000000
01000000
00100000
00010000
,  // measure 18
10000000
00010000
00000000
01000000
00000000
00010000
00100000
00001000
,  // measure 19
00000000
00010000
00000100
00001000
00000000
00000000
00000000
00000000
,  // measure 20
00000001
00000100
00000010
00001000
00000000
00000000
00000010
00020000
,  // measure 21
00000000
00000000
00000000
00000000
00031000
00000000
00100000
00010000
00100000
01000000
10000000
00010000
00100000
01000000
10000000
00010000
,  // measure 22
02000000
00000000
00000000
00000000
03010000
00000000
10000000
00100000
01000000
00010000
01000000
00100000
10000000
00100000
01000000
00001000
,  // measure 23
00020000
00000000
00000000
00000000
00030100
00000000
00001000
00000100
00001000
00000000
00000001
00000010
00000001
00001000
00000100
00000010
,  // measure 24
00000002
00000000
00000000
00000000
00001003
00000000
00000001
00001000
00000010
00000100
00000001
00000100
00000010
00001000
00000100
00010000
,  // measure 25
00002000
00000000
00103000
00010000
00100000
01000000
10000000
00010000
00100000
01000000
10000000
00010000
00100000
00010000
10000000
01000000
,  // measure 26
20000000
30000000
20000000
30000000
00020000
20030000
31000000
00100000
,  // measure 27
00010000
10000000
00100000
10000000
00010000
01000000
00100000
10000000
00010000
01000000
00010000
10000000
00100000
10000000
00010000
01000000
,  // measure 28
00001000
01000000
00010000
01000000
00001000
00010000
00001000
01000000
00001000
00010000
00000010
00001000
00000010
00000100
00000001
00001000
,  // measure 29
00000100
00000010
00000001
00001000
00000100
00000010
00000001
00000010
00000100
00001000
00000001
00000010
00000100
00001000
00000100
00010000
,  // measure 30
00001000
00010000
00000100
00010000
00001000
00100000
00010000
00100000
00001000
00010000
00001000
00100000
00001000
00100000
01000000
10000000
,  // measure 31
00010000
00000000
10000000
00000000
20020000
00000000
30030000
00000000
00010000
00000000
01000000
00000000
00010000
10000000
00100000
01000000
,  // measure 32
00010000
00000000
10000000
01000000
00100000
00010000
00100000
01000000
10000000
00000000
01000000
00100000
00010000
00100000
00001000
00010000
,  // measure 33
00001000
00010000
00000010
00001000
00000001
00000100
00000010
00001000
00000001
00001000
00000010
00000100
00000001
00001000
00000010
00010000
,  // measure 34
00001000
00100000
00001000
00010000
00001000
00100000
01000000
00100000
00010000
10000000
01000000
00100000
00010000
10000000
01000000
10000000
,  // measure 35
00010000
01000000
00001000
00010000
00001000
01000000
00001000
00010000
00000010
00010000
00001000
00010000
00000010
00001000
00000010
00000100
,  // measure 36
00000001
00001000
00000100
00000010
00000001
00000010
00000100
00001000
00000001
00000010
00000100
00001000
00000100
00010000
00001000
00100000
,  // measure 37
00010000
10000000
00010000
01000000
00100000
10000000
00010000
01000000
00010000
10000000
00100000
01000000
00010000
10000000
00010000
01000000
,  // measure 38
00001000
00010000
00001000
01000000
00001000
00010000
00000010
00010000
00001000
00010000
00000010
00000100
00000010
00001000
00000001
00000100
,  // measure 39
00000010
00000000
00001000
00000000
00000002
00000000
00000003
00000000
00002000
00000000
00003100
00000000
00010000
00001000
00100000
01000000
,  // measure 40
10000000
00010000
10000000
00000000
01000000
00000000
10000000
00010000
10000000
00000000
00010000
00100000
01000000
10000000
01000000
00100000
,  // measure 41
00010000
00000000
00100000
00010000
00100000
00001000
00010000
00001000
00100000
00001000
00010000
00000100
00010000
00000100
00001000
00000100
,  // measure 42
00000020
00000032
00000003
00002000
00003000
00000020
00002030
00003000
,  // measure 43
00000001
00000100
00000000
00000010
00000000
00010000
00002000
00000000
00103000
00010000
00100000
01000000
10000000
00010000
00100000
00001000
,  // measure 44
00010000
00000100
00000000
00000010
00000000
00000100
00002000
00000000
00003001
00000100
00000010
00000100
00000001
00002000
00000000
00000000
,  // measure 45
00003001
00000010
00000000
00000100
00000000
00010000
00002000
00000000
00000000
00000000
01003000
00000000
01000000
00000000
00010000
10000000
,  // measure 46
00100000
01000000
00100000
10000000
00010000
01000000
00100000
10000000
00010000
00000000
00100000
00000000
01000000
10000000
01000000
00100000
,  // measure 47
00010000
01000000
00000000
00001000
00000000
00010000
00000200
00000000
00000310
00000001
00001000
00000100
00010000
00001000
00010000
00001000
,  // measure 48
00100000
01000000
00000000
10000000
00000000
00010000
02000000
00000000
03001000
00010000
00001000
00010000
00000100
00001000
00000100
00000010
,  // measure 49
00000001
00001000
00000010
00010000
00000200
00000000
00000000
00000000
,  // measure 50
00010300
00001000
00010000
00000100
00000010
00000100
00010000
00001000
00020000
00000000
00030200
00000000
00000000
00000000
00000000
00000000
,  // measure 51
00000300
00000000
00000000
00000000
;
