#TITLE:WE WILL ROCK YOU;
#SUBTITLE:;
#ARTIST:HOUSEBOYZ;
#TITLETRANSLIT:;
#SUBTITLETRANSLIT:;
#ARTISTTRANSLIT:;
#CREDIT:;
#BANNER:../ddrstream fallback-bn.png;
#BACKGROUND:../ddrstream fallback-bg.png;
#LYRICSPATH:;
#CDTITLE:;
#MUSIC:WE WILL ROCK YOU.ogg;
#OFFSET:-0.004;
#SAMPLESTART:29.360;
#SAMPLELENGTH:21.240;
#SELECTABLE:YES;
#DISPLAYBPM:180.000;
#BPMS:0.000=180.000;
#STOPS:;
#BGCHANGES:;

//---------------dance-single - ----------------
#NOTES:
     dance-single:
     Dossar:
     Challenge:
     13:
     1.000,1.000,0.121,0.397,1.000:
0000
0000
0000
0000
,
0000
0000
0000
0000
,
0000
0000
0000
0000
,
0000
0000
0000
0000
,
0000
0000
0000
0000
,
0000
0000
0000
0000
0000
1000
0010
0100
,
0001
1000
0100
1000
0001
0100
0010
1000
,
0001
0000
0000
0000
0000
0000
0000
0000
0010
0000
0000
0000
0000
0000
0000
0000
0001
0000
0000
0000
0000
0000
0000
0000
1000
0000
0000
0000
0000
0000
0000
0000
0100
0000
0000
0000
0000
0000
0000
0000
0010
0000
0000
0000
0000
0000
0000
0000
0001
0000
0000
0000
0000
1000
0000
0000
0000
0000
0001
0000
0000
0000
0000
0000
,
0100
0010
1000
0001
0100
0010
0100
0010
,
1000
0001
0010
0100
0010
0001
1000
0010
,
0100
0001
0200
0300
0001
1000
0100
0010
,
0001
1000
0002
0003
0100
0010
1000
0001
,
0010
0001
1000
0010
0100
0001
1000
0010
,
0100
0001
0100
0001
0100
0010
0100
0001
,
1000
0010
0100
0001
1000
0010
1000
0001
0100
0010
1000
0001
0100
0001
1000
0010
,
0100
0001
1000
0001
0100
0010
1000
0010
0100
0001
1000
0010
1000
0001
0100
0001
,
1000
0100
1000
0001
0010
0001
1000
0100
0010
0001
1000
0001
0010
0100
1000
0001
,
0010
0100
1000
0100
1000
0001
0010
0100
1000
0001
0010
0001
0010
0100
1000
0001
,
1000
0010
0100
0001
1000
0010
0100
0001
1000
0010
0100
0001
1000
0010
0100
0001
,
1000
0001
0100
0010
1000
0001
0100
0001
1000
0010
1000
0001
0100
0010
1000
0001
,
0100
0001
1000
0100
1000
0001
0010
0001
1000
0100
0010
0001
1000
0001
0010
0100
,
1000
0001
0010
0100
1000
0001
1000
0100
0010
0001
0010
0100
1000
0001
1000
0010
,
0100
0001
1000
0010
1000
0001
0100
0001
1000
0010
0100
0001
1000
0001
0100
0010
,
1000
0010
0100
0001
1000
0010
1000
0001
0100
0001
1000
0010
0100
0001
1000
0001
,
0020
0030
0200
0300
1100
0000
0000
0000
,
1000
0001
1001
0000
,
0001
0010
0100
1000
0001
0010
0001
1000
0100
1000
0001
0010
0100
1000
0001
0010
,
0100
1000
0100
1000
0001
0010
0100
1000
0001
0010
0001
0010
0100
1000
0001
1000
,
0020
0030
0200
0300
0101
0000
0000
0000
,
0001
1000
1001
0000
,
0001
0010
0100
1000
0001
0010
0100
1000
0001
0010
0100
1000
0001
0010
0100
1000
,
0001
1000
0100
0010
0001
1000
0100
1000
0100
0010
0001
1000
0100
0010
0001
0010
,
0001
1000
0010
1000
0001
0100
0001
1000
0010
0100
0001
0100
0001
1000
0010
0100
,
0001
1000
0010
1000
0010
0100
0001
1000
0010
1000
0001
0100
0001
1000
0010
0100
,
0001
1000
0001
0010
0100
1000
0001
1000
0100
0010
0001
1000
0001
0010
0100
1000
,
0001
0010
0001
1000
0100
1000
0001
0010
0100
1000
0001
1000
0001
0010
0100
1000
,
0001
0100
0001
1000
0010
0100
0001
1000
0001
0100
0010
1000
0001
1000
0010
0100
,
0001
1000
0001
1000
0010
0100
0001
1000
0010
1000
0001
0100
0010
1000
0001
1000
,
0001
0010
0100
1000
0001
0010
0001
1000
0100
1000
0001
0010
0100
1000
0001
0010
,
0100
1000
0100
1000
0001
0010
0100
1000
0001
0010
0001
0010
0100
1000
0001
1000
,
0020
0230
0320
0230
0302
2003
3002
2003
,
3020
0030
0200
0302
0003
2000
3002
2003
,
3010
0100
0001
1000
0010
1000
0001
0100
0010
1000
0001
1000
0010
0100
0001
1000
,
0010
1000
0001
0100
0001
1000
0010
0100
0001
1000
0001
0100
0001
1000
0010
1000
,
0002
0003
0020
0030
0011
0000
0000
0000
,
0001
1000
1001
0000
,
1000
0010
0100
0001
1000
0010
1000
0001
0100
0010
1000
0001
0100
0001
1000
0010
,
0100
0001
1000
0001
0100
0010
1000
0010
0100
0001
1000
0010
1000
0001
0100
0001
,
2000
3000
0200
0300
1100
0000
0000
0000
,
1000
0001
1001
0000
,
1000
0100
1000
0001
0010
0001
1000
0100
0010
0001
1000
0001
0010
0100
1000
0001
,
0010
0100
1000
0100
1000
0001
0010
0100
1000
0001
0010
0001
0010
0100
1000
0001
,
2000
3000
0020
0030
0110
0000
0200
0302
,
2003
3000
0002
0023
0030
0002
0003
0000
,
1000
0010
0100
0001
1000
0010
0100
0001
1000
0010
0100
0001
1000
0010
0100
0001
,
1000
0001
0100
0010
1000
0001
0100
0001
1000
0010
1000
0001
0100
0010
1000
0001
,
0200
0300
0002
0003
0101
0000
0000
0000
,
0001
1000
1001
0000
,
0001
0010
0100
1000
0001
0010
0100
1000
0001
0010
0100
1000
0001
0010
0100
1000
,
0001
1000
0100
0010
0001
1000
0100
1000
0100
0010
0001
1000
0100
0010
0001
0010
,
0002
2000
0000
3003
;

//---------------dance-single - ----------------
#NOTES:
     dance-single:
     Dossar:
     Hard:
     12:
     0.990,1.000,0.121,0.816,1.000:
0000
0000
0000
0000
,
0000
0000
0000
0000
,
0000
0000
0000
0000
,
0000
0000
0000
0000
,
0000
0000
0000
0000
,
0000
0000
0000
0000
0000
1000
0010
0100
,
0001
1000
0100
1000
0001
0100
0010
1000
,
0001
0000
0000
0000
0000
0000
0000
0000
0010
0000
0000
0000
0000
0000
0000
0000
0001
0000
0000
0000
0000
0000
0000
0000
1000
0000
0000
0000
0000
0000
0000
0000
0100
0000
0000
0000
0000
0000
0000
0000
0010
0000
0000
0000
0000
0000
0000
0000
0001
0000
0000
0000
0000
1000
0000
0000
0000
0000
0001
0000
0000
0000
0000
0000
,
0100
0010
1000
0001
0100
0010
0100
0010
,
1000
0001
0010
0100
0010
0001
1000
0010
,
0100
0001
0200
0300
0001
1000
0100
0010
,
0001
1000
0002
0003
0100
0010
1000
0001
,
0010
0001
1000
0010
0100
0001
1000
0010
,
0100
0001
0100
0001
0100
0010
0100
0001
,
1000
0010
0100
0001
1000
0010
1000
0001
0100
0010
1000
0001
0100
0001
1000
0010
,
0100
0001
1000
0001
0100
0010
1000
0010
0100
0001
1000
0010
1000
0001
0100
0001
,
1000
0100
1000
0001
0010
0001
1000
0100
0010
0001
1000
0001
0010
0100
1000
0001
,
0010
0100
1000
0100
1000
0001
0010
0100
1000
0001
0010
0001
0010
0100
1000
0001
,
2000
3200
0300
0020
0032
0003
0000
0000
,
2000
3000
0020
0030
0200
0300
0000
0000
,
0002
0203
0302
0003
2000
3000
0200
0300
,
0020
0032
0023
0030
0002
0003
2000
3020
,
0130
0001
1000
0010
1000
0001
0100
0001
1000
0010
0100
0001
1000
0001
0100
0010
,
1000
0010
0100
0001
1000
0010
1000
0001
0100
0001
1000
0010
0100
0001
1000
0001
,
0020
0030
0200
0300
1100
0000
0000
0000
,
1000
0001
1001
0000
,
0001
0010
0100
1000
0001
0010
0001
1000
0100
1000
0001
0010
0100
1000
0001
0010
,
0100
1000
0100
1000
0001
0010
0100
1000
0001
0010
0001
0010
0100
1000
0001
1000
,
0020
0030
0200
0300
0101
0000
0000
0000
,
0001
1000
1001
0000
,
0001
0010
0100
1000
0001
0010
0100
1000
0001
0010
0100
1000
0001
0010
0100
1000
,
0001
1000
0100
0010
0001
1000
0100
1000
0100
0010
0001
1000
0100
0010
0001
0010
,
0001
1000
0010
1000
0001
0100
0001
1000
0010
0100
0001
0100
0001
1000
0010
0100
,
0001
1000
0010
1000
0010
0100
0001
1000
0010
1000
0001
0100
0001
1000
0010
0100
,
0002
2003
3000
0020
0230
0300
0000
0000
,
0002
0003
0020
0030
0200
0300
0000
0000
,
2000
3000
0200
2300
3200
0320
0032
2003
,
3020
0230
0302
0003
2000
3000
0002
2003
,
3001
0010
0100
1000
0001
0010
0001
1000
0100
1000
0001
0010
0100
1000
0001
0010
,
0100
1000
0100
1000
0001
0010
0100
1000
0001
0010
0001
0010
0100
1000
0001
1000
,
0020
0230
0320
0230
0302
2003
3002
2003
,
3020
0030
0200
0302
0003
2000
3002
2003
,
3010
0100
0001
1000
0010
1000
0001
0100
0010
1000
0001
1000
0010
0100
0001
1000
,
0010
1000
0001
0100
0001
1000
0010
0100
0001
1000
0001
0100
0001
1000
0010
1000
,
0002
0003
0020
0030
0011
0000
0000
0000
,
0001
1000
1001
0000
,
1000
0010
0100
0001
1000
0010
1000
0001
0100
0010
1000
0001
0100
0001
1000
0010
,
0100
0001
1000
0001
0100
0010
1000
0010
0100
0001
1000
0010
1000
0001
0100
0001
,
2000
3000
0200
0300
1100
0000
0000
0000
,
1000
0001
1001
0000
,
1000
0100
1000
0001
0010
0001
1000
0100
0010
0001
1000
0001
0010
0100
1000
0001
,
0010
0100
1000
0100
1000
0001
0010
0100
1000
0001
0010
0001
0010
0100
1000
0001
,
2000
3000
0020
0030
0110
0000
0200
0302
,
2003
3000
0002
0023
0030
0002
0003
0000
,
1000
0010
0100
0001
1000
0010
0100
0001
1000
0010
0100
0001
1000
0010
0100
0001
,
1000
0001
0100
0010
1000
0001
0100
0001
1000
0010
1000
0001
0100
0010
1000
0001
,
0200
0300
0002
0003
0101
0000
0000
0000
,
0001
1000
1001
0000
,
0001
0010
0100
1000
0001
0010
0100
1000
0001
0010
0100
1000
0001
0010
0100
1000
,
0001
1000
0100
0010
0001
1000
0100
1000
0100
0010
0001
1000
0100
0010
0001
0010
,
0002
2000
0000
3003
;

//---------------dance-single - ----------------
#NOTES:
     dance-single:
     Dossar:
     Medium:
     11:
     0.772,1.000,0.121,0.993,0.541:
0000
0000
0000
0000
,
0000
0000
0000
0000
,
0000
0000
0000
0000
,
0000
0000
0000
0000
,
0000
0000
0000
0000
,
0000
0000
0000
0000
0000
1000
0010
0100
,
0001
1000
0100
1000
0001
0100
0010
1000
,
0001
0000
0000
0000
0000
0000
0000
0000
0010
0000
0000
0000
0000
0000
0000
0000
0001
0000
0000
0000
0000
0000
0000
0000
1000
0000
0000
0000
0000
0000
0000
0000
0100
0000
0000
0000
0000
0000
0000
0000
0010
0000
0000
0000
0000
0000
0000
0000
0001
0000
0000
0000
0000
1000
0000
0000
0000
0000
0001
0000
0000
0000
0000
0000
,
0100
0010
1000
0001
0100
0010
0100
0010
,
1000
0001
0010
0100
0010
0001
1000
0010
,
0100
0001
0200
0300
0001
1000
0100
0010
,
0001
1000
0002
0003
0100
0010
1000
0001
,
0010
0001
1000
0010
0100
0001
1000
0010
,
0100
0001
0100
0001
0100
0010
0100
0001
,
1000
0010
0100
0001
1000
0010
1000
0001
0100
0010
1000
0001
0100
0001
1000
0010
,
0100
0001
1000
0001
0100
0010
1000
0010
0100
0001
1000
0010
1000
0001
0100
0001
,
1000
0000
0100
1000
0100
0010
0001
0000
,
1000
0000
0001
0000
0100
0010
1000
0000
,
0002
0023
0030
0200
2300
3000
0000
0000
,
0002
0003
0200
0300
0020
0030
0000
0000
,
2000
3020
2030
3000
0002
0003
0020
0030
,
0200
2300
3200
0300
2000
3000
0002
0203
,
0310
1000
0001
0100
0001
1000
0010
1000
0001
0100
0010
1000
0001
1000
0010
0100
,
0002
0000
2003
0000
,
3200
0300
0020
0030
0011
0000
0000
0000
,
0001
1000
1001
0000
,
1000
0100
0010
0001
1000
0100
1000
0001
0010
0001
1000
0100
0010
0001
1000
0100
,
2000
0000
3002
0000
,
0203
0300
0020
0030
1010
0000
0000
0000
,
1000
0001
1001
0000
,
1000
0100
0010
0001
1000
0100
0010
0001
1000
0100
0010
0001
1000
0100
0010
0001
,
1000
0001
0010
0100
1000
0001
0010
0001
0010
0100
1000
0001
0010
0100
1000
0100
,
1000
0000
0001
1000
0001
0100
0010
0000
,
1000
0000
0001
0000
0010
0100
1000
0000
,
0002
2003
3000
0020
0230
0300
0000
0000
,
0002
0003
0020
0030
0200
0300
0000
0000
,
2000
3000
0200
2300
3200
0320
0032
2003
,
3020
0230
0302
0003
2000
3000
0002
2003
,
3001
0010
0100
1000
0001
0010
0001
1000
0100
1000
0001
0010
0100
1000
0001
0010
,
0002
0000
2003
0000
,
3020
0230
0320
0230
0302
2003
3002
2003
,
3020
0030
0200
0302
0003
2000
3002
2003
,
3010
0100
0001
1000
0010
1000
0001
0100
0010
1000
0001
1000
0010
0100
0001
1000
,
0020
0000
2030
0000
,
3002
0003
0020
0030
0011
0000
0000
0000
,
0001
1000
1001
0000
,
1000
0010
0100
0001
1000
0010
1000
0001
0100
0010
1000
0001
0100
0001
1000
0010
,
0200
0000
0302
0000
,
2003
3000
0200
0300
1100
0000
0000
0000
,
1000
0001
1001
0000
,
1000
0100
1000
0001
0010
0001
1000
0100
0010
0001
1000
0001
0010
0100
1000
0001
,
2000
0000
3002
0000
,
2003
3000
0020
0030
0110
0000
0200
0302
,
2003
3000
0002
0023
0030
0002
0003
0000
,
1000
0010
0100
0001
1000
0010
0100
0001
1000
0010
0100
0001
1000
0010
0100
0001
,
2000
0000
3020
0000
,
0230
0300
0002
0003
0101
0000
0000
0000
,
0001
1000
1001
0000
,
0001
0010
0100
1000
0001
0010
0100
1000
0001
0010
0100
1000
0001
0010
0100
1000
,
0002
0000
0203
0000
,
0302
2000
0000
3003
;

//---------------dance-double - ----------------
#NOTES:
     dance-double:
     Dossar:
     Challenge:
     10:
     0.563,0.603,0.761,0.552,0.077: // measure 1
00000000
00000000
00000000
00000000
,  // measure 2
00000000
00000000
00000000
00000000
,  // measure 3
00000000
00000000
00000000
00000000
,  // measure 4
00000000
00000000
00000000
00000000
,  // measure 5
00000000
00000000
00000000
00000000
,  // measure 6
00000000
00000000
00000000
00000000
00000000
10000000
00100000
01000000
,  // measure 7
00010000
00100000
00001000
00010000
00000100
00001000
00000010
00000100
,  // measure 8
00000001
00000000
00000000
00000000
00000000
00000000
00000000
00000000
00000100
00000000
00000000
00000000
00000000
00000000
00000000
00000000
00000010
00000000
00000000
00000000
00000000
00000000
00000000
00000000
00001000
00000000
00000000
00000000
00000000
00000000
00000000
00000000
00000100
00000000
00000000
00000000
00000000
00000000
00000000
00000000
00010000
00000000
00000000
00000000
00000000
00000000
00000000
00000000
00001000
00000000
00000000
00000000
00000000
00010000
00000000
00000000
00000000
00000000
00001000
00000000
00000000
00000000
00000000
00000000
,  // measure 9
00100000
01000000
10000000
00010000
01000000
00100000
01000000
00100000
,  // measure 10
10000000
00010000
01000000
00001000
01000000
00010000
00100000
00001000
,  // measure 11
00010000
00000100
00020000
00030000
00000100
00000010
00000001
00001000
,  // measure 12
00000010
00010000
00000020
00000030
00010000
00001000
00100000
01000000
,  // measure 13
10000000
01000000
00100000
00010000
10000000
00100000
01000000
00001000
,  // measure 14
00010000
00000100
00010000
00000100
00010000
00001000
00010000
00000010
,  // measure 15
00001000
00000100
00010000
00001000
00011000
00000000
00100000
01000000
,  // measure 16
10000000
00000000
00010000
00000000
01010000
00000000
01000000
00001000
,  // measure 17
00010000
00000100
00001000
00000001
00000101
00000100
00000010
00000000
,  // measure 18
00001000
00000000
00000100
00000000
00001100
00000100
00010000
00001000
,  // measure 19
00101000
00100000
01000000
10000000
10010000
00000000
00010000
01000000
,  // measure 20
00001000
00000000
00010000
00000000
00010100
00000000
00000100
00000010
,  // measure 21
00000001
00001000
00000010
00000000
00001010
00000000
00001000
00000000
,  // measure 22
00000010
00010000
00001000
00100000
00101000
00001000
00010000
00000100
,  // measure 23
M200020M
M000100M
M301130M
00000000
,  // measure 24
M200020M
M000100M
M301130M
00000000
,  // measure 25
M200020M
M000100M
M301130M
00000000
,  // measure 26
M200020M
M000100M
M301130M
00000000
,  // measure 27
00011000
00000000
00011000
00000000
,  // measure 28
00011000
00000000
00011000
00000000
,  // measure 29
00011000
00011000
00000000
00000000
,  // measure 30
00000000
00000000
00001000
00010000
00000000
00000000
00000000
00000000
,  // measure 31
00001000
00010000
00001000
00100000
01000000
00000000
10000000
00000000
,  // measure 32
00010000
00000000
01000000
00000000
00001000
00010000
00000100
00001000
,  // measure 33
00000100
00000000
00000010
00000001
00001000
00000100
00010000
00000000
,  // measure 34
00001000
00000000
00100000
00000000
00010000
10000000
00010000
00000000
,  // measure 35
01000000
00001000
00000000
00010000
00001000
00000000
00000000
00010000
,  // measure 36
00000100
00000010
00000001
00000000
,  // measure 37
00001000
00000000
00000010
00001000
00000100
00010000
00001000
00100000
,  // measure 38
00010000
00000000
10000000
00000000
01000000
00000000
00000000
00000000
00100000
0000M000
0000MM00
MMMMMMM0
MMMMMMMM
MMMMMMM0
0000MM00
0000M000
,  // measure 39
02200000
00000100
03300110
00000000
,  // measure 40
02200000
00000100
03300110
00000000
,  // measure 41
02200000
00000100
03300110
00000000
,  // measure 42
02200000
00000100
03300110
00000000
,  // measure 43
22000000
00100000
33110000
00000000
,  // measure 44
22000000
00100000
33110000
00000000
,  // measure 45
22000000
00100000
33110000
00000000
,  // measure 46
00000000
000M0000
00MM0000
0MMMMMMM
MMMMMMMM
0MMMMMMM
00MM0000
000M0000
00000000
00000000
00000000
00000000
00000000
00000000
00000000
00000000
,  // measure 47
00000220
01000000
01100330
00000000
,  // measure 48
00000220
01000000
01100330
00000000
,  // measure 49
00000220
01000000
01100330
00000000
,  // measure 50
00000220
01000000
01100330
00000000
,  // measure 51
00000202
00000010
00010313
00000000
,  // measure 52
00000202
00000010
00010313
00000000
,  // measure 53
00000202
00000010
00010313
00000000
,  // measure 54
00000000
0000M000
0000MM00
MMMMMMM0
MMMMMMMM
MMMMMMM0
0000MM00
0000M000
00000000
00000000
00000000
00000000
00000000
00000000
00000000
00000000
,  // measure 55
01100000
01100000
00000110
00000000
,  // measure 56
01100000
01100000
00000110
00000000
,  // measure 57
01100000
01100000
00000110
00000000
,  // measure 58
01100000
01100000
00000110
00000000
,  // measure 59
02200000
00000000
03300220
00000000
,  // measure 60
02200330
00000000
03300220
00000000
,  // measure 61
02200330
00000220
00000000
03300330
;
