#TITLE:THERE YOU'LL BE;
#SUBTITLE:;
#ARTIST:DJ Speedo feat. Angelica;
#TITLETRANSLIT:;
#SUBTITLETRANSLIT:;
#ARTISTTRANSLIT:;
#CREDIT:;
#BANNER:../ddrstream fallback-bn.png;
#BACKGROUND:../ddrstream fallback-bg.png;
#LYRICSPATH:;
#CDTITLE:;
#MUSIC:THERE YOU'LL BE.ogg;
#OFFSET:0.001;
#SAMPLESTART:46.060;
#SAMPLELENGTH:11.100;
#SELECTABLE:YES;
#BPMS:0.000=172.000;
#STOPS:;
#BGCHANGES:;

//---------------dance-single - ----------------
#NOTES:
     dance-single:
     Hyena:
     Challenge:
     13:
     1.000,1.000,0.088,0.284,1.000:
0000
0000
0000
0000
,
0000
0000
0000
0000
,
0000
0000
0000
0000
,
0000
0000
0000
0000
,
0000
0000
0000
0000
,
0000
0000
0000
0000
,
0000
0000
0000
0000
,
0000
0000
0000
0000
,
0000
0000
0000
0000
,
1000
0100
0010
0001
1000
0001
0100
0001
1000
0010
0100
0010
1000
0001
0100
0010
,
0100
0001
0010
0100
0010
0001
1000
0001
0100
0010
1000
0100
0010
0001
1000
0001
,
0010
0100
1000
0001
0010
0001
0100
0010
0100
0001
1000
0001
0010
0100
1000
0001
,
1000
0100
0010
0001
1000
0100
1000
0100
0010
0001
0100
0010
1000
0001
1000
0001
0010
0100
1000
0001
,
1000
0100
0010
0001
1000
0001
0100
0001
1000
0001
0100
0010
1000
0010
0100
0010
,
1000
0001
0010
0100
0010
0001
1000
0100
1000
0100
1000
0001
1000
0010
0100
0010
,
1000
0001
0010
0100
1000
0001
1000
0010
0100
0010
1000
0100
0010
0100
1000
0001
,
0010
0100
0010
0001
0010
0100
1000
0001
0010
0001
0010
0001
1000
0010
0100
0001
,
1000
0010
1000
0010
1000
0010
1000
0010
,
1000
0001
1000
0001
1000
0001
1000
0001
,
1000
0010
1000
0010
1000
0010
1000
0010
,
1000
0010
0100
0010
0100
0010
0100
0010
,
0100
0001
0100
0001
0100
0001
0100
0001
,
1000
0001
1000
0001
1000
0001
1000
0001
,
0100
0001
0010
0001
1000
0001
0100
0001
,
0010
0001
0100
0001
1000
0001
0010
0001
,
1000
0100
1000
0010
1000
0001
1000
0010
,
1000
0100
1000
0001
1000
0010
1000
0100
,
1000
0010
0100
0001
1000
0010
0100
0001
,
1000
0010
0100
0001
1000
0010
0100
0001
,
2000
3000
0100
0000
0010
0000
0001
0000
1000
0000
0100
0000
0010
0000
0001
0000
,
2000
3000
0100
0000
0010
0000
0001
0000
1000
0000
0100
0000
0010
0000
0001
0000
,
1000
0100
1000
0000
0001
0010
0001
0000
1000
0010
1000
0000
0001
0100
0001
0000
,
1100
0110
0000
0000
0110
0011
0000
0000
,
1000
0100
0010
0001
1000
0001
0010
0001
1000
0100
1000
0001
0010
0100
0010
0001
,
1000
0001
1000
0001
0100
0010
1000
0010
0100
0010
1000
0001
0010
0100
1000
0010
,
0100
0001
0100
0010
1000
0010
0100
0001
0010
0100
1000
0001
1000
0100
0010
0001
,
1000
0000
0001
0000
0100
0000
0001
0000
0010
0000
0001
0000
0100
0000
0001
0000
2000
3000
0010
0000
2000
3000
0010
0000
0200
0300
0001
0000
0200
0300
0001
0000
,
2000
3000
0100
0000
0010
0000
0001
0000
1000
0000
0001
0000
0100
0000
0010
0000
1000
0000
0001
0000
0010
0000
0100
0000
0010
0000
0001
0000
1000
0000
0001
0000
,
0100
0010
1000
0001
0010
0100
1000
0001
0010
0100
1000
0001
1000
0001
1000
0100
,
0010
0001
1000
0001
0100
0010
0100
0001
1000
0010
0100
0001
1000
0001
0100
0010
,
2000
3000
0010
0000
0100
0000
0010
0000
2000
3000
0001
0000
0100
0000
0010
0000
0200
0300
0002
0003
0200
0300
0020
0030
2000
3000
0020
0030
0200
0300
0002
0003
,
2000
3000
0100
0000
0010
0000
0001
0000
1000
0000
0001
0000
0010
0000
0100
0000
0010
0000
0001
0000
1000
0000
0100
0000
1000
0000
0100
0000
1000
0000
0001
0000
,
0100
0001
1000
0100
1000
0100
0010
0001
1000
0010
0100
0010
1000
0001
1000
0010
,
0100
0010
1000
0100
0010
0001
1000
0001
0010
0100
0010
0001
1000
0001
0010
0001
,
1000
0001
0100
0010
1000
0001
0100
0010
0100
0001
1000
0100
0010
0100
1000
0001
,
1000
0010
0100
0010
1000
0010
0100
0001
0100
0010
0100
0001
0100
0010
1000
0100
,
0010
0001
1000
0100
0010
0001
1000
0001
0100
0010
1000
0001
0010
0100
1000
0001
,
1000
0100
1000
0001
0100
0010
0100
0001
1000
0010
1000
0001
0100
0010
0100
0001
,
1000
0010
1000
0100
0010
0001
0010
0100
0010
0001
0010
0100
1000
0001
1000
0010
,
0100
0001
1000
0010
1000
0001
0100
0010
0100
0010
1000
0001
1000
0001
1000
0010
,
0100
0010
1000
0010
0100
0001
0010
0100
0010
0001
1000
0001
0100
0001
1000
0001
,
0010
0100
0010
0001
1000
0100
1000
0001
1000
0010
0100
0010
1000
0001
0100
0010
,
2000
3000
0000
0000
0200
0000
0300
0000
0020
0000
0000
0030
0002
0000
0000
0000
0023
0000
0000
0030
0200
0000
0300
0000
2000
3000
0000
0000
0001
0000
0000
0000
,
1001
1001
1001
1001
,
1000
0100
0010
0001
1000
0001
0100
0010
1000
0001
0100
0010
0100
0001
1000
0010
,
1000
0010
1000
0001
0100
0001
1000
0100
0010
0001
0010
0100
0010
0001
1000
0001
,
1000
0010
0100
0010
0100
0010
1000
0001
0010
0100
0010
0001
1000
0001
1000
0010
,
0100
0010
1000
0100
0010
0100
1000
0001
1000
0010
0100
0001
0100
0010
0100
0001
,
1000
0100
0010
0001
0100
0010
1000
0001
0100
0010
0100
0001
0010
0100
0010
0001
,
1000
0010
1000
0001
0100
0001
1000
0100
1000
0100
0010
0001
0010
0001
1000
0010
,
0100
0010
1000
0001
0010
0100
1000
0001
0010
0100
1000
0001
1000
0010
0100
0010
,
1000
0001
0010
0100
0010
0001
1000
0100
0010
0100
1000
0001
0100
0010
1000
0001
,
2000
0000
0000
0000
,
3000
0000
0000
0000
;

//---------------dance-single - ----------------
#NOTES:
     dance-single:
     Hyena:
     Hard:
     12:
     0.783,1.000,0.088,0.164,0.749:
0000
0000
0000
0000
,
0000
0000
0000
0000
,
0000
0000
0000
0000
,
0000
0000
0000
0000
,
0000
0000
0000
0000
,
0000
0000
0000
0000
,
0000
0000
0000
0000
,
0000
0000
0000
0000
,
0000
0000
0000
0000
,
1000
0100
0010
0001
1000
0001
0100
0001
1000
0010
0100
0010
1000
0001
0100
0010
,
0100
0001
0010
0100
0010
0001
1000
0001
0100
0010
1000
0100
0010
0001
1000
0001
,
0010
0100
1000
0001
0010
0001
0100
0010
0100
0001
1000
0001
0010
0100
1000
0001
,
4000
0004
0000
0000
0000
0000
0000
0000
0000
0000
0000
0000
0000
0000
0000
0000
0000
0000
0000
0000
0000
3000
0003
0000
,
1000
0100
0010
0001
1000
0001
0100
0001
1000
0001
0100
0010
1000
0010
0100
0010
,
1000
0001
0010
0100
0010
0001
1000
0100
1000
0100
1000
0001
1000
0010
0100
0010
,
1000
0001
0010
0100
1000
0001
1000
0010
0100
0010
1000
0100
0010
0100
1000
0001
,
0010
0100
0010
0001
0010
0100
1000
0001
0010
0001
0010
0001
1000
0010
0100
0001
,
1000
0010
1000
0010
1000
0010
1000
0010
,
1000
0001
1000
0001
1000
0001
1000
0001
,
1000
0010
1000
0010
1000
0010
1000
0010
,
1000
0010
0100
0010
0100
0010
0100
0010
,
0100
0001
0100
0001
0100
0001
0100
0001
,
1000
0001
1000
0001
1000
0001
1000
0001
,
0100
0001
0010
0001
1000
0001
0100
0001
,
0010
0001
0100
0001
1000
0001
0010
0001
,
1000
0100
1000
0010
1000
0001
1000
0010
,
1000
0100
1000
0001
1000
0010
1000
0100
,
1000
0010
0100
0001
1000
0010
0100
0001
,
1000
0010
0100
0001
1000
0010
0100
0001
,
2000
3000
0100
0000
0010
0000
0001
0000
1000
0000
0100
0000
0010
0000
0001
0000
,
2000
3000
0100
0000
0010
0000
0001
0000
1000
0000
0100
0000
0010
0000
0001
0000
,
1000
0100
1000
0000
0001
0010
0001
0000
1000
0010
1000
0000
0001
0100
0001
0000
,
1100
0110
0000
0000
0110
0011
0000
0000
,
0000
0000
0000
0000
1000
0100
0010
0001
,
1000
0010
1000
0001
,
0100
0000
0001
0100
0000
0100
0002
0000
,
0000
0000
0000
0003
0010
0010
0100
0100
,
1000
0000
0000
0000
0010
1000
0010
0100
,
0001
0000
1000
0000
0001
0000
0100
0010
,
0000
0000
1000
0001
0000
0000
1000
0020
,
0000
0000
0030
0000
1000
0000
0001
0000
1000
0100
0010
0100
1000
0001
0100
0001
,
1000
0000
0001
0020
,
0000
0000
0000
0030
0100
0000
2000
0000
,
0000
3000
0010
0200
0000
0301
0000
1000
,
0000
0000
0000
0000
0000
0000
0001
0010
,
0000
0000
0010
0100
0000
0000
0100
1000
,
0000
0000
0001
0000
1000
0001
1000
0000
,
1000
0100
1000
0000
0001
0010
0001
0000
1000
0001
1000
0000
0001
1000
0001
0000
,
1000
0010
1000
0000
0001
0100
0001
0000
0100
0010
0100
0000
0001
0100
0001
0000
,
0000
0000
1000
0100
0000
0000
0010
0001
,
0000
0100
0010
1000
,
0001
0001
1000
0001
,
2000
3000
0000
0000
0200
0000
0300
0000
0020
0000
0000
0030
0002
0000
0000
0000
0023
0000
0000
0030
0200
0000
0300
0000
2000
3000
0000
0000
0001
0000
0000
0000
,
1001
1001
1001
1001
,
1000
0100
0010
0001
1000
0001
0100
0010
1000
0001
0100
0010
0100
0001
1000
0010
,
1000
0010
1000
0001
0100
0001
1000
0100
0010
0001
0010
0100
0010
0001
1000
0001
,
1000
0010
0100
0010
0100
0010
1000
0001
0010
0100
0010
0001
1000
0001
1000
0010
,
0100
0010
1000
0100
0010
0100
1000
0001
1000
0010
0100
0001
0100
0010
0100
0001
,
1000
0100
0010
0001
0100
0010
1000
0001
0100
0010
0100
0001
0010
0100
0010
0001
,
1000
0010
1000
0001
0100
0001
1000
0100
1000
0100
0010
0001
0010
0001
1000
0010
,
0100
0010
1000
0001
0010
0100
1000
0001
0010
0100
1000
0001
1000
0010
0100
0010
,
1000
0001
0010
0100
0010
0001
1000
0100
0010
0100
1000
0001
0100
0010
1000
0001
,
2000
0000
0000
0000
,
3000
0000
0000
0000
;

//---------------dance-single - ----------------
#NOTES:
     dance-single:
     Hyena:
     Medium:
     11:
     0.744,1.000,0.088,0.164,0.684:
0000
0000
0000
0000
,
0000
0000
0000
0000
,
0000
0000
0000
0000
,
0000
0000
0000
0000
,
0000
0000
0000
0000
,
0000
0000
0000
0000
,
0000
0000
0000
0000
,
0000
0000
0000
0000
,
0000
0000
0000
0000
,
1000
0100
0010
0001
1000
0001
0100
0001
1000
0010
0100
0001
0000
1000
0010
0000
,
0100
0001
0100
0010
1000
0010
0100
0001
0100
0001
0010
0001
0000
0010
0100
0000
,
1000
0001
1000
0100
1000
0100
0010
0001
0010
0001
1000
0100
0000
0010
0001
1000
,
0400
0040
0000
0000
0000
0000
0000
0000
0000
0000
0000
0000
0000
0000
0000
0000
0000
0000
0000
0000
0000
0300
0030
0000
,
0001
0010
0100
1000
0001
1000
0010
1000
0001
0100
0010
1000
0000
0001
0100
0000
,
0010
1000
0010
0100
0001
0100
0010
1000
0010
1000
0100
1000
0000
0100
0010
0000
,
0001
1000
0001
0010
0001
0010
0100
1000
0100
1000
0001
0010
0000
0100
1000
0000
,
0001
0010
0100
1000
0001
0100
0010
1000
0001
0010
0100
1000
0001
0100
0010
1000
,
0001
0100
0001
0100
0001
0100
0001
0100
,
0001
1000
0001
1000
0001
1000
0001
1000
,
0001
0100
0001
0100
0001
0100
0001
0100
,
0001
0100
0010
0100
0010
0100
0010
0100
,
0010
1000
0010
1000
0010
1000
0010
1000
,
0001
1000
0001
1000
0001
1000
0001
1000
,
0010
1000
0100
1000
0001
1000
0010
1000
,
0100
1000
0010
1000
0001
1000
0100
1000
,
0001
0010
0001
0100
0001
1000
0001
0100
,
0001
0010
0001
1000
0001
0100
0001
0010
,
0001
0100
0010
1000
0001
0100
0010
1000
,
0001
0100
0010
1000
0001
0100
0010
1000
,
0002
0003
0010
0000
0100
0000
1000
0000
0001
0000
0010
0000
0100
0000
1000
0000
,
0002
0003
0010
0000
0100
0000
1000
0000
0001
0000
0010
0000
0100
0000
1000
0000
,
1000
0100
1000
0000
0001
0010
0001
0000
1000
0010
1000
0000
0001
0100
0001
0000
,
1100
0110
0000
0000
0110
0011
0000
0000
,
0000
0000
0000
0000
1000
0100
0010
0001
,
1000
0010
1000
0001
,
0100
0000
0001
0100
0000
0100
0002
0000
,
0000
0000
0000
0003
0010
0010
0100
0100
,
1000
0000
0000
0000
0010
1000
0010
0100
,
0001
0000
1000
0000
0001
0000
0100
0010
,
0000
0000
1000
0001
0000
0000
1000
0020
,
0000
0000
0030
0000
1000
0000
0001
0000
1000
0100
0010
0100
1000
0001
0100
0001
,
1000
0000
0001
0020
,
0000
0000
0000
0030
0100
0000
2000
0000
,
0000
3000
0010
0200
0000
0301
0000
1000
,
0000
0000
0000
0000
0000
0000
0001
0010
,
0000
0000
0010
0100
0000
0000
0100
1000
,
0000
0000
0001
0000
1000
0001
1000
0000
,
1000
0100
1000
0000
0001
0010
0001
0000
1000
0001
1000
0000
0001
1000
0001
0000
,
1000
0010
1000
0000
0001
0100
0001
0000
0100
0010
0100
0000
0001
0100
0001
0000
,
0000
0000
1000
0100
0000
0000
0010
0001
,
0000
0100
0010
1000
,
0001
0001
1000
0001
,
2000
3000
0000
0000
0200
0000
0300
0000
0020
0000
0000
0030
0002
0000
0000
0000
0023
0000
0000
0030
0200
0000
0300
0000
2000
3000
0000
0000
0001
0000
0000
0000
,
1001
1001
1001
1001
,
1000
0100
0010
0001
1000
0001
0100
0010
1000
0001
0100
0010
0000
1000
0100
0000
,
0010
0001
1000
0001
0100
0001
1000
0100
0010
0001
0010
0100
0000
1000
0100
0000
,
0010
0001
0010
0001
0100
0010
0100
0010
1000
0100
1000
0100
0000
0010
0001
0000
,
0100
0010
1000
0100
0010
0100
1000
0001
1000
0010
0100
0001
0000
0010
0100
0000
,
1000
0100
0010
0001
0100
0010
1000
0001
0100
0010
0100
0001
0000
0100
0010
0000
,
1000
0010
1000
0001
0100
0001
1000
0100
1000
0100
0010
0001
0000
0001
1000
0000
,
0100
0010
0001
1000
0100
0010
0100
1000
0001
1000
0001
1000
0000
0010
0100
0000
,
0001
0100
0001
1000
0010
0100
0001
0100
0010
0100
0001
1000
0010
1000
0001
1000
,
0002
0000
0000
0000
,
0003
0000
0000
0000
;

//---------------dance-double - ----------------
#NOTES:
     dance-double:
     Dossar:
     Challenge:
     13:
     1.000,1.000,0.033,0.602,1.000:
00000000
00000000
00000000
00000000
,
00000000
00000000
00000000
00000000
,
00000000
00000000
00000000
00000000
,
00000000
00000000
00000000
00000000
,
00000000
00000000
00000000
00000000
,
00000000
00000000
00000000
00000000
,
00000000
00000000
00000000
00000000
,
00000000
00000000
00000000
00000000
,
00000000
00000000
00000000
00000000
,
10000000
00100000
01000000
00010000
01000000
00100000
10000000
00010000
01000000
00100000
01000000
00010000
10000000
00100000
01000000
00001000
,
01000000
00001000
00010000
00000100
00010000
00001000
00010000
00000100
00001000
00000100
00010000
00000100
00000010
00000001
00001000
00000100
,
00001000
00000001
00000100
00000010
00001000
00000001
00000100
00000010
00001000
00000001
00001000
00000010
00010000
00001000
00010000
00000010
,
00002000
00003020
00020030
00032000
,
01003000
00010000
01000000
00100000
10000000
00010000
01000000
00100000
10000000
00010000
01000000
00010000
10000000
00100000
01000000
00010000
,
01000000
00001000
00010000
00001000
01000000
00001000
00010000
00000100
00010000
00001000
00010000
00000100
00001000
00000100
00000010
00000001
,
00001000
00000010
00000100
00000001
00001000
00000010
00000100
00000001
00001000
00000010
00001000
00000001
00001000
00000010
00010000
00001000
,
00010000
00000010
00010000
00001000
00100000
00001000
00010000
00001000
00100000
01000000
10000000
00010000
00100000
01000000
10000000
00010000
,
01000000
00100000
01000000
00100000
01000000
00010000
01000000
00010000
,
01000000
00001000
01000000
00001000
00010000
00001000
00010000
00001000
,
00010000
00000100
00010000
00000100
00001000
00000100
00001000
00000100
,
00000010
00000100
00000010
00000100
00001000
00000001
00001000
00000001
,
00001000
00000010
00001000
00000010
00010000
00000010
00010000
00000010
,
00010000
00001000
00010000
00001000
00100000
00001000
00100000
00001000
,
00100000
01000000
00100000
01000000
10000000
00010000
10000000
00010000
,
01000000
00000000
00010000
00000000
01000000
00000000
00010000
00000000
01000000
00000000
00100000
10000000
00100000
00000000
01000000
00000000
,
00010000
10000000
00010000
10000000
00010000
01000000
00010000
01000000
,
00001000
01000000
00001000
01000000
00001000
00010000
00001000
00010000
,
00000100
00010000
00000100
00010000
00000100
00001000
00000100
00001000
,
00000100
00000010
00000100
00000010
00000001
00000010
00000001
00000010
,
00000002
00001003
00000001
00001000
00000010
00001000
00000010
00001000
,
00000020
00010030
00000010
00010000
00001000
00010000
00001000
00010000
,
00001000
00100000
00001000
00000000
00100000
00010000
00100000
00000000
01000000
00100000
01000000
00000000
10000000
00010000
10000000
00000000
,
00020000
20030000
30000000
00000000
20000000
30020000
00030000
00000000
,
10000000
00010000
01000000
00100000
10000000
00010000
01000000
00010000
10000000
00100000
01000000
00010000
01000000
00001000
00010000
00001000
,
01000000
00001000
00010000
00000100
00010000
00001000
00010000
00000100
00001000
00000100
00010000
00000100
00001000
00000001
00001000
00000100
,
00001000
00000001
00000100
00000010
00000100
00000001
00001000
00000010
00000100
00000001
00001000
00000010
00000100
00000001
00001000
00000010
,
00010000
00000000
00001000
00000000
00010000
00000000
00000010
00000000
00010000
00000000
00001000
00000000
00100000
00000000
00001000
00000000
00020000
00030000
00001000
00000000
00200000
00300000
00010000
00000000
00200000
00300000
01000000
00000000
20000000
30000000
00010000
00000000
,
02000000
03000000
00100000
00000000
10000000
00000000
00010000
00000000
01000000
00000000
00100000
00000000
10000000
00000000
00010000
00000000
01000000
00000000
00100000
00000000
01000000
00000000
00001000
00000000
00010000
00000000
00001000
00000000
01000000
00000000
00001000
00000000
,
00010000
00000010
00010000
00001000
00010000
00000010
00001000
00000010
00000100
00000001
00000100
00000010
00010000
00001000
00010000
00000100
,
00010000
00001000
00100000
00010000
10000000
00010000
10000000
01000000
00100000
00010000
10000000
01000000
00100000
00010000
00100000
01000000
,
10000000
00000000
00010000
00000000
01000000
00000000
00100000
00000000
10000000
00000000
00010000
00000000
10000000
00000000
00010000
00000000
02000000
03000000
00002000
00003000
00020000
00030000
00002000
00003000
02000000
03000000
00002000
00003000
00020000
00030000
00000200
00000300
,
00001000
00000001
00001000
00000010
00000100
00000001
00001000
00000010
00001000
00000001
00000100
00000010
00001000
00000010
00010000
00001000
,
00010000
00000010
00010000
00001000
00100000
00001000
00010000
00001000
00100000
01000000
10000000
00010000
00100000
01000000
10000000
00010000
,
01000000
00100000
10000000
00010000
01000000
00100000
01000000
00010000
10000000
00100000
01000000
00010000
01000000
00001000
00010000
00001000
,
01000000
00001000
00010000
00000100
00010000
00001000
00010000
00000100
00000010
00000001
00001000
00000100
00000010
00000001
00000010
00000100
,
00001000
00000100
00010000
00000100
00010000
00001000
00100000
00010000
00100000
00001000
00100000
01000000
10000000
00010000
00100000
01000000
,
10000000
00010000
01000000
00100000
10000000
00010000
01000000
00010000
10000000
00100000
01000000
00010000
01000000
00100000
10000000
00010000
,
02000000
03000000
00002000
00003000
02000000
03000000
00000000
00000000
00002000
00003000
00020000
00030000
00002000
00003000
00000000
00000000
00020000
00030000
00000200
00000300
00020000
00030000
00000000
00000000
00000200
00000300
00000020
00000030
00000200
00000300
00000000
00000000
,
00002000
00003000
00000002
00000003
00002000
00003000
00000000
00000000
00000020
00000030
00020000
00030000
00000020
00000030
00000000
00000000
00020000
00030000
00002000
00003000
00020000
00030000
00000000
00000000
00002000
00003000
02000000
03000000
00002000
00003000
00000000
00000000
,
01000000
00010000
10000000
00010000
01000000
00100000
10000000
00010000
01000000
00100000
01000000
00001000
00010000
00001000
01000000
00001000
,
00010000
00000010
00010000
00001000
00010000
00000010
00001000
00000010
00000100
00000001
00000100
00000010
00010000
00001000
00010000
00000100
,
00010000
00000000
00001000
00100000
00001000
00000000
00100000
01000000
00100000
00000000
00010000
10000000
00010000
00000000
10000000
01000000
,
10000000
00010000
00100000
00010000
10000000
01000000
00100000
00010000
00100000
00001000
00010000
00000100
00001000
00000100
00000010
00000001
,
00002000
00003000
00000000
00000000
00002002
00003003
00000000
00000000
00002002
00003003
00000000
00000000
00002002
00003003
00000000
00000000
,
00000001
00001000
00000010
00000100
00000001
00001000
00000010
00000100
00000001
00001000
00000010
00001000
00000001
00000100
00000010
00001000
,
00000010
00010000
00001000
00010000
00000010
00010000
00001000
00100000
00001000
00010000
00001000
00100000
00010000
00100000
01000000
10000000
,
00010000
01000000
00100000
10000000
00010000
01000000
00100000
10000000
00010000
01000000
00010000
10000000
00010000
01000000
00001000
00010000
,
00001000
01000000
00001000
00010000
00000100
00010000
00001000
00010000
00000100
00000010
00000001
00001000
00000100
00000010
00000001
00001000
,
00000001
00001000
00000010
00000100
00000001
00001000
00000010
00001000
00000001
00000100
00000010
00001000
00000010
00010000
00001000
00010000
,
00000010
00010000
00001000
00100000
00001000
00010000
00001000
00100000
00010000
00100000
00001000
00100000
00010000
10000000
00010000
00100000
,
00010000
10000000
00100000
01000000
00100000
10000000
00010000
01000000
00100000
10000000
00010000
01000000
00100000
10000000
00010000
01000000
,
00001000
00010000
00001000
01000000
00001000
01000000
00010000
01000000
00001000
00010000
00001000
00010000
00001000
00100000
01000000
10000000
,
00020000
00000000
00000000
00000000
,
00030000
00000000
00000000
00000000
;

//---------------dance-double - ----------------
#NOTES:
     dance-double:
     Dossar:
     Hard:
     12:
     1.000,1.000,0.022,1.000,0.963: // measure 1
00000000
00000000
00000000
00000000
,  // measure 2
00000000
00000000
00000000
00000000
,  // measure 3
00000000
00000000
00000000
00000000
,  // measure 4
00000000
00000000
00000000
00000000
,  // measure 5
00000000
00000000
00000000
00000000
,  // measure 6
00000000
00000000
00000000
00000000
,  // measure 7
00000000
00000000
00000000
00000000
,  // measure 8
00000000
00000000
00000000
00000000
,  // measure 9
00000000
00000000
00000000
00000000
,  // measure 10
10000000
00000000
00010000
00000000
01000000
00000000
00001000
00000000
00010000
00000000
00001000
01000000
00001000
00000000
00010000
00000000
,  // measure 11
00000100
00000000
00001000
00000000
00000100
00000000
00000010
00000000
00000001
00000000
00001000
00000100
00001000
00000000
00000010
00000000
,  // measure 12
00010000
00000000
00001000
00000000
00100000
00000000
00010000
00000000
00100000
00000000
01000000
10000000
01000000
00000000
00100000
00000000
,  // measure 13
00020000
02030000
03002000
00023000
,  // measure 14
00030010
00001000
00000010
00000100
00000001
00001000
00000010
00000100
00000001
00001000
00000010
00001000
00000001
00000100
00000010
00001000
,  // measure 15
00000010
00010000
00001000
00010000
00000010
00010000
00001000
00100000
00001000
00010000
00001000
00100000
00010000
00100000
01000000
10000000
,  // measure 16
00010000
01000000
00100000
10000000
00010000
01000000
00100000
10000000
00010000
01000000
00010000
10000000
00010000
01000000
00001000
00010000
,  // measure 17
00001000
01000000
00001000
00010000
00000100
00010000
00001000
00010000
00000100
00000010
00000001
00001000
00000100
00000010
00000001
00001000
,  // measure 18
00000010
00000100
00000010
00000100
00000010
00001000
00000010
00001000
,  // measure 19
00000010
00010000
00000010
00010000
00001000
00010000
00001000
00010000
,  // measure 20
00001000
00100000
00001000
00100000
00010000
00100000
00010000
00100000
,  // measure 21
01000000
00100000
01000000
00100000
00010000
10000000
00010000
10000000
,  // measure 22
00010000
01000000
00010000
01000000
00001000
01000000
00001000
01000000
,  // measure 23
00001000
00010000
00001000
00010000
00000100
00010000
00000100
00010000
,  // measure 24
00000100
00000010
00000100
00000010
00000001
00001000
00000001
00001000
,  // measure 25
00000010
00000000
00001000
00000000
00000010
00000000
00001000
00000000
00000010
00000000
00000100
00000001
00000100
00000000
00000010
00000000
,  // measure 26
00001000
00000001
00001000
00000001
00001000
00000010
00001000
00000010
,  // measure 27
00010000
00000010
00010000
00000010
00010000
00001000
00010000
00001000
,  // measure 28
00100000
00001000
00100000
00001000
00100000
00010000
00100000
00010000
,  // measure 29
00100000
01000000
00100000
01000000
10000000
01000000
10000000
01000000
,  // measure 30
20000000
30010000
10000000
00010000
01000000
00010000
01000000
00010000
,  // measure 31
02000000
03001000
01000000
00001000
00010000
00001000
00010000
00001000
,  // measure 32
00010000
00000100
00010000
00000000
00000100
00001000
00000100
00000000
00000010
00000100
00000010
00000000
00000001
00001000
00000001
00000000
,  // measure 33
00002000
00003002
00000003
00000000
00000002
00002003
00003000
00000000
,  // measure 34
00000001
00001000
00000010
00000100
00000001
00001000
00000010
00001000
00000001
00000100
00000010
00001000
00000010
00010000
00001000
00010000
,  // measure 35
00000010
00010000
00001000
00100000
00001000
00010000
00001000
00100000
00010000
00100000
00001000
00100000
00010000
10000000
00010000
00100000
,  // measure 36
00010000
10000000
00100000
01000000
00100000
10000000
00010000
01000000
00100000
10000000
00010000
01000000
00100000
10000000
00010000
01000000
,  // measure 37
00001000
00000000
00010000
00000000
00001000
00000000
01000000
00000000
00001000
00000000
00010000
00000000
00000100
00000000
00010000
00000000
00002000
00003000
00010000
00000000
00000200
00000300
00001000
00000000
00000200
00000300
00000010
00000000
00000002
00000003
00001000
00000000
,  // measure 38
00000020
00000030
00000100
00000000
00000001
00000000
00001000
00000000
00000010
00000000
00000100
00000000
00000001
00000000
00001000
00000000
00000010
00000000
00000100
00000000
00000010
00000000
00010000
00000000
00001000
00000000
00010000
00000000
00000010
00000000
00010000
00000000
,  // measure 39
00001000
01000000
00001000
00010000
00001000
01000000
00010000
01000000
00100000
10000000
00100000
01000000
00001000
00010000
00001000
00100000
,  // measure 40
00001000
00010000
00000100
00001000
00000001
00001000
00000001
00000010
00000100
00001000
00000001
00000010
00000100
00001000
00000100
00000010
,  // measure 41
00000001
00000000
00001000
00000000
00000010
00000000
00000100
00000000
00000001
00000000
00001000
00000000
00000001
00000000
00001000
00000000
00000020
00000030
00020000
00030000
00002000
00003000
00020000
00030000
00000020
00000030
00020000
00030000
00002000
00003000
00200000
00300000
,  // measure 42
00020000
00030000
20000000
30000000
01000000
00000000
00200000
00300000
00010000
00000000
02000000
03000000
00001000
00000000
00020000
00030000
,  // measure 43
00000100
00000000
00001000
00000000
00000100
00000000
00000020
00000030
00000001
00000000
00002000
00003000
00000010
00000000
00020000
00030000
,  // measure 44
00002000
00003000
00020000
00030000
00000010
00000000
00002000
00003000
00000001
00000000
00000200
00000300
00000010
00000000
00002000
00003000
,  // measure 45
00000002
00000003
00002000
00003000
00000100
00000000
00020000
00030000
00001000
00000000
00200000
00300000
01000000
00000000
20000000
30000000
,  // measure 46
00020000
00030000
20000000
30000000
00100000
00000000
02000000
03000000
00001000
00000000
00020000
00030000
00000010
00000000
00002000
00003000
,  // measure 47
00000002
00000003
00002000
00003000
00000010
00000000
00000200
00000300
00000001
00000000
00002000
00003000
00000100
00000000
00020000
00030000
,  // measure 48
00002000
00003000
00020000
00030000
00002000
00003000
00000000
00000000
00200000
00300000
00020000
00030000
00200000
00300000
00000000
00000000
02000000
03000000
20000000
30000000
02000000
03000000
00000000
00000000
20000000
30000000
00020000
00030000
20000000
30000000
00000000
00000000
,  // measure 49
00020000
00030000
02000000
03000000
00020000
00030000
00000000
00000000
02000000
03000000
00002000
00003000
02000000
03000000
00000000
00000000
00002000
00003000
00020000
00030000
00002000
00003000
00000000
00000000
00020000
00030000
00000020
00000030
00020000
00030000
00000000
00000000
,  // measure 50
00000020
00000030
00002000
00003000
00000001
00000000
00000200
00000300
00000010
00000000
00002000
00003000
00000100
00000000
00020000
00030000
,  // measure 51
00002000
00003000
00020000
00030000
00000100
00000000
00000020
00000030
00000001
00000000
00002000
00003000
00000010
00000000
00020000
00030000
,  // measure 52
00002000
00003000
00020000
00030000
00000100
00000000
00002000
00003000
00000100
00000000
00020000
00030000
00001000
00000000
00200000
00300000
,  // measure 53
02000000
03000000
00200000
00300000
00000000
00000000
00220000
00330000
00000000
00000000
22000000
33000000
00000000
00000000
20000000
30000000
,  // measure 54
00020000
00030000
20000000
30000000
00200000
00300000
02000000
03000000
00020000
00030000
20000000
30000000
00200000
00000000
00000000
00000000
,  // measure 55
10300000
00010000
01000000
00100000
10000000
00010000
01000000
00100000
10000000
00010000
01000000
00010000
10000000
00100000
01000000
00010000
,  // measure 56
01000000
00001000
00010000
00001000
01000000
00001000
00010000
00000100
00010000
00001000
00010000
00000100
00001000
00000100
00000010
00000001
,  // measure 57
00001000
00000010
00000100
00000001
00001000
00000010
00000100
00000001
00001000
00000010
00001000
00000001
00001000
00000010
00010000
00001000
,  // measure 58
00010000
00000010
00010000
00001000
00100000
00001000
00010000
00001000
00100000
01000000
10000000
00010000
00100000
01000000
10000000
00010000
,  // measure 59
10000000
00010000
01000000
00100000
10000000
00010000
01000000
00010000
10000000
00100000
01000000
00010000
01000000
00001000
00010000
00001000
,  // measure 60
01000000
00001000
00010000
00000100
00010000
00001000
00010000
00000100
00001000
00000100
00010000
00000100
00000010
00000001
00001000
00000100
,  // measure 61
00001000
00000001
00000100
00000010
00001000
00000001
00000100
00000010
00001000
00000001
00001000
00000010
00000100
00000001
00001000
00000010
,  // measure 62
00010000
00001000
00010000
00000010
00010000
00000010
00001000
00000010
00010000
00001000
00010000
00001000
00010000
00000100
00000010
00000001
,  // measure 63
00002000
00000000
00000000
00000000
,  // measure 64
00003000
00000000
00000000
00000000
;
