#TITLE:TOMORROW;
#SUBTITLE:;
#ARTIST:nc ft. Dreamscanner;
#TITLETRANSLIT:;
#SUBTITLETRANSLIT:;
#ARTISTTRANSLIT:;
#CREDIT:;
#BANNER:../ddrstream fallback-bn.png;
#BACKGROUND:../ddrstream fallback-bg.png;
#LYRICSPATH:;
#CDTITLE:;
#MUSIC:TOMORROW.ogg;
#OFFSET:1.696;
#SAMPLESTART:61.090;
#SAMPLELENGTH:13.660;
#SELECTABLE:YES;
#DISPLAYBPM:140.000;
#BPMS:0.000=140.000;
#STOPS:;
#BGCHANGES:;

//---------------dance-single - ----------------
#NOTES:
     dance-single:
     Dossar:
     Challenge:
     11:
     0.862,0.935,0.000,0.053,1.000:
0000
0000
0000
0000
,
0000
0000
0000
0000
,
1000
0000
0001
0000
0100
0000
0001
0000
1000
0010
0100
0001
0100
0000
0010
1000
,
0001
0000
1000
0000
0100
0000
1000
0000
0001
0010
0100
1000
0100
0000
0010
0001
,
1000
0000
0001
0000
0100
0000
0001
0000
1000
0010
0100
0001
0100
0000
0010
1000
,
0001
0000
1000
0000
0100
0000
1000
0000
0001
0010
0100
1000
0100
0000
0010
0001
,
1000
0010
0100
0001
1000
0010
0100
0001
1000
0010
1000
0001
0100
0001
1000
0100
,
0010
0001
1000
0100
0010
0001
1000
0100
0010
0100
1000
0001
0010
0100
1000
0001
,
0100
0010
1000
0001
0100
0010
1000
0010
0100
0001
1000
0010
0100
0001
1000
0001
,
0010
0100
1000
0001
0010
0100
1000
0100
0010
0001
1000
0100
0010
0100
1000
0002
,
0000
0000
0000
0023
,
0031
0000
0000
1000
0000
0000
0001
0000
0000
0000
0010
0000
0001
0000
1000
0000
,
0010
0000
0000
0100
0000
0000
0010
0000
0000
0000
0100
0000
0001
0000
1000
0000
,
0100
0000
0000
0010
0000
0000
0100
0000
0000
0000
1000
0000
0100
0000
0010
0000
,
0001
0000
0000
1000
0000
0000
0001
0000
0000
0000
1000
0000
0010
0000
0100
0000
,
0001
0000
0000
1000
0000
0000
0001
0000
0000
0000
1000
0000
0001
0000
0010
0000
,
0100
0000
0000
1000
0000
0000
0100
0000
0000
0000
1000
0000
0001
0000
0100
0000
,
0010
0000
0000
1000
0000
0000
0010
0000
0000
0000
1000
0000
0001
0000
0010
0000
,
0100
0000
0000
0010
0000
0000
0100
0000
0000
0000
1000
0000
0001
0000
1000
0000
,
0010
0000
0000
0010
0000
0000
0010
0000
0000
0000
1000
0000
0001
0000
1000
0000
,
0100
0000
0000
0100
0000
0000
0100
0000
0000
0000
1000
0000
0010
0000
1000
0000
,
0001
0000
0000
0001
0000
0000
0001
0000
0000
0000
0001
0000
0100
0000
0001
0000
,
1000
0000
0000
1000
0000
0000
1000
0000
0000
0000
1000
0000
0001
0000
1000
0000
,
0010
0000
0000
0010
0000
0000
0010
0000
0000
0000
1000
0000
0001
0000
1000
0000
,
0100
0000
0000
0100
0000
0000
0100
0000
0000
0000
1000
0000
0010
0000
1000
0000
,
0001
0000
0000
0001
0000
0000
0001
0000
0000
0000
0001
0000
0010
0000
0001
0000
,
1000
0000
0000
1000
0000
0000
1000
0000
0000
0000
1000
0000
0010
0000
0100
0000
,
0001
0000
0000
0001
1000
0000
0001
0000
0010
0000
0100
0000
0010
0000
0001
1000
,
0100
0000
0000
0100
0010
0000
0100
0000
1000
0000
0001
0000
1000
0000
0010
0100
,
0001
0000
0000
0001
0100
0000
0001
0000
1000
0000
0100
0000
1000
0000
0001
0100
,
0010
0000
0000
0010
0100
0000
0010
0000
1000
0000
0100
0000
1000
0000
0001
0010
,
0100
0000
0000
0100
1000
0000
0100
0000
0010
0000
0001
0000
0010
0000
0100
1000
,
0001
0000
0000
0001
0100
0000
0001
0000
1000
0000
0010
0000
1000
0000
0001
0100
,
0010
0000
1000
0010
1000
0000
0010
0000
0100
0000
0001
0000
1000
0000
0100
0000
,
1000
0001
1000
0010
0100
0010
1000
0001
0010
0100
0010
0001
1000
0001
0100
0010
,
1000
0001
0010
0100
1000
0001
0010
0100
1000
0100
0010
0001
1000
0100
0010
0001
,
2000
0000
0000
0000
3020
0000
0000
0030
0000
0000
0100
0000
0001
0000
1000
0000
,
0001
0100
0010
1000
0001
0100
0010
1000
0001
0100
0001
1000
0010
1000
0001
0010
,
0100
1000
0001
0010
0100
1000
0001
0010
0100
0010
0001
1000
0100
0010
0001
1000
,
0010
0100
0001
1000
0010
0100
0001
0100
0010
1000
0001
0100
0010
1000
0001
1000
,
0100
0010
0001
1000
0100
0010
0001
0010
0100
1000
0001
0010
0100
0010
0001
1000
,
0001
0100
0010
1000
0001
0100
0010
0100
0001
1000
0010
0100
0001
1000
0010
0100
,
0001
1000
0100
0010
0001
1000
0100
0010
0001
1000
0100
0010
0100
1000
0001
0010
,
0001
1000
0010
0100
0001
1000
0001
0100
0010
1000
0001
1000
0010
0100
0010
1000
,
0001
0010
0100
1000
0001
0010
0100
0010
0001
1000
0100
0010
0001
1000
0100
1000
,
0001
0100
0001
1000
0010
0100
0001
1000
0010
0100
0001
0100
0010
1000
0001
0100
,
0001
1000
0100
0010
0001
1000
0100
0010
0001
1000
0100
1000
0001
0010
0001
1000
,
0010
0100
0001
0100
0010
1000
0001
0100
0001
1000
0100
1000
0001
0010
0001
1000
,
0100
1000
0001
0010
0100
1000
0001
0010
0100
1000
0100
0010
0001
1000
0100
0010
,
0001
1000
0010
1000
0001
0100
0010
1000
0001
0100
0001
1000
0010
1000
0001
0010
,
0100
1000
0001
0010
0100
1000
0001
0010
0100
0010
0001
1000
0100
0010
0001
1000
,
0010
0100
0001
1000
0010
0100
0001
0100
0010
1000
0001
0100
0010
1000
0001
1000
,
0100
0010
0100
1000
0001
1000
0010
0100
0001
1000
0001
0010
0100
0010
0001
1000
,
0020
0030
0000
0000
;

//---------------dance-single - ----------------
#NOTES:
     dance-single:
     Dossar:
     Hard:
     10:
     0.741,0.935,0.000,0.053,0.857:
0000
0000
0000
0000
,
0000
0000
0000
0000
,
1000
0000
0001
0000
0100
0000
0001
0000
1000
0010
0100
0001
0100
0000
0010
1000
,
0001
0000
1000
0000
0100
0000
1000
0000
0001
0010
0100
1000
0100
0000
0010
0001
,
1000
0000
0001
0000
0100
0000
0001
0000
1000
0010
0100
0001
0100
0000
0010
1000
,
0001
0000
1000
0000
0100
0000
1000
0000
0001
0010
0100
1000
0100
0000
0010
0001
,
1000
0010
0100
0001
1000
0010
0100
0001
1000
0010
1000
0001
0100
0001
1000
0100
,
0010
0001
1000
0100
0010
0001
1000
0100
0010
0100
1000
0001
0010
0100
1000
0001
,
0100
0010
1000
0001
0100
0010
1000
0010
0100
0001
1000
0010
0100
0001
1000
0001
,
0010
0100
1000
0001
0010
0100
1000
0100
0010
0001
1000
0100
0010
0100
1000
0002
,
0000
0000
0000
0023
,
0031
0000
0000
1000
0000
0000
0001
0000
0000
0000
0010
0000
0001
0000
1000
0000
,
0010
0000
0000
0100
0000
0000
0010
0000
0000
0000
0100
0000
0001
0000
1000
0000
,
0100
0000
0000
0010
0000
0000
0100
0000
0000
0000
1000
0000
0100
0000
0010
0000
,
0001
0000
0000
1000
0000
0000
0001
0000
0000
0000
1000
0000
0010
0000
0100
0000
,
0001
0000
0000
1000
0000
0000
0001
0000
0000
0000
1000
0000
0001
0000
0010
0000
,
0100
0000
0000
1000
0000
0000
0100
0000
0000
0000
1000
0000
0001
0000
0100
0000
,
0010
0000
0000
1000
0000
0000
0010
0000
0000
0000
1000
0000
0001
0000
0010
0000
,
0100
0000
0000
0010
0000
0000
0100
0000
0000
0000
1000
0000
0001
0000
1000
0000
,
0010
0000
0000
0010
0000
0000
0010
0000
0000
0000
1000
0000
0001
0000
1000
0000
,
0100
0000
0000
0100
0000
0000
0100
0000
0000
0000
1000
0000
0010
0000
1000
0000
,
0001
0000
0000
0001
0000
0000
0001
0000
0000
0000
0001
0000
0100
0000
0001
0000
,
1000
0000
0000
1000
0000
0000
1000
0000
0000
0000
1000
0000
0001
0000
1000
0000
,
0010
0000
0000
0010
0000
0000
0010
0000
0000
0000
1000
0000
0001
0000
1000
0000
,
0100
0000
0000
0100
0000
0000
0100
0000
0000
0000
1000
0000
0010
0000
1000
0000
,
0001
0000
0000
0001
0000
0000
0001
0000
0000
0000
0001
0000
0010
0000
0001
0000
,
1000
0000
0000
1000
0000
0000
1000
0000
0000
0000
1000
0000
0010
0000
0100
0000
,
0001
0000
0000
0001
1000
0000
0001
0000
0010
0000
0100
0000
0010
0000
0001
1000
,
0100
0000
0000
0100
0010
0000
0100
0000
1000
0000
0001
0000
1000
0000
0010
0100
,
0001
0000
0000
0001
0100
0000
0001
0000
1000
0000
0100
0000
1000
0000
0001
0100
,
0010
0000
0000
0010
0100
0000
0010
0000
1000
0000
0100
0000
1000
0000
0001
0010
,
0100
0000
0000
0100
1000
0000
0100
0000
0010
0000
0001
0000
0010
0000
0100
1000
,
0001
0000
0000
0001
0100
0000
0001
0000
1000
0000
0010
0000
1000
0000
0001
0100
,
0010
0000
1000
0010
1000
0000
0010
0000
0100
0000
0001
0000
1000
0000
0100
0000
,
1000
0001
1000
0010
0100
0010
1000
0001
0010
0100
0010
0001
1000
0001
0100
0010
,
1000
0001
0010
0100
1000
0001
0010
0100
1000
0100
0010
0001
1000
0100
0010
0001
,
2000
0000
0000
0000
3020
0000
0000
0030
0000
0000
0100
0000
0010
0000
1000
0000
,
0001
0000
0000
0001
0000
0000
0001
0000
0000
0000
1000
0000
0001
0000
1000
0000
,
0100
0000
0000
0100
0000
0000
0100
0000
0000
0000
1000
0000
0001
0000
1000
0000
,
0010
0000
0000
0010
0000
0000
0010
0000
0000
0000
1000
0000
0100
0000
1000
0000
,
0001
0000
0000
0001
0000
0000
0001
0000
0000
0000
1000
0000
0001
0000
1000
0000
,
0010
0000
0000
0010
0000
0000
0010
0000
0000
0000
0010
0000
0100
0000
0010
0000
,
1000
0000
0000
1000
0000
0000
1000
0000
0000
0000
0001
0000
0010
0000
0001
0000
,
0100
0000
0000
0100
0000
0000
0100
0000
0000
0000
0100
0000
0010
0000
0100
0000
,
0001
0000
0000
0001
0000
0000
0001
0000
0000
0000
1000
0000
0010
0000
1000
0000
,
0001
0100
0001
1000
0010
0100
0001
1000
0010
0100
0001
0100
0010
1000
0001
0100
,
0001
1000
0100
0010
0001
1000
0100
0010
0001
1000
0100
1000
0001
0010
0001
1000
,
0010
0100
0001
0100
0010
1000
0001
0100
0001
1000
0100
1000
0001
0010
0001
1000
,
0100
1000
0001
0010
0100
1000
0001
0010
0100
1000
0100
0010
0001
1000
0100
0010
,
0001
1000
0010
1000
0001
0100
0010
1000
0001
0100
0001
1000
0010
1000
0001
0010
,
0100
1000
0001
0010
0100
1000
0001
0010
0100
0010
0001
1000
0100
0010
0001
1000
,
0010
0100
0001
1000
0010
0100
0001
0100
0010
1000
0001
0100
0010
1000
0001
1000
,
0100
0010
0100
1000
0001
1000
0010
0100
0001
1000
0001
0010
0100
0010
0001
1000
,
0020
0030
0000
0000
;

//---------------dance-single - ----------------
#NOTES:
     dance-single:
     Dossar:
     Medium:
     9:
     0.637,0.709,0.000,0.053,0.585:
0000
0000
0000
0000
,
0000
0000
0000
0000
,
1000
0000
0001
0000
0100
0000
0001
0000
1000
0010
0100
0001
0100
0000
0010
1000
,
0001
0000
1000
0000
0100
0000
1000
0000
0001
0010
0100
1000
0100
0000
0010
0001
,
1000
0000
0001
0000
0100
0000
0001
0000
1000
0010
0100
0001
0100
0000
0010
1000
,
0001
0000
1000
0000
0100
0000
1000
0000
0001
0010
0100
1000
0100
0000
0010
0001
,
1000
0000
0010
0000
0100
0000
0010
0000
1000
0001
0100
0010
0100
0000
0001
1000
,
0100
0000
0010
0000
0001
0000
0010
0000
0100
1000
0100
0010
0001
0000
1000
0001
,
0100
0000
0010
0000
1000
0000
0010
0000
0100
0001
1000
0010
1000
0000
0001
0010
,
0100
0000
1000
0000
0001
0000
1000
0000
0100
0010
0001
1000
0001
0000
1000
0002
,
0000
0000
0000
0023
,
0031
0000
0000
1000
0000
0000
0001
0000
0000
0000
0010
0000
0001
0000
1000
0000
,
0010
0000
0000
0100
0000
0000
0010
0000
0000
0000
0100
0000
0001
0000
1000
0000
,
0100
0000
0000
0010
0000
0000
0100
0000
0000
0000
1000
0000
0100
0000
0010
0000
,
0001
0000
0000
1000
0000
0000
0001
0000
0000
0000
1000
0000
0010
0000
0100
0000
,
0001
0000
0000
1000
0000
0000
0001
0000
0000
0000
1000
0000
0001
0000
0010
0000
,
0100
0000
0000
1000
0000
0000
0100
0000
0000
0000
1000
0000
0001
0000
0100
0000
,
0010
0000
0000
1000
0000
0000
0010
0000
0000
0000
1000
0000
0001
0000
0010
0000
,
0100
0000
0000
0010
0000
0000
0100
0000
0000
0000
1000
0000
0001
0000
1000
0000
,
0010
0000
0000
0010
0000
0000
0010
0000
0000
0000
1000
0000
0001
0000
1000
0000
,
0100
0000
0000
0100
0000
0000
0100
0000
0000
0000
1000
0000
0010
0000
1000
0000
,
0001
0000
0000
0001
0000
0000
0001
0000
0000
0000
0001
0000
0100
0000
0001
0000
,
1000
0000
0000
1000
0000
0000
1000
0000
0000
0000
1000
0000
0001
0000
1000
0000
,
0010
0000
0000
0010
0000
0000
0010
0000
0000
0000
1000
0000
0001
0000
1000
0000
,
0100
0000
0000
0100
0000
0000
0100
0000
0000
0000
1000
0000
0010
0000
1000
0000
,
0001
0000
0000
0001
0000
0000
0001
0000
0000
0000
0001
0000
0010
0000
0001
0000
,
1000
0000
0000
1000
0000
0000
1000
0000
0000
0000
1000
0000
0010
0000
0100
0000
,
0001
0000
0000
0001
1000
0000
0001
0000
0010
0000
0100
0000
0010
0000
0001
1000
,
0100
0000
0000
0100
0010
0000
0100
0000
1000
0000
0001
0000
1000
0000
0010
0100
,
0001
0000
0000
0001
0100
0000
0001
0000
1000
0000
0100
0000
1000
0000
0001
0100
,
0010
0000
0000
0010
0100
0000
0010
0000
1000
0000
0100
0000
1000
0000
0001
0010
,
0100
0000
0000
0100
1000
0000
0100
0000
0010
0000
0001
0000
0010
0000
0100
1000
,
0001
0000
0000
0001
0100
0000
0001
0000
1000
0000
0010
0000
1000
0000
0001
0100
,
0010
0000
1000
0010
1000
0000
0010
0000
0100
0000
0001
0000
1000
0000
0100
0000
,
1000
0000
0000
0001
0000
0000
0100
0010
0100
0000
0000
0001
0000
0000
1000
0100
,
1000
0001
0010
0100
1000
0001
0010
0100
1000
0100
0010
0001
1000
0100
0010
0001
,
2000
0000
0000
0000
3020
0000
0000
0030
0000
0000
0100
0000
0010
0000
1000
0000
,
0001
0000
0000
0001
0000
0000
0001
0000
0000
0000
1000
0000
0001
0000
1000
0000
,
0100
0000
0000
0100
0000
0000
0100
0000
0000
0000
1000
0000
0001
0000
1000
0000
,
0010
0000
0000
0010
0000
0000
0010
0000
0000
0000
1000
0000
0100
0000
1000
0000
,
0001
0000
0000
0001
0000
0000
0001
0000
0000
0000
1000
0000
0001
0000
1000
0000
,
0010
0000
0000
0010
0000
0000
0010
0000
0000
0000
0010
0000
0100
0000
0010
0000
,
1000
0000
0000
1000
0000
0000
1000
0000
0000
0000
0001
0000
0010
0000
0001
0000
,
0100
0000
0000
0100
0000
0000
0100
0000
0000
0000
0100
0000
0010
0000
0100
0000
,
0001
0000
0000
0001
0000
0000
0001
0000
0000
0000
1000
0000
0010
0000
1000
0000
,
0001
0100
0001
1000
0010
0100
0001
1000
0010
0100
0001
0100
0010
1000
0001
0100
,
0001
1000
0100
0010
0001
1000
0100
0010
0001
1000
0100
1000
0001
0010
0001
1000
,
0100
0000
0000
0100
0000
0000
0100
0000
0000
0000
1000
0000
0100
0000
1000
0000
,
0001
0000
0000
0001
0000
0000
0001
0000
0000
0000
0100
0000
0010
0000
0100
0000
,
0001
1000
0010
1000
0001
0100
0010
1000
0001
0100
0001
1000
0010
1000
0001
0010
,
0100
1000
0001
0010
0100
1000
0001
0010
0100
0010
0001
1000
0100
0010
0001
1000
,
0100
0000
0000
0100
0000
0000
0100
0000
0000
0000
0100
0000
0010
0000
0100
0000
,
1000
0000
0000
1000
0000
0000
1000
0000
0001
0000
0000
0001
0000
0000
0001
0000
,
0200
0300
0000
0000
;

//---------------dance-double - ----------------
#NOTES:
     dance-double:
     Dossar:
     Challenge:
     10:
     0.741,0.935,0.000,0.053,0.857: // measure 1
00000000
00000000
00000000
00000000
,  // measure 2
00000000
00000000
00000000
00000000
,  // measure 3
10000000
00000000
00010000
00000000
01000000
00000000
00010000
00000000
10000000
00100000
01000000
00010000
01000000
00000000
00100000
01000000
,  // measure 4
00001000
00000000
00010000
00000000
00000100
00000000
00010000
00000000
00001000
00010000
00000100
00001000
00000100
00000000
00010000
00000100
,  // measure 5
00001000
00000000
00000001
00000000
00000100
00000000
00000001
00000000
00001000
00000010
00000100
00000001
00000100
00000000
00000010
00010000
,  // measure 6
00001000
00000000
00100000
00000000
00010000
00000000
00100000
00000000
00001000
00100000
00010000
10000000
00010000
00000000
01000000
00010000
,  // measure 7
10000000
00100000
01000000
00010000
10000000
00100000
01000000
00010000
10000000
00100000
10000000
00010000
01000000
00001000
00010000
00000100
,  // measure 8
00010000
00000100
00000010
00000001
00001000
00000100
00001000
00000001
00000010
00000100
00001000
00000001
00000010
00000100
00010000
00001000
,  // measure 9
00010000
00001000
01000000
00010000
10000000
00100000
10000000
00010000
01000000
00100000
10000000
00010000
01000000
00001000
00010000
00000100
,  // measure 10
00010000
00000100
00000010
00000001
00001000
00000100
00000010
00000001
00000010
00000100
00001000
00000100
00000010
00000100
00010000
00002000
,  // measure 11
00000000
00000000
00000000
00203000
,  // measure 12
00310000
00000000
00000000
10000000
00000000
00000000
00010000
00000000
00000000
00000000
00100000
00000000
00001000
00000000
00010000
00000000
,  // measure 13
00000100
00000000
00000000
00000010
00000000
00000000
00000100
00000000
00000000
00000000
00001000
00000000
00000010
00000000
00010000
00000000
,  // measure 14
00001000
00000000
00000000
00100000
00000000
00000000
00001000
00000000
00000000
00000000
01000000
00000000
00010000
00000000
00100000
00000000
,  // measure 15
00001000
00000000
00000000
00010000
00000000
00000000
00001000
00000000
00000000
00000000
00010000
00000000
00000100
00000000
00000010
00000000
,  // measure 16
00000001
00000000
00000000
00001000
00000000
00000000
00000001
00000000
00000000
00000000
00001000
00000000
00000010
00000000
00010000
00000000
,  // measure 17
00001000
00000000
00000000
01000000
00000000
00000000
00001000
00000000
00000000
00000000
00010000
00000000
00001000
00000000
00100000
00000000
,  // measure 18
01000000
00000000
00000000
10000000
00000000
00000000
01000000
00000000
00000000
00000000
00100000
00000000
00001000
00000000
00010000
00000000
,  // measure 19
00000100
00000000
00000000
00000010
00000000
00000000
00000100
00000000
00000000
00000000
00010000
00000000
00001000
00000000
00100000
00000000
,  // measure 20
00010000
00000000
00000000
00010000
00000000
00000000
00010000
00000000
00000000
00000000
10000000
00000000
00010000
00000000
01000000
00000000
,  // measure 21
00001000
00000000
00000000
00001000
00000000
00000000
00001000
00000000
00000000
00000000
00010000
00000000
00000100
00000000
00001000
00000000
,  // measure 22
00000010
00000000
00000000
00000010
00000000
00000000
00000010
00000000
00000000
00000000
00001000
00000000
00000010
00000000
00000100
00000000
,  // measure 23
00000001
00000000
00000000
00000001
00000000
00000000
00000001
00000000
00000000
00000000
00001000
00000000
00000100
00000000
00010000
00000000
,  // measure 24
00001000
00000000
00000000
00001000
00000000
00000000
00001000
00000000
00000000
00000000
00100000
00000000
00010000
00000000
10000000
00000000
,  // measure 25
00100000
00000000
00000000
00100000
00000000
00000000
00100000
00000000
00000000
00000000
01000000
00000000
00001000
00000000
00010000
00000000
,  // measure 26
00000010
00000000
00000000
00000010
00000000
00000000
00000010
00000000
00000000
00000000
00001000
00000000
00000010
00000000
00010000
00000000
,  // measure 27
00001000
00000000
00000000
00001000
00000000
00000000
00001000
00000000
00000000
00000000
00100000
00000000
00010000
00000000
10000000
00000000
,  // measure 28
00010000
00000000
00000000
00010000
10000000
00000000
00010000
00000000
00100000
00000000
01000000
00000000
00100000
00000000
00001000
00010000
,  // measure 29
00000100
00000000
00000000
00000100
00000010
00000000
00000100
00000000
00001000
00000000
00000001
00000000
00001000
00000000
00000100
00010000
,  // measure 30
00001000
00000000
00000000
00001000
01000000
00000000
00001000
00000000
00100000
00000000
01000000
00000000
00100000
00000000
00010000
00100000
,  // measure 31
00001000
00000000
00000000
00001000
00010000
00000000
00001000
00000000
00010000
00000000
00000010
00000000
00010000
00000000
00001000
01000000
,  // measure 32
00100000
00000000
00000000
00100000
10000000
00000000
00100000
00000000
01000000
00000000
00010000
00000000
01000000
00000000
00001000
01000000
,  // measure 33
00010000
00000000
00000000
00010000
00100000
00000000
00010000
00000000
00100000
00000000
00001000
00000000
00100000
00000000
00001000
00010000
,  // measure 34
00000010
00000000
00000100
00000010
00000100
00000000
00000010
00000000
00001000
00000000
00000001
00000000
00000100
00000000
00000001
00000000
,  // measure 35
00001000
00000010
00001000
00000001
00000100
00000001
00001000
00000010
00010000
00001000
00010000
00000010
00001000
00000010
00010000
00001000
,  // measure 36
00100000
00010000
00100000
01000000
10000000
00010000
00100000
01000000
10000000
01000000
00100000
00010000
10000000
01000000
00100000
00010000
,  // measure 37
20000000
00000000
00000000
00000000
30200000
00000000
00000000
00300000
00000000
00000000
01000000
00000000
00010000
00000000
00100000
00000000
,  // measure 38
00001000
00000000
00000000
00010000
00000000
00000000
00000010
00000000
00000000
00000000
00000100
00000000
00000001
00000000
00001000
00000000
,  // measure 39
00000100
00000000
00000000
00010000
00000000
00000000
00001000
00000000
00000000
00000000
00100000
00000000
01000000
00000000
10000000
00000000
,  // measure 40
00010000
00000000
00000000
00100000
00000000
00000000
00001000
00000000
00000000
00000000
00010000
00000000
00000010
00000000
00000100
00000000
,  // measure 41
00000001
00000000
00000000
00001000
00000000
00000000
00000100
00000000
00000000
00000000
00010000
00000000
00001000
00000000
00100000
00000000
,  // measure 42
01000000
00000000
00000000
10000000
00000000
00000000
00010000
00000000
00000000
00000000
00100000
00000000
00001000
00000000
00010000
00000000
,  // measure 43
00000010
00000000
00000000
00001000
00000000
00000000
00000001
00000000
00000000
00000000
00001000
00000000
00000010
00000000
00010000
00000000
,  // measure 44
00001000
00000000
00000000
00100000
00000000
00000000
01000000
00000000
00000000
00000000
10000000
00000000
00010000
00000000
01000000
00000000
,  // measure 45
00001000
00000000
00000000
00010000
00000000
00000000
00000100
00000000
00000000
00000000
00000010
00000000
00000001
00000000
00001000
00000000
,  // measure 46
00000001
00000100
00000010
00001000
00000001
00000100
00000001
00001000
00000010
00000100
00000001
00001000
00000100
00010000
00001000
00100000
,  // measure 47
00010000
10000000
01000000
00100000
00010000
10000000
01000000
00100000
01000000
10000000
00010000
00100000
00001000
00010000
00000100
00001000
,  // measure 48
00000001
00001000
00000010
00000100
00000001
00001000
00000010
00001000
00000001
00000100
00000010
00001000
00000100
00010000
00001000
01000000
,  // measure 49
00010000
10000000
01000000
00100000
00010000
10000000
01000000
00100000
01000000
10000000
00010000
00100000
00001000
00010000
00000010
00001000
,  // measure 50
00000001
00000100
00000010
00000100
00000001
00001000
00000010
00000100
00000001
00001000
00000100
00010000
00001000
00100000
00010000
10000000
,  // measure 51
01000000
00100000
00010000
00100000
01000000
10000000
00010000
00100000
01000000
10000000
00010000
00100000
00001000
00010000
00000100
00001000
,  // measure 52
00000001
00000100
00000010
00001000
00000001
00000100
00000001
00001000
00000010
00001000
00000100
00010000
00001000
00100000
00010000
00100000
,  // measure 53
00001000
00010000
00001000
00100000
01000000
00100000
00010000
10000000
00100000
01000000
00100000
10000000
00010000
10000000
00100000
01000000
,  // measure 54
00020000
00030000
00000000
00000000
;
