#TITLE:Supercalifragilisticexpialidocious;
#SUBTITLE:;
#ARTIST:Go Go Girls;
#TITLETRANSLIT:;
#SUBTITLETRANSLIT:;
#ARTISTTRANSLIT:;
#CREDIT:;
#BANNER:../ddrstream fallback-bn.png;
#BACKGROUND:../ddrstream fallback-bg.png;
#LYRICSPATH:;
#CDTITLE:;
#MUSIC:Supercalifragilisticexpialidocious.ogg;
#OFFSET:-1.025;
#SAMPLESTART:48.750;
#SAMPLELENGTH:14.820;
#SELECTABLE:YES;
#DISPLAYBPM:114.000:200.000;
#BPMS:0.000=155.090,152.000=114.120,160.000=122.500,168.000=132.500,176.000=141.430,184.000=153.650,192.000=162.660,200.000=172.540,208.000=182.660,216.000=192.770,224.000=200.080;
#STOPS:;
#BGCHANGES:;

//---------------dance-single - ----------------
#NOTES:
     dance-single:
     Dossar:
     Challenge:
     14:
     1.000,1.000,0.038,0.336,1.000:
0000
0000
0000
0000
,
0000
0000
0000
0000
,
0000
0000
0000
0000
,
0000
0000
0001
0001
,
1000
0010
0000
0100
0000
0001
1000
0001
0010
0000
0100
0010
0000
0001
1000
0001
,
0100
0010
0000
1000
0000
0001
0010
0001
1000
0100
0010
0001
1000
0100
0010
0001
,
1000
0010
0100
0001
0100
0010
1000
0001
0100
0010
1000
0010
0100
0001
1000
0100
,
0010
0001
0000
1000
0000
0001
0010
0100
2000
0000
0000
0000
0000
0000
3000
0000
,
0001
0000
0000
0100
0000
0010
1000
0010
0100
0001
0000
1000
0000
0100
0000
0010
,
0002
0000
0003
1000
0000
0100
0010
0100
1000
0001
0000
0010
0000
0001
1000
0000
,
0020
0000
0030
0100
0000
0001
1000
0001
0100
0010
0000
1000
0000
0001
0010
0100
,
1000
0001
0000
0100
0000
0010
0100
0000
0220
0330
0000
0000
2002
3003
0000
0000
,
1000
0010
0100
0001
1000
0010
1000
0001
0100
0010
1000
0001
0100
0010
0100
0001
,
1000
0100
0010
0001
0010
0100
1000
0001
0200
0000
0300
0000
0020
0000
0030
0000
,
1000
0001
0010
0100
1000
0100
0010
0001
1000
0100
0010
0001
0010
0100
1000
0001
,
0100
0010
1000
0001
0100
0010
0100
0001
2000
0000
3000
0000
0200
0000
0300
0000
,
1000
0001
0100
0010
1000
0001
0100
0010
1000
0001
1000
0010
0100
0001
1000
0100
,
0010
0001
1000
0100
1000
0001
0010
0100
2000
0000
3000
0000
0002
0000
0003
0000
,
1000
0100
0010
0001
1000
0100
0010
0001
1000
0100
0010
0100
1000
0001
0010
0100
,
1000
0001
0100
0010
0100
0001
1000
0010
2000
0000
3000
0000
0002
0000
0003
0000
,
1000
0000
0000
0010
0000
0100
0001
0100
0010
1000
0000
0001
0000
0010
0000
0100
,
2000
0000
3000
0001
0000
0010
0100
0010
0001
1000
0000
0100
0000
1000
0001
0000
,
0200
0000
0300
0010
0000
1000
0001
1000
0010
0100
0000
0001
0000
1000
0100
0010
,
0001
1000
0000
0010
0000
0100
0010
0000
0220
0330
0000
0000
2002
3003
0000
0000
,
0001
0000
1000
0010
0100
0001
0100
0010
1000
0000
0001
0100
0002
0000
0003
0000
,
1000
0000
0001
0010
0100
1000
0100
0010
0001
0000
1000
0100
2000
0000
3000
0000
,
0001
0000
0100
0010
1000
0001
1000
0010
0100
0000
0001
1000
0002
0000
0003
0000
,
1000
0010
0100
0001
1000
0010
0100
0001
1000
0010
1000
0001
0100
0001
1000
0100
,
0010
0001
1000
0100
0010
0001
0010
0100
1000
0001
0010
0100
1000
0100
0010
0001
,
1000
0010
0100
0001
1000
0010
0100
0001
1000
0010
0100
0010
1000
0001
0100
0001
,
1000
0100
0010
0001
1000
0100
0010
0001
2000
0000
0000
0000
3000
0000
0001
0100
,
0001
1000
0010
0100
0001
1000
0010
1000
0001
0100
0010
1000
0001
0100
0010
1000
,
0001
1000
0100
0010
0001
0010
0100
1000
0002
0000
0000
0000
0003
0000
1000
0010
,
1000
0001
0100
0010
1000
0001
0100
0001
1000
0010
0100
0001
1000
0010
0100
0001
,
1000
0001
0010
0100
1000
0100
0010
0001
2000
0000
0000
0000
3000
0000
0001
0100
,
0001
1000
0010
0100
0001
1000
0010
1000
0001
0100
0010
1000
0001
0100
0010
1000
,
0001
0000
1000
0000
0100
0000
0010
0000
0001
0000
0010
0000
0100
0000
1000
0000
0002
0000
0000
0000
0000
0000
M000
0000
0003
0000
M000
0000
0000
0000
0000
M000
,
0000
0000
0000
0000
0000
M000
0000
0000
0000
0000
0000
0000
0000
0000
0MM0
0000
0000
0000
0000
0000
0000
0000
0000
0000
0000
M000
0000
0000
0000
0000
0000
0000
,
100M
0010
0100
0001
1000
0010
0100
0001
1000
0010
0100
0001
1000
0010
0100
0001
,
1000
0100
0010
0001
1000
0100
0010
0001
1000
0100
0010
0001
1000
0100
0010
0001
,
1M00
0010
0100
0001
1000
0010
0100
0001
1000
0010
1000
0001
0100
0001
1000
0100
,
0010
0001
1000
0100
0010
0001
1000
0100
0020
0000
0030
0000
0002
0000
0003
0000
,
M100
0010
1000
0001
0100
0010
1000
0010
0100
0001
1000
0010
0100
0001
1000
0001
,
0010
0100
1000
0001
0010
0100
1000
0100
0020
0000
0030
0000
0002
0000
0003
0000
,
1M00
0010
0100
0001
1000
0010
0100
0010
1000
0001
0100
0010
1000
0001
0100
0010
,
1000
0001
0010
0100
1000
0001
0010
0100
0020
0000
0030
0000
0002
0000
0003
0000
,
1M00
0010
1000
0001
0100
0010
1000
0001
0100
0010
1000
0010
0100
0001
1000
0010
,
1000
0001
0010
0100
1000
0001
0010
0100
20MM
0000
0000
0000
00MM
0000
3000
0000
,
M001
0100
0010
1000
0001
0100
0010
1000
0001
0100
0001
1000
0010
1000
0001
0010
,
0100
1000
0001
0010
0100
1000
0001
0010
0100
0010
0001
1000
0100
0010
0001
1000
,
001M
0100
0001
1000
0010
0100
0001
0100
0010
1000
0001
0100
0010
1000
0001
1000
,
0100
0010
0001
1000
0100
0010
0001
0010
0100
1000
0001
0010
0100
0010
0001
1000
,
00M1
0100
0010
1000
0001
0100
0010
0100
0001
1000
0010
0100
0001
1000
0010
0100
,
0001
1000
0100
0010
0001
1000
0100
0010
0001
1000
0100
0010
0100
1000
0001
0010
,
0M01
1000
0100
1000
0001
0100
0001
1000
0010
1000
0001
0010
0001
1000
0100
1000
,
0001
0010
0100
1000
0001
0010
0100
0010
0001
1000
0100
0010
0001
1000
0100
1000
,
00M1
0100
0001
1000
0010
0100
0001
1000
0010
0100
0001
0100
0010
1000
0001
0100
,
0001
1000
0100
0010
0001
1000
0100
0010
0001
1000
0100
1000
0001
0010
0001
1000
,
0010
0100
0001
0100
0010
1000
0001
0100
0001
1000
0100
1000
0001
0010
0001
1000
,
0100
1000
0001
0010
0100
1000
0001
0010
0100
1000
0100
0010
0001
1000
0100
0010
,
0001
1000
0010
1000
0001
0100
0010
1000
0001
0100
0001
1000
0010
1000
0001
0010
,
0100
1000
0001
0010
0100
1000
0001
0010
0100
0010
0001
1000
0100
0010
0001
1000
,
0010
0100
0001
1000
0010
0100
0001
0100
0010
1000
0001
0100
0010
1000
0001
1000
,
0100
0010
0001
1000
0100
0010
0001
0010
0100
1000
0001
0010
0100
0010
0001
1000
,
0001
0100
0010
1000
0001
0100
0010
0100
0001
1000
0010
0100
0001
1000
0010
0100
,
0001
1000
0100
0010
0001
1000
0100
0010
0001
1000
0100
1000
0001
0000
0000
0000
;

//---------------dance-single - ----------------
#NOTES:
     dance-single:
     Dossar:
     Hard:
     13:
     1.000,1.000,0.038,0.471,1.000:
0000
0000
0000
0000
,
0000
0000
0000
0000
,
0000
0000
0000
0000
,
0000
0000
0001
0001
,
1000
0010
0000
0100
0000
0001
1000
0001
0010
0000
0100
0010
0000
0001
1000
0001
,
0100
0010
0000
1000
0000
0001
0010
0001
1000
0100
0010
0001
1000
0100
0010
0001
,
1000
0010
0100
0001
0100
0010
1000
0001
0100
0010
1000
0010
0100
0001
1000
0100
,
0010
0001
0000
1000
0000
0001
0010
0100
2000
0000
0000
0000
0000
0000
3000
0000
,
0001
0000
0000
0100
0000
0010
1000
0010
0100
0001
0000
1000
0000
0100
0000
0010
,
0002
0000
0003
1000
0000
0100
0010
0100
1000
0001
0000
0010
0000
0001
1000
0000
,
0020
0000
0030
0100
0000
0001
1000
0001
0100
0010
0000
1000
0000
0001
0010
0100
,
1000
0001
0000
0100
0000
0010
0100
0000
0220
0330
0000
0000
2002
3003
0000
0000
,
1000
0010
0100
0001
1000
0010
1000
0001
0100
0010
1000
0001
0100
0010
0100
0001
,
1000
0100
0010
0001
0010
0100
1000
0001
0200
0000
0300
0000
0020
0000
0030
0000
,
1000
0001
0010
0100
1000
0100
0010
0001
1000
0100
0010
0001
0010
0100
1000
0001
,
0100
0010
1000
0001
0100
0010
0100
0001
2000
0000
3000
0000
0200
0000
0300
0000
,
1000
0001
0100
0010
1000
0001
0100
0010
1000
0001
1000
0010
0100
0001
1000
0100
,
0010
0001
1000
0100
1000
0001
0010
0100
2000
0000
3000
0000
0002
0000
0003
0000
,
1000
0100
0010
0001
1000
0100
0010
0001
1000
0100
0010
0100
1000
0001
0010
0100
,
1000
0001
0100
0010
0100
0001
1000
0010
2000
0000
3000
0000
0002
0000
0003
0000
,
1000
0000
0000
0010
0000
0100
0001
0100
0010
1000
0000
0001
0000
0010
0000
0100
,
2000
0000
3000
0001
0000
0010
0100
0010
0001
1000
0000
0100
0000
1000
0001
0000
,
0200
0000
0300
0010
0000
1000
0001
1000
0010
0100
0000
0001
0000
1000
0100
0010
,
0001
1000
0000
0010
0000
0100
0010
0000
0220
0330
0000
0000
2002
3003
0000
0000
,
0001
0000
1000
0010
0100
0001
0100
0010
1000
0000
0001
0100
0002
0000
0003
0000
,
1000
0000
0001
0010
0100
1000
0100
0010
0001
0000
1000
0100
2000
0000
3000
0000
,
0001
0000
0100
0010
1000
0001
1000
0010
0100
0000
0001
1000
0002
0000
0003
0000
,
1000
0010
0100
0001
1000
0010
0100
0001
1000
0010
1000
0001
0100
0001
1000
0100
,
0010
0001
1000
0100
0010
0001
0010
0100
1000
0001
0010
0100
1000
0100
0010
0001
,
1000
0010
0100
0001
1000
0010
0100
0001
1000
0010
0100
0010
1000
0001
0100
0001
,
1000
0100
0010
0001
1000
0100
0010
0001
2000
0000
0000
0000
3000
0000
0001
0100
,
0001
1000
0010
0100
0001
1000
0010
1000
0001
0100
0010
1000
0001
0100
0010
1000
,
0001
1000
0100
0010
0001
0010
0100
1000
0002
0000
0000
0000
0003
0000
1000
0010
,
1000
0001
0100
0010
1000
0001
0100
0001
1000
0010
0100
0001
1000
0010
0100
0001
,
1000
0001
0010
0100
1000
0100
0010
0001
2000
0000
0000
0000
3000
0000
0001
0100
,
0001
1000
0010
0100
0001
1000
0010
1000
0001
0100
0010
1000
0001
0100
0010
1000
,
0001
0000
1000
0000
0100
0000
0010
0000
0001
0000
0010
0000
0100
0000
1000
0000
0002
0000
0000
0000
0000
0000
M000
0000
0003
0000
M000
0000
0000
0000
0000
M000
,
0000
0000
0000
0000
0000
M000
0000
0000
0000
0000
0000
0000
0000
0000
0MM0
0000
0000
0000
0000
0000
0000
0000
0000
0000
0000
M000
0000
0000
0000
0000
0000
0000
,
100M
0020
0130
0002
1003
0020
0130
0002
,
1003
0200
0310
0002
1003
0200
0310
0002
,
1M03
0010
0100
0001
1000
0010
0100
0001
1000
0010
1000
0001
0100
0001
1000
0100
,
0010
0001
1000
0100
0010
0001
1000
0100
0020
0000
0030
0000
0002
0000
0003
0000
,
M100
0010
1000
0001
0100
0010
1000
0010
0100
0001
1000
0010
0100
0001
1000
0001
,
0010
0100
1000
0001
0010
0100
1000
0100
0020
0000
0030
0000
0002
0000
0003
0000
,
1M00
0010
0100
0001
1000
0010
0100
0010
1000
0001
0100
0010
1000
0001
0100
0010
,
1000
0001
0010
0100
1000
0001
0010
0100
0020
0000
0030
0000
0002
0000
0003
0000
,
1M00
0010
1000
0001
0100
0010
1000
0001
0100
0010
1000
0010
0100
0001
1000
0010
,
1000
0001
0010
0100
1000
0001
0010
0100
20MM
0000
0000
0000
00MM
0000
3000
0000
,
M001
0100
0010
1000
0001
0100
0010
1000
0001
0100
0001
1000
0010
1000
0001
0010
,
0100
1000
0001
0010
0100
1000
0001
0010
0100
0010
0001
1000
0100
0010
0001
1000
,
001M
0100
0001
1000
0010
0100
0001
0100
0010
1000
0001
0100
0010
1000
0001
1000
,
0100
0010
0001
1000
0100
0010
0001
0010
0100
1000
0001
0010
0100
0010
0001
1000
,
00M1
0100
0010
1000
0001
0100
0010
0100
0001
1000
0010
0100
0001
1000
0010
0100
,
0001
1000
0100
0010
0001
1000
0100
0010
0001
1000
0100
0010
0100
1000
0001
0010
,
0M01
1000
0100
1000
0001
0100
0001
1000
0010
1000
0001
0010
0001
1000
0100
1000
,
0001
0010
0100
1000
0001
0010
0100
0010
0001
1000
0100
0010
0001
1000
0100
1000
,
00M1
0100
0010
1000
0001
0100
0010
1000
,
0001
0100
0010
1000
0002
0000
2003
0000
,
3001
0010
0100
1000
0001
0010
0100
1000
,
0001
0010
0100
1000
0002
0003
2000
3000
,
0001
0100
0010
1000
0001
0100
0010
1000
,
0001
0100
0010
1000
0002
0003
2000
3000
,
0010
0100
0001
1000
0010
0100
0001
0100
0010
1000
0001
0100
0010
1000
0001
1000
,
0100
0010
0001
1000
0100
0010
0001
0010
0100
1000
0001
0010
0100
0010
0001
1000
,
0001
0100
0010
1000
0001
0100
0010
0100
0001
1000
0010
0100
0001
1000
0010
0100
,
0001
1000
0100
0010
0001
1000
0100
0010
0001
1000
0100
1000
0001
0000
0000
0000
;

//---------------dance-single - ----------------
#NOTES:
     dance-single:
     Dossar:
     Medium:
     12:
     0.968,1.000,0.038,0.538,1.000:
0000
0000
0000
0000
,
0000
0000
0000
0000
,
0000
0000
0000
0000
,
0000
0000
0001
0001
,
1000
0010
0000
0100
0000
0001
1000
0001
0010
0000
0100
0010
0000
0001
1000
0001
,
0100
0010
0000
1000
0000
0001
0010
0001
1000
0100
0010
0001
1000
0100
0010
0001
,
1000
0010
0100
0001
0100
0010
1000
0001
0100
0010
1000
0010
0100
0001
1000
0100
,
0010
0001
0000
1000
0000
0001
0010
0100
2000
0000
0000
0000
0000
0000
3000
0000
,
0001
0000
0000
0100
0000
0010
1000
0010
0100
0001
0000
1000
0000
0100
0000
0010
,
0002
0000
0003
1000
0000
0100
0010
0100
1000
0001
0000
0010
0000
0001
1000
0000
,
0020
0000
0030
0100
0000
0001
1000
0001
0100
0010
0000
1000
0000
0001
0010
0100
,
1000
0001
0000
0100
0000
0010
0100
0000
0220
0330
0000
0000
2002
3003
0000
0000
,
1000
0010
0100
0001
1000
0010
1000
0001
0100
0010
1000
0001
0100
0010
0100
0001
,
1000
0100
0010
0001
0010
0100
1000
0001
0200
0000
0300
0000
0020
0000
0030
0000
,
1000
0001
0010
0100
1000
0100
0010
0001
1000
0100
0010
0001
0010
0100
1000
0001
,
0100
0010
1000
0001
0100
0010
0100
0001
2000
0000
3000
0000
0200
0000
0300
0000
,
1000
0001
0100
0010
1000
0001
0100
0010
1000
0001
1000
0010
0100
0001
1000
0100
,
0010
0001
1000
0100
1000
0001
0010
0100
2000
0000
3000
0000
0002
0000
0003
0000
,
1000
0100
0010
0001
1000
0100
0010
0001
1000
0100
0010
0100
1000
0001
0010
0100
,
1000
0001
0100
0010
0100
0001
1000
0010
2000
0000
3000
0000
0002
0000
0003
0000
,
1000
0000
0000
0010
0000
0100
0001
0100
0010
1000
0000
0001
0000
0010
0000
0100
,
2000
0000
3000
0001
0000
0010
0100
0010
0001
1000
0000
0100
0000
1000
0001
0000
,
0200
0000
0300
0010
0000
1000
0001
1000
0010
0100
0000
0001
0000
1000
0100
0010
,
0001
1000
0000
0010
0000
0100
0010
0000
0220
0330
0000
0000
2002
3003
0000
0000
,
0001
0000
1000
0010
0100
0001
0100
0010
1000
0000
0001
0100
0002
0000
0003
0000
,
1000
0000
0001
0010
0100
1000
0100
0010
0001
0000
1000
0100
2000
0000
3000
0000
,
0001
0000
0100
0010
1000
0001
1000
0010
0100
0000
0001
1000
0002
0000
0003
0000
,
1000
0010
0100
0001
1000
0010
0100
0001
1000
0010
1000
0001
0100
0001
1000
0100
,
0010
0001
1000
0100
0010
0001
0010
0100
1000
0001
0010
0100
1000
0100
0010
0001
,
1000
0010
0100
0001
1000
0010
0100
0001
1000
0010
0100
0010
1000
0001
0100
0001
,
1000
0100
0010
0001
1000
0100
0010
0001
2000
0000
0000
0000
3000
0000
0001
0000
,
0100
0010
0100
0010
1000
0001
1000
0001
,
0010
0100
1000
0001
0200
0000
0300
0010
,
1000
0000
0001
1000
0010
0000
0100
0000
0001
0000
1000
0000
0001
0000
1000
0000
,
0100
0010
0001
0010
0200
0000
0300
1000
,
0001
0100
0001
0100
0010
1000
0010
1000
,
0001
0000
0000
0000
0010
0000
0000
0000
0100
0000
0000
0000
1000
0000
0000
0000
0002
0000
0000
0000
0000
0000
M000
0000
0003
0000
M000
0000
0000
0000
0000
M000
,
0000
0000
0000
0000
0000
M000
0000
0000
0000
0000
0000
0000
0000
0000
0MM0
0000
0000
0000
0000
0000
0000
0000
0000
0000
0000
M000
0000
0000
0000
0000
0000
0000
,
100M
0020
0130
0002
1003
0020
0130
0002
,
1003
0200
0310
0002
1003
0200
0310
0002
,
1M03
0010
0100
0001
1000
0010
0100
0001
1000
0010
1000
0001
0100
0001
1000
0100
,
0010
0001
1000
0100
0010
0001
1000
0100
0020
0000
0030
0000
0002
0000
0003
0000
,
M100
0010
1000
0001
0100
0010
1000
0010
0100
0001
1000
0010
0100
0001
1000
0001
,
0010
0100
1000
0001
0010
0100
1000
0100
0020
0000
0030
0000
0002
0000
0003
0000
,
1M00
0010
0100
0001
1000
0010
0100
0010
1000
0001
0100
0010
1000
0001
0100
0010
,
1000
0001
0010
0100
1000
0001
0010
0100
0020
0000
0030
0000
0002
0000
0003
0000
,
1M00
0010
1000
0001
0100
0010
1000
0001
0100
0010
1000
0010
0100
0001
1000
0010
,
1000
0001
0010
0100
1000
0001
0010
0100
2000
0000
3000
0000
0002
0000
0003
0000
,
100M
0010
0100
0001
1000
0010
0100
0001
,
1000
0010
0100
0001
2000
3000
0002
0003
,
100M
0100
0010
0001
1000
0100
0010
0001
,
1000
0100
0010
0001
2000
3000
0002
0003
,
1M00
0001
0100
0010
1000
0001
0100
0010
,
1000
0001
0100
0010
2000
3000
0002
0003
,
10M0
0001
0100
0010
1000
0001
1000
0010
0100
0001
1000
0010
0100
0001
0100
0010
,
1000
0001
0010
0100
1000
0001
0010
0100
1000
0100
0010
0001
1000
0100
0010
0001
,
1M00
0010
0100
0001
1000
0010
0100
0001
,
1000
0010
0100
0001
2000
3000
0002
0003
,
1000
0100
0010
0001
1000
0100
0010
0001
,
1000
0100
0010
0001
2000
3000
0002
0003
,
1000
0010
0100
0001
1000
0010
0100
0001
,
1000
0010
0100
0001
2000
3000
0002
0003
,
1000
0100
0010
0001
1000
0100
0010
0001
,
1000
0010
0100
0001
1000
0010
0100
0001
,
1000
0010
0100
0001
1000
0010
0100
0010
1000
0001
0100
0010
1000
0001
0100
0010
,
1000
0001
0010
0100
1000
0001
0010
0100
1000
0001
0010
0001
1000
0000
0000
0000
;

//---------------dance-double - ----------------
#NOTES:
     dance-double:
     Dossar:
     Challenge:
     14:
     1.000,1.000,0.038,0.336,1.000:
00000000
00000000
00000000
00000000
,
00000000
00000000
00000000
00000000
,
00000000
00000000
00000000
00000000
,
00000000
00000000
10000000
10000000
,
10000000
00100000
00000000
01000000
00000000
00001000
00010000
00001000
00100000
00000000
01000000
00100000
00000000
00010000
10000000
00010000
,
01000000
00100000
00000000
10000000
00000000
00010000
01000000
00010000
00100000
00001000
00100000
00001000
00010000
00000010
00010000
00000010
,
00000100
00000001
00001000
00000100
00010000
00000100
00001000
00000100
00000010
00000001
00001000
00000100
00010000
00001000
00010000
00001000
,
00100000
00010000
00000000
10000000
00000000
00010000
00100000
01000000
20000000
00000000
00000000
00000000
00000000
00000000
30000000
00000000
,
00010000
00000000
00000000
01000000
00000000
00100000
10000000
00100000
01000000
00010000
00000000
00100000
00000000
00001000
00000000
00010000
,
00002000
00000000
00003000
00010000
00000000
00000100
00001000
00000100
00000010
00000001
00000000
00001000
00000000
00000100
00010000
00000000
,
00002000
00000000
00003000
00100000
00000000
00010000
10000000
00010000
01000000
00100000
00000000
10000000
00000000
00010000
00100000
01000000
,
10000000
00010000
00000000
01000000
00000000
00100000
01000000
00000000
02200000
03300000
00000000
00000000
20020000
30030000
00000000
00000000
,
10000000
00100000
01000000
00010000
10000000
00100000
10000000
00010000
01000000
00100000
10000000
00010000
01000000
00100000
01000000
00010000
,
00100000
00001000
00100000
00001000
00010000
00000010
00010000
00000010
00002000
00000000
00003000
00000000
00000002
00000000
00000003
00000000
,
00001000
00000100
00000010
00000001
00001000
00000100
00000010
00000001
00001000
00000100
00001000
00000001
00001000
00000100
00010000
00001000
,
00100000
00010000
00100000
00010000
10000000
01000000
10000000
01000000
00200000
00000000
00300000
00000000
00020000
00000000
00030000
00000000
,
10000000
00010000
01000000
00100000
10000000
00010000
01000000
00100000
10000000
00010000
10000000
00100000
01000000
00010000
00100000
00001000
,
00010000
00000010
00010000
00000010
00001000
00000001
00001000
00000001
00000200
00000000
00000300
00000000
00000020
00000000
00000030
00000000
,
00001000
00000001
00001000
00000100
00000010
00000001
00001000
00000100
00001000
00000001
00000010
00000100
00001000
00000100
00010000
00001000
,
00100000
01000000
00100000
01000000
10000000
00010000
10000000
00010000
00200000
00000000
00300000
00000000
00020000
00000000
00030000
00000000
,
10000000
00000000
00000000
00100000
00000000
01000000
00010000
01000000
00100000
10000000
00000000
00010000
00000000
00100000
00000000
00001000
,
00020000
00000000
00030000
00000010
00000000
00000100
00000001
00000100
00000010
00001000
00000000
00000100
00000000
00010000
00001000
00000000
,
00200000
00000000
00300000
01000000
00000000
10000000
00010000
10000000
00100000
01000000
00000000
00010000
00000000
10000000
01000000
00100000
,
00010000
10000000
00000000
00100000
00000000
01000000
00100000
00000000
02200000
03300000
00000000
00000000
20020000
30030000
00000000
00000000
,
00010000
00000000
10000000
00100000
01000000
00010000
01000000
00100000
10000000
00000000
00001000
00010000
00002000
00000000
00003000
00000000
,
00010000
00000000
00000100
00001000
00000100
00000010
00000001
00000010
00000100
00000000
00010000
00001000
00020000
00000000
00030000
00000000
,
00001000
00000000
01000000
00100000
10000000
00010000
10000000
00100000
01000000
00000000
00001000
00010000
00002000
00000000
00003000
00000000
,
10000000
00100000
01000000
00010000
10000000
00100000
01000000
00010000
10000000
00100000
10000000
00010000
01000000
00010000
01000000
00001000
,
00010000
00000100
00010000
00001000
00010000
00000100
00000010
00000001
00001000
00000100
00001000
00000100
00010000
00001000
00100000
00010000
,
10000000
00100000
01000000
00010000
10000000
00100000
01000000
00010000
10000000
00100000
01000000
00100000
10000000
00010000
01000000
00010000
,
00100000
00001000
00100000
00001000
00010000
00000100
00010000
00000100
00002000
00000000
00000000
00000000
00003000
00000000
00001000
00000100
,
00001000
00000001
00000100
00000010
00001000
00000001
00001000
00000001
00000100
00000010
00000100
00000001
00001000
00000010
00010000
00001000
,
01000000
00010000
10000000
00100000
01000000
00010000
10000000
00100000
02000000
00000000
00000000
00000000
03000000
00000000
00001000
00010000
,
00000100
00001000
00000100
00000010
00000001
00001000
00000100
00000010
00000001
00000010
00000100
00001000
00000100
00010000
00001000
00100000
,
00010000
10000000
01000000
00100000
00010000
10000000
01000000
00100000
00020000
00000000
00000000
00000000
00030000
00000000
00100000
00001000
,
00010000
00000010
00000100
00000001
00001000
00000010
00000100
00000001
00001000
00000010
00001000
00000001
00001000
00000010
00000100
00000010
,
00010000
00000000
00001000
00000000
00010000
00000000
00000010
00000000
00001000
00000000
00000001
00000000
00001000
00000000
00000100
00000000
00000020
00000000
00000000
00000000
00000000
00000000
0000000M
00000000
00000030
00000000
0000000M
00000000
00000000
00000000
00000000
0000000M
,
00000000
00000000
00000000
00000000
00000000
0000000M
00000000
00000000
00000000
00000000
00000000
00000000
00000000
00000000
00000MM0
00000000
00000000
00000000
00000000
00000000
00000000
00000000
00000000
00000000
00000000
0000000M
00000000
00000000
00000000
00000000
00000000
00000000
,
M0000001
00000100
00000010
00001000
00000001
00000100
00000010
00001000
00000001
00000100
00000010
00001000
00000001
00000100
00000010
00001000
,
00000100
00010000
00001000
01000000
00000100
00010000
00001000
01000000
00000100
00010000
00001000
01000000
00000100
00010000
00001000
01000000
,
0001000M
10000000
00010000
01000000
00001000
00010000
00001000
01000000
00010000
10000000
00010000
01000000
00001000
00010000
00001000
01000000
,
00001000
00010000
00000100
00001000
00000100
00000010
00000001
00000010
00000200
00000000
00000300
00000000
00002000
00000000
00003000
00000000
,
M0000001
00000100
00000001
00001000
00000100
00010000
00000100
00001000
00000001
00000100
00000001
00001000
00000100
00010000
00000100
00001000
,
00000100
00010000
00001000
01000000
00001000
00100000
00010000
00100000
00002000
00000000
00003000
00000000
02000000
00000000
03000000
00000000
,
0001000M
10000000
00010000
00100000
00001000
00010000
00001000
00100000
00010000
10000000
00010000
00100000
00001000
00010000
00001000
00100000
,
00001000
00010000
00000010
00001000
00000010
00000100
00000001
00000100
00000020
00000000
00000030
00000000
00002000
00000000
00003000
00000000
,
M0000001
00000010
00000001
00001000
00000010
00010000
00000010
00001000
00000001
00000010
00000001
00001000
00000010
00010000
00000010
00001000
,
00000010
00010000
00001000
00100000
00001000
01000000
00010000
10000000
002000MM
00000000
00000000
00000000
000000MM
00000000
00300000
00000000
,
0100000M
00100000
01000000
00010000
10000000
00100000
10000000
00010000
01000000
00100000
01000000
00010000
10000000
00100000
10000000
00010000
,
00100000
00001000
00100000
00001000
00010000
00000100
00010000
00000100
00000010
00000001
00001000
00000100
00000010
00000001
00000010
00000100
,
M0001000
00000001
00001000
00000010
00000100
00000001
00000100
00000010
00001000
00000001
00001000
00000010
00000100
00000001
00000100
00000010
,
00001000
00000100
00001000
00000100
00010000
00001000
00010000
00001000
00100000
00010000
10000000
01000000
00100000
00010000
00100000
01000000
,
1000000M
00010000
10000000
00100000
01000000
00010000
01000000
00100000
10000000
00010000
10000000
00100000
01000000
00010000
01000000
00100000
,
10000000
00010000
10000000
00010000
01000000
00001000
01000000
00001000
00010000
00000100
00001000
00000100
00010000
00001000
00100000
00010000
,
1000000M
01000000
10000000
00010000
00100000
01000000
00100000
00010000
10000000
01000000
10000000
00010000
00100000
01000000
00100000
00010000
,
01000000
00001000
01000000
00001000
00010000
00000100
00010000
00000100
00001000
00000001
00000100
00000010
00001000
00000001
00000100
00000010
,
M0001000
00000100
00001000
00000001
00000010
00000100
00000010
00000001
00001000
00000100
00001000
00000001
00000010
00000100
00000010
00000001
,
00001000
00000100
00001000
00000100
00010000
00001000
00010000
00001000
00100000
00010000
10000000
01000000
00100000
00010000
10000000
00100000
,
01000000
00010000
01000000
00100000
10000000
00010000
10000000
00100000
01000000
00010000
01000000
00100000
10000000
00010000
10000000
00100000
,
01000000
00001000
01000000
00001000
00010000
00000100
00010000
00000100
00001000
00000001
00000100
00000010
00001000
00000001
00000100
00000010
,
00001000
00000001
00001000
00000100
00000010
00000001
00000010
00000100
00001000
00000001
00001000
00000100
00000010
00000001
00000010
00000100
,
00001000
00000010
00001000
00000010
00010000
00001000
00010000
00001000
00100000
00010000
10000000
01000000
00100000
00010000
00100000
01000000
,
10000000
01000000
00100000
00010000
00100000
00001000
00010000
00000100
00001000
00000100
00000010
00000001
00001000
00000100
00001000
00000001
,
00000100
00000010
00001000
00000010
00010000
00001000
01000000
00010000
01000000
00100000
10000000
00010000
01000000
00001000
01000000
00010000
,
01000000
00001000
00010000
00001000
00100000
00001000
00010000
00000010
00001000
00000010
00000100
00000001
00001000
00000010
00010000
00000010
,
00001000
00000010
00000100
00000001
00001000
00000100
00010000
00001000
00100000
00010000
00100000
01000000
10000000
00000000
00000000
00000000
;

//---------------dance-double - ----------------
#NOTES:
     dance-double:
     Dossar:
     Hard:
     13:
     0.987,1.000,0.038,0.557,1.000:
00000000
00000000
00000000
00000000
,
00000000
00000000
00000000
00000000
,
00000000
00000000
00000000
00000000
,
00000000
00000000
10000000
10000000
,
10000000
00100000
00000000
01000000
00000000
00001000
00010000
00001000
00100000
00000000
01000000
00100000
00000000
00010000
10000000
00010000
,
01000000
00100000
00000000
10000000
00000000
00010000
01000000
00010000
00100000
00001000
00100000
00001000
00010000
00000010
00010000
00000010
,
00000100
00000001
00001000
00000100
00010000
00000100
00001000
00000100
00000010
00000001
00001000
00000100
00010000
00001000
00010000
00001000
,
00100000
00010000
00000000
10000000
00000000
00010000
00100000
01000000
20000000
00000000
00000000
00000000
00000000
00000000
30000000
00000000
,
00010000
00000000
00000000
01000000
00000000
00100000
10000000
00100000
01000000
00010000
00000000
00100000
00000000
00001000
00000000
00010000
,
00002000
00000000
00003000
00010000
00000000
00000100
00001000
00000100
00000010
00000001
00000000
00001000
00000000
00000100
00010000
00000000
,
00002000
00000000
00003000
00100000
00000000
00010000
10000000
00010000
01000000
00100000
00000000
10000000
00000000
00010000
00100000
01000000
,
10000000
00010000
00000000
01000000
00000000
00100000
01000000
00000000
02200000
03300000
00000000
00000000
20020000
30030000
00000000
00000000
,
10000000
00100000
01000000
00010000
10000000
00100000
10000000
00010000
01000000
00100000
10000000
00010000
01000000
00100000
01000000
00010000
,
00100000
00001000
00100000
00001000
00010000
00000010
00010000
00000010
00002000
00000000
00003000
00000000
00000002
00000000
00000003
00000000
,
00001000
00000100
00000010
00000001
00001000
00000100
00000010
00000001
00001000
00000100
00001000
00000001
00001000
00000100
00010000
00001000
,
00100000
00010000
00100000
00010000
10000000
01000000
10000000
01000000
00200000
00000000
00300000
00000000
00020000
00000000
00030000
00000000
,
10000000
00010000
01000000
00100000
10000000
00010000
01000000
00100000
10000000
00010000
10000000
00100000
01000000
00010000
00100000
00001000
,
00010000
00000010
00010000
00000010
00001000
00000001
00001000
00000001
00000200
00000000
00000300
00000000
00000020
00000000
00000030
00000000
,
00001000
00000001
00001000
00000100
00000010
00000001
00001000
00000100
00001000
00000001
00000010
00000100
00001000
00000100
00010000
00001000
,
00100000
01000000
00100000
01000000
10000000
00010000
10000000
00010000
00200000
00000000
00300000
00000000
00020000
00000000
00030000
00000000
,
10000000
00000000
00000000
00100000
00000000
01000000
00010000
01000000
00100000
10000000
00000000
00010000
00000000
00100000
00000000
00001000
,
00020000
00000000
00030000
00000010
00000000
00000100
00000001
00000100
00000010
00001000
00000000
00000100
00000000
00010000
00001000
00000000
,
00200000
00000000
00300000
01000000
00000000
10000000
00010000
10000000
00100000
01000000
00000000
00010000
00000000
10000000
01000000
00100000
,
00010000
10000000
00000000
00100000
00000000
01000000
00100000
00000000
02200000
03300000
00000000
00000000
20020000
30030000
00000000
00000000
,
00010000
00000000
10000000
00100000
01000000
00010000
01000000
00100000
10000000
00000000
00001000
00010000
00002000
00000000
00003000
00000000
,
00010000
00000000
00000100
00001000
00000100
00000010
00000001
00000010
00000100
00000000
00010000
00001000
00020000
00000000
00030000
00000000
,
00001000
00000000
01000000
00100000
10000000
00010000
10000000
00100000
01000000
00000000
00001000
00010000
00002000
00000000
00003000
00000000
,
10000000
00100000
01000000
00010000
10000000
00100000
01000000
00010000
10000000
00100000
10000000
00010000
01000000
00010000
01000000
00001000
,
00010000
00000100
00010000
00001000
00010000
00000100
00000010
00000001
00001000
00000100
00001000
00000100
00010000
00001000
00100000
00010000
,
10000000
00100000
01000000
00010000
10000000
00100000
01000000
00010000
10000000
00100000
01000000
00100000
10000000
00010000
01000000
00010000
,
00100000
00001000
00100000
00001000
00010000
00000100
00010000
00000100
00002000
00000000
00000000
00000000
00003000
00000000
00001000
00000100
,
00001000
00000001
00000100
00000010
00001000
00000001
00001000
00000001
00000100
00000010
00000100
00000001
00001000
00000010
00010000
00001000
,
01000000
00010000
10000000
00100000
01000000
00010000
10000000
00100000
02000000
00000000
00000000
00000000
03000000
00000000
00001000
00010000
,
00000100
00001000
00000100
00000010
00000001
00001000
00000100
00000010
00000001
00000010
00000100
00001000
00000100
00010000
00001000
00100000
,
00010000
10000000
01000000
00100000
00010000
10000000
01000000
00100000
00020000
00000000
00000000
00000000
00030000
00000000
00100000
00001000
,
00010000
00000010
00000100
00000001
00001000
00000010
00000100
00000001
00001000
00000010
00001000
00000001
00001000
00000010
00000100
00000010
,
00010000
00000000
00001000
00000000
00010000
00000000
00000010
00000000
00001000
00000000
00000001
00000000
00001000
00000000
00000100
00000000
00000020
00000000
00000000
00000000
00000000
00000000
0000000M
00000000
00000030
00000000
0000000M
00000000
00000000
00000000
00000000
0000000M
,
00000000
00000000
00000000
00000000
00000000
0000000M
00000000
00000000
00000000
00000000
00000000
00000000
00000000
00000000
00000MM0
00000000
00000000
00000000
00000000
00000000
00000000
00000000
00000000
00000000
00000000
0000000M
00000000
00000000
00000000
00000000
00000000
00000000
,
M0000001
00002000
00003001
00002000
00003001
00002000
00003001
00002000
,
00003010
00020000
00030010
00020000
00030010
00020000
00030010
00020000
,
0003100M
00100000
00010000
10000000
01000000
00100000
00001000
00010000
,
00000100
00000010
00000001
00001000
00000200
00000300
00002000
00003000
,
M0000100
00010000
00001000
00100000
00010000
00100000
01000000
10000000
,
00010000
01000000
00001000
00010000
00000200
00000300
00020000
00030000
,
0000100M
01000000
00010000
10000000
00100000
01000000
00010000
00100000
,
00001000
00010000
00000100
00000010
00000002
00000003
00002000
00003000
,
M0000001
00000100
00000001
00001000
00000010
00000100
00000010
00001000
00000001
00000100
00000001
00001000
00000010
00000100
00000010
00001000
,
00000010
00010000
00001000
00100000
00001000
01000000
00010000
10000000
00200000
00000000
00300000
00000000
20000000
00000000
30000000
00000000
,
0001000M
01000000
00100000
10000000
00010000
01000000
00001000
00010000
,
00000100
00001000
00000100
00000010
00000002
00000003
00002000
00003000
,
M0000010
00001000
00000100
00010000
00001000
00100000
00010000
01000000
,
00100000
10000000
01000000
00100000
00002000
00003000
00020000
00030000
,
0000100M
00100000
01000000
10000000
00010000
01000000
00001000
00010000
,
00000010
00001000
00000100
00010000
00002000
00003000
00200000
00300000
,
0001000M
00100000
00010000
10000000
01000000
00100000
01000000
10000000
00010000
00100000
00010000
10000000
01000000
00100000
01000000
10000000
,
00010000
01000000
00010000
01000000
00001000
00010000
00001000
00010000
00000200
00000000
00000300
00000000
00002000
00000000
00003000
00000000
,
M0000001
00000100
00000001
00001000
00000100
00010000
00001000
01000000
,
00010000
10000000
00010000
01000000
00002000
00003000
00020000
00030000
,
00000100
00000010
00000001
00001000
00000100
00010000
00001000
00100000
,
00010000
00100000
01000000
10000000
00020000
00030000
02000000
03000000
,
00010000
10000000
00100000
01000000
00010000
00100000
00001000
00010000
,
00000010
00001000
00000010
00000100
00000002
00000003
00002000
00003000
,
00000001
00000100
00000010
00001000
00000001
00000100
00000010
00001000
00000001
00001000
00000010
00000100
00000001
00001000
00000100
00010000
,
00001000
00010000
00001000
01000000
00001000
00010000
00000100
00001000
00000100
00010000
00000100
00010000
00001000
00010000
00001000
01000000
,
00010000
10000000
00100000
01000000
00010000
10000000
00100000
01000000
00010000
01000000
00100000
10000000
00010000
10000000
00010000
01000000
,
00001000
01000000
00001000
00010000
00000100
00010000
00000100
00001000
00000100
00000010
00000001
00001000
00000100
00000000
00000000
00000000
;
