#TITLE:SPEED OVER BEETHOVEN;
#SUBTITLE:;
#ARTIST:ROSE;
#TITLETRANSLIT:;
#SUBTITLETRANSLIT:;
#ARTISTTRANSLIT:;
#CREDIT:;
#BANNER:../ddrstream fallback-bn.png;
#BACKGROUND:../ddrstream fallback-bg.png;
#LYRICSPATH:;
#CDTITLE:;
#MUSIC:SPEED OVER BEETHOVEN.ogg;
#OFFSET:-0.004;
#SAMPLESTART:17.050;
#SAMPLELENGTH:10.580;
#SELECTABLE:YES;
#DISPLAYBPM:169.000;
#BPMS:0.000=169.000;
#STOPS:;
#BGCHANGES:;

//---------------dance-single - ----------------
#NOTES:
     dance-single:
     Dossar:
     Hard:
     13:
     1.000,1.000,0.198,0.099,1.000:
0000
0000
0000
0000
,
0000
0000
0000
0000
,
1000
0010
0100
0001
0100
0010
1000
0001
0100
0010
1000
0001
1000
0001
0010
0100
,
1000
0001
1000
0001
0010
0100
1000
0100
0010
0001
1000
0001
1000
0010
0100
0001
,
0100
0010
1000
0001
0100
0001
1000
0010
0100
0001
1000
0010
1000
0001
0010
0001
,
1000
0100
1000
0001
0010
0100
1000
0001
0010
0001
1000
0100
1000
0001
0100
0001
,
1000
0010
0100
0001
1000
0010
1000
0001
0100
0001
1000
0010
0100
0001
0100
0010
,
1000
0001
1000
0001
0100
0010
1000
0010
0100
0001
1000
0001
1000
0100
0010
0001
,
1000
0100
1000
0001
0010
0100
1000
0001
0010
0001
1000
0100
1000
0001
0010
0100
,
1000
0001
1000
0001
1000
0001
1000
0001
,
1000
0010
0100
0001
0100
0010
1000
0001
0100
0010
0100
0001
1000
0010
0100
0001
,
2000
3200
0320
0032
0023
0230
2300
3002
,
1003
0010
0100
0001
0100
0010
1000
0001
0100
0010
1000
0001
1000
0001
0010
0100
,
1000
0001
1000
0001
0010
0100
1000
0100
0010
0001
1000
0001
1000
0010
0100
0001
,
0100
0010
1000
0001
0100
0001
1000
0010
0100
0001
1000
0010
1000
0001
0010
0001
,
1000
0100
1000
0001
0010
0100
1000
0001
0010
0001
1000
0100
1000
0001
0100
0001
,
1000
0010
0100
0001
1000
0010
1000
0001
0100
0001
1000
0010
0100
0001
0100
0010
,
1000
0001
1000
0001
0100
0010
1000
0010
0100
0001
1000
0001
1000
0100
0010
0001
,
1000
0100
1000
0001
0010
0100
1000
0001
0010
0001
1000
0100
1000
0001
0010
0100
,
1000
0001
1000
0001
0010
0100
1000
0001
1000
0010
0100
0001
1000
0010
0100
0001
,
1000
0000
1001
0000
1001
1001
0000
1001
,
0001
0000
0010
0000
0010
0010
0000
0010
,
0110
0000
1100
0000
1100
1100
0000
1100
,
1000
0000
0000
0000
0001
0000
0000
0000
0001
0000
0001
0100
0010
0000
1000
0000
,
0001
0100
0010
1000
0001
0100
0001
1000
0010
1000
0001
0100
0010
1000
0010
0100
,
0001
1000
0001
1000
0010
0100
0001
0100
0010
1000
0001
1000
0001
0010
0100
1000
,
0001
0010
0001
1000
0100
0010
0001
1000
0100
1000
0001
0010
0001
1000
0100
0010
,
0001
1000
0001
1000
0100
0010
0001
1000
0010
0100
0001
1000
0001
0100
0010
1000
,
0001
0000
0101
0000
0101
0101
0000
0101
,
0001
0000
1000
0000
1000
1000
0000
1000
,
1100
0000
0110
0000
0110
0110
0000
0110
,
0010
0000
0000
0000
0001
0000
0000
0000
0001
0000
0001
0100
0010
0000
1000
0000
,
0001
0100
0010
1000
0001
0100
0001
1000
0010
1000
0001
0100
0010
1000
0010
0100
,
0001
1000
0001
1000
0010
0100
0001
0100
0010
1000
0001
1000
0001
0010
0100
1000
,
0001
0100
0010
1000
0010
0100
0001
1000
0010
0100
0001
1000
0001
1000
0100
0010
,
0001
1000
0001
1000
0100
0010
0001
0010
0100
1000
0001
1000
0001
0100
0010
1000
,
0010
0100
0001
1000
0001
0001
0100
0001
,
1000
0100
0010
0001
0010
0010
0100
0010
,
0001
1000
0010
0100
0010
0010
1000
0010
,
0100
0000
0001
0000
1000
0000
0100
0000
1000
0000
1000
0100
0010
0000
0001
0000
,
1000
0100
1000
0001
0010
0100
1000
0001
0010
0001
1000
0100
1000
0001
0010
0100
,
1000
0001
1000
0001
0010
0100
1000
0001
1000
0010
0100
0001
1000
0010
0100
0001
,
1000
0010
0100
0001
0100
0010
1000
0001
0100
0010
1000
0001
1000
0001
0010
0100
,
1000
0001
1000
0001
0010
0100
1000
0100
0010
0001
1000
0001
1000
0010
0100
0001
,
0100
0010
1000
0001
1000
1000
0100
1000
,
0001
0010
0100
1000
0100
0100
0010
0100
,
1000
0001
0100
0010
0100
0100
0001
0100
,
0010
0000
1000
0000
0001
0000
0010
0000
0001
0000
0001
1000
0100
0000
0010
0000
,
0001
0010
0001
1000
0100
0010
0001
1000
0100
1000
0001
0010
0001
1000
0100
0010
,
0001
1000
0001
1000
0100
0010
0001
1000
0010
0100
0001
1000
0001
0100
0010
1000
,
0001
0100
0010
1000
0010
0100
0001
1000
0010
0100
0001
1000
0001
1000
0100
0010
,
0001
0000
1000
0000
0100
0000
1000
0000
0100
0000
0010
0001
1000
0000
0001
0000
,
0100
0010
0100
0010
0100
0010
0100
0010
,
1000
0001
0100
0010
0100
0001
1000
0010
0100
0010
1000
0001
1000
0001
0010
0100
,
1000
0001
1000
0001
0010
0100
1000
0100
0010
0001
1000
0001
1000
0010
0100
0001
,
0100
0010
1000
0001
0100
0001
1000
0010
0100
0001
1000
0010
1000
0001
0010
0001
,
1000
0100
1000
0001
0010
0100
1000
0001
0010
0001
1000
0100
1000
0001
0100
0001
,
1000
0010
0100
0001
1000
0010
1000
0001
0100
0001
1000
0010
0100
0001
0100
0010
,
1000
0001
1000
0001
0100
0010
1000
0010
0100
0001
1000
0001
1000
0100
0010
0001
,
1000
0100
1000
0001
0010
0100
1000
0001
0010
0001
1000
0100
1000
0001
0010
0100
,
1000
0001
1000
0001
0010
0100
1000
0001
1000
0010
0100
0001
1000
0010
0100
0001
,
2000
0000
0000
3000
;

//---------------dance-single - ----------------
#NOTES:
     dance-single:
     Dossar:
     Challenge:
     14:
     1.000,1.000,0.000,0.099,1.000:
0000
0000
0000
0000
,
0000
0000
0000
0000
,
1000
0010
0100
0001
0100
0010
1000
0001
0100
0010
1000
0001
1000
0001
0010
0100
,
1000
0001
1000
0001
0010
0100
1000
0100
0010
0001
1000
0001
1000
0010
0100
0001
,
0100
0010
1000
0001
0100
0001
1000
0010
0100
0001
1000
0010
1000
0001
0010
0001
,
1000
0100
1000
0001
0010
0100
1000
0001
0010
0001
1000
0100
1000
0001
0100
0001
,
1000
0010
0100
0001
1000
0010
1000
0001
0100
0001
1000
0010
0100
0001
0100
0010
,
1000
0001
1000
0001
0100
0010
1000
0010
0100
0001
1000
0001
1000
0100
0010
0001
,
1000
0100
1000
0001
0010
0100
1000
0001
0010
0001
1000
0100
1000
0001
0010
0100
,
1000
0001
1000
0001
1000
0001
1000
0001
,
1000
0010
0100
0001
0100
0010
1000
0001
0100
0010
0100
0001
1000
0010
0100
0001
,
2000
3200
0320
0032
0023
0230
2300
3002
,
1003
0010
0100
0001
0100
0010
1000
0001
0100
0010
1000
0001
1000
0001
0010
0100
,
1000
0001
1000
0001
0010
0100
1000
0100
0010
0001
1000
0001
1000
0010
0100
0001
,
0100
0010
1000
0001
0100
0001
1000
0010
0100
0001
1000
0010
1000
0001
0010
0001
,
1000
0100
1000
0001
0010
0100
1000
0001
0010
0001
1000
0100
1000
0001
0100
0001
,
1000
0010
0100
0001
1000
0010
1000
0001
0100
0001
1000
0010
0100
0001
0100
0010
,
1000
0001
1000
0001
0100
0010
1000
0010
0100
0001
1000
0001
1000
0100
0010
0001
,
1000
0100
1000
0001
0010
0100
1000
0001
0010
0001
1000
0100
1000
0001
0010
0100
,
1000
0001
1000
0001
0010
0100
1000
0001
1000
0010
0100
0001
1000
0010
0100
0001
,
1000
0010
0100
0001
0100
0010
1000
0001
0100
0010
1000
0001
1000
0001
0010
0100
,
1000
0001
1000
0001
0010
0100
1000
0100
0010
0001
1000
0001
1000
0010
0100
0001
,
0100
0010
1000
0001
0100
0001
1000
0010
0100
0001
1000
0010
1000
0001
0010
0001
,
1000
0100
1000
0001
0010
0100
1000
0001
0010
0001
1000
0100
1000
0001
0100
0001
,
1000
0010
0100
0001
1000
0010
1000
0001
0100
0001
1000
0010
0100
0001
0100
0010
,
1000
0001
1000
0001
0100
0010
1000
0010
0100
0001
1000
0001
1000
0100
0010
0001
,
1000
0100
1000
0001
0010
0100
1000
0001
0010
0001
1000
0100
1000
0001
0010
0100
,
1000
0001
1000
0001
0010
0100
1000
0001
0100
0010
1000
0001
1000
0010
0100
0001
,
1000
0010
0100
0001
0100
0010
1000
0001
0100
0010
1000
0001
1000
0001
0010
0100
,
1000
0001
1000
0001
0010
0100
1000
0100
0010
0001
1000
0001
1000
0010
0100
0001
,
0100
0010
1000
0001
0100
0001
1000
0010
0100
0001
1000
0010
1000
0001
0010
0001
,
1000
0100
1000
0001
0010
0100
1000
0001
0010
0001
1000
0100
1000
0001
0100
0001
,
1000
0010
0100
0001
1000
0010
1000
0001
0100
0001
1000
0010
0100
0001
0100
0010
,
1000
0001
1000
0001
0100
0010
1000
0010
0100
0001
1000
0001
1000
0100
0010
0001
,
1000
0010
0100
0001
0100
0010
1000
0001
0100
0010
1000
0001
1000
0001
0010
0100
,
1000
0001
1000
0001
0010
0100
1000
0100
0010
0001
1000
0001
1000
0010
0100
0001
,
0100
0010
1000
0001
0100
0001
1000
0010
0100
0001
1000
0010
1000
0001
0010
0001
,
1000
0100
1000
0001
0010
0100
1000
0001
0010
0001
1000
0100
1000
0001
0100
0001
,
1000
0010
0100
0001
1000
0010
1000
0001
0100
0001
1000
0010
0100
0001
0100
0010
,
1000
0001
1000
0001
0100
0010
1000
0010
0100
0001
1000
0001
1000
0100
0010
0001
,
1000
0100
1000
0001
0010
0100
1000
0001
0010
0001
1000
0100
1000
0001
0010
0100
,
1000
0001
1000
0001
0010
0100
1000
0001
1000
0010
0100
0001
1000
0010
0100
0001
,
1000
0010
0100
0001
0100
0010
1000
0001
0100
0010
1000
0001
1000
0001
0010
0100
,
1000
0001
1000
0001
0010
0100
1000
0100
0010
0001
1000
0001
1000
0010
0100
0001
,
0100
0010
1000
0001
0100
0001
1000
0010
0100
0001
1000
0010
1000
0001
0010
0001
,
1000
0100
1000
0001
0010
0100
1000
0001
0010
0001
1000
0100
1000
0001
0100
0001
,
1000
0010
0100
0001
1000
0010
1000
0001
0100
0001
1000
0010
0100
0001
0100
0010
,
1000
0001
1000
0001
0100
0010
1000
0010
0100
0001
1000
0001
1000
0100
0010
0001
,
1000
0100
1000
0001
0010
0100
1000
0001
0010
0001
1000
0100
1000
0001
0010
0100
,
1000
0001
1000
0001
0010
0100
1000
0001
0100
0010
1000
0001
1000
0010
0100
0001
,
1000
0010
0100
0001
0100
0010
1000
0001
0100
0010
1000
0001
1000
0001
0010
0100
,
1000
0000
0001
0000
0010
0000
0001
0000
0010
0000
0100
1000
0001
0000
1000
0000
,
0010
0100
0010
0100
0010
0100
0010
0100
,
0001
1000
0010
0100
0010
1000
0001
0100
0010
0100
0001
1000
0001
1000
0100
0010
,
0001
1000
0001
1000
0100
0010
0001
0010
0100
1000
0001
1000
0001
0100
0010
1000
,
0010
0100
0001
1000
0010
1000
0001
0100
0010
1000
0001
0100
0001
1000
0100
1000
,
0001
0010
0001
1000
0100
0010
0001
1000
0100
1000
0001
0010
0001
1000
0010
1000
,
0001
0100
0010
1000
0001
0100
0001
1000
0010
1000
0001
0100
0010
1000
0010
0100
,
0001
1000
0001
1000
0010
0100
0001
0100
0010
1000
0001
1000
0001
0010
0100
1000
,
0001
0010
0001
1000
0100
0010
0001
1000
0100
1000
0001
0010
0001
1000
0100
0010
,
0001
1000
0001
1000
0100
0010
0001
1000
0001
0100
0010
1000
0001
0100
0010
1000
,
0002
0000
0000
0003
;

//---------------dance-single - ----------------
#NOTES:
     dance-single:
     Dossar:
     Medium:
     13:
     1.000,1.000,0.298,0.110,1.000:
0000
0000
0000
0000
,
0000
0000
0000
0000
,
1001
0000
0000
0000
0000
1000
0100
0010
,
0011
0000
0000
0000
0000
0001
1000
0001
,
1001
0000
0000
0000
0000
0000
1000
0010
0100
0001
1000
0010
1000
0001
0100
0010
,
1000
0000
0001
0000
1000
0000
0001
0000
1000
0000
0001
1000
0100
0000
0010
0000
,
0011
0000
0000
0000
0000
0001
1000
0001
,
1001
0000
0000
0000
0000
1000
0100
1000
,
1100
0000
0000
0000
0000
0000
0001
0100
0010
1000
0001
0100
0001
1000
0010
0100
,
0001
1000
0001
1000
0001
1000
0001
1000
,
0001
0100
0010
1000
0010
0100
0001
1000
0010
0100
0010
1000
0001
0100
0010
1000
,
0002
0023
0230
2300
3200
0320
0032
2003
,
3001
0100
0010
1000
0010
0100
0001
1000
0010
0100
0001
1000
0001
1000
0100
0010
,
0001
1000
0001
1000
0100
0010
0001
0010
0100
1000
0001
1000
0001
0100
0010
1000
,
0010
0100
0001
1000
0010
1000
0001
0100
0010
1000
0001
0100
0001
1000
0100
1000
,
0001
0010
0001
1000
0100
0010
0001
1000
0100
1000
0001
0010
0001
1000
0010
1000
,
0001
0100
0010
1000
0001
0100
0001
1000
0010
1000
0001
0100
0010
1000
0010
0100
,
0001
1000
0001
1000
0010
0100
0001
0100
0010
1000
0001
1000
0001
0010
0100
1000
,
0001
0010
0001
1000
0100
0010
0001
1000
0100
1000
0001
0010
0001
1000
0100
0010
,
0001
1000
0001
1000
0100
0010
0001
1000
0001
0100
0010
1000
0001
0100
0010
1000
,
0001
0000
1001
0000
1001
1001
0000
1001
,
1000
0000
0100
0000
0100
0100
0000
0100
,
0110
0000
0011
0000
0011
0011
0000
0011
,
0001
0000
0000
0000
1000
0000
0000
0000
1000
0000
1000
0010
0100
0000
0001
0000
,
1000
0010
0100
0001
1000
0010
1000
0001
0100
0001
1000
0010
0100
0001
0100
0010
,
1000
0001
1000
0001
0100
0010
1000
0010
0100
0001
1000
0001
1000
0100
0010
0001
,
1000
0100
1000
0001
0010
0100
1000
0001
0010
0001
1000
0100
1000
0001
0010
0100
,
1000
0001
1000
0001
0010
0100
1000
0001
0100
0010
1000
0001
1000
0010
0100
0001
,
1000
0000
1010
0000
1010
1010
0000
1010
,
1000
0000
0001
0000
0001
0001
0000
0001
,
0011
0000
0110
0000
0110
0110
0000
0110
,
0100
0000
0000
0000
1000
0000
0000
0000
1000
0000
1000
0010
0100
0000
0001
0000
,
1000
0010
0100
0001
1000
0010
1000
0001
0100
0001
1000
0010
0100
0001
0100
0010
,
1000
0001
1000
0001
0100
0010
1000
0010
0100
0001
1000
0001
1000
0100
0010
0001
,
1000
0010
0100
0001
0100
0010
1000
0001
0100
0010
1000
0001
1000
0001
0010
0100
,
1000
0001
1000
0001
0010
0100
1000
0100
0010
0001
1000
0001
1000
0010
0100
0001
,
0100
0010
1000
0001
1000
1000
0010
1000
,
0001
0010
0100
1000
0100
0100
0010
0100
,
1000
0001
0100
0010
0100
0100
0001
0100
,
0010
0000
1000
0000
0001
0000
0010
0000
0001
0000
0001
0010
0100
0000
1000
0000
,
0001
0010
0001
1000
0100
0010
0001
1000
0100
1000
0001
0010
0001
1000
0100
0010
,
0001
1000
0001
1000
0100
0010
0001
1000
0001
0100
0010
1000
0001
0100
0010
1000
,
0001
0100
0010
1000
0010
0100
0001
1000
0010
0100
0001
1000
0001
1000
0100
0010
,
0001
1000
0001
1000
0100
0010
0001
0010
0100
1000
0001
1000
0001
0100
0010
1000
,
0010
0100
0001
1000
0001
0001
0010
0001
,
1000
0100
0010
0001
0010
0010
0100
0010
,
0001
1000
0010
0100
0010
0010
1000
0010
,
0100
0000
0001
0000
1000
0000
0100
0000
1000
0000
1000
0001
0010
0000
0100
0000
,
1000
0100
1000
0001
0010
0100
1000
0001
0010
0001
1000
0100
1000
0001
0010
0100
,
1000
0001
1000
0001
0010
0100
1000
0001
0100
0010
1000
0001
1000
0010
0100
0001
,
1000
0010
0100
0001
0100
0010
1000
0001
0100
0010
1000
0001
1000
0001
0010
0100
,
1000
0000
0001
0000
0010
0000
0001
0000
0010
0000
0100
1000
0001
0000
1000
0000
,
0010
0100
0010
0100
0010
0100
0010
0100
,
0001
1000
0010
0100
0010
1000
0001
0100
0010
0100
0001
1000
0001
1000
0100
0010
,
0001
1000
0001
1000
0100
0010
0001
0010
0100
1000
0001
1000
0001
0100
0010
1000
,
0010
0100
0001
1000
0010
1000
0001
0100
0010
1000
0001
0100
0001
1000
0100
1000
,
0001
0010
0001
1000
0100
0010
0001
1000
0100
1000
0001
0010
0001
1000
0010
1000
,
0001
0000
0000
0000
0000
1000
0100
1000
,
1100
0000
0000
0000
0000
0001
0100
0001
,
0101
0100
0010
0010
,
1000
0000
0000
0000
0001
0000
0000
0000
1000
0000
0000
0001
0100
0000
0001
0000
,
2002
0000
0000
3003
;

//---------------dance-single - ----------------
#NOTES:
     dance-single:
     Dossar:
     Easy:
     12:
     0.883,1.000,0.298,0.110,0.843:
0000
0000
0000
0000
,
0000
0000
0000
0000
,
1001
0000
0000
0000
0000
1000
0100
0010
,
0011
0000
0000
0000
0000
0001
1000
0001
,
1001
0000
0000
0000
0000
0000
1000
0010
0100
0001
1000
0010
1000
0001
0100
0010
,
1000
0000
0001
0000
1000
0000
0001
0000
1000
0000
0001
1000
0100
0000
0010
0000
,
0011
0000
0000
0000
0000
0001
1000
0001
,
1001
0000
0000
0000
0000
1000
0100
1000
,
1100
0000
0000
0000
0000
0000
0001
0100
0010
1000
0001
0100
0001
1000
0010
0100
,
0001
1000
0001
1000
0001
1000
0001
1000
,
0001
0100
0010
1000
0010
0100
0001
1000
0010
0100
0010
1000
0001
0100
0010
1000
,
0002
0023
0230
2300
3200
0320
0032
2003
,
3001
0000
0000
0000
0000
1000
0010
0100
,
0001
0000
0000
0000
0000
1000
0100
0010
,
0001
0000
0000
0000
,
1000
0010
0100
0001
0100
0010
1000
0001
,
1000
0000
0000
0000
0000
0001
0010
0100
,
1000
0000
0000
0000
0000
0001
0100
0010
,
1000
0000
0000
0000
,
0001
1000
0001
1000
0100
0010
0001
1000
0001
0100
0010
1000
0001
0100
0010
1000
,
0001
0000
1001
0000
1001
1001
0000
1001
,
1000
0000
0100
0000
0100
0100
0000
0100
,
0110
0000
0011
0000
0011
0011
0000
0011
,
0001
0000
0000
0000
1000
0000
0000
0000
1000
0000
1000
0010
0100
0000
0001
0000
,
1000
0010
0100
0001
1000
0010
1000
0001
0100
0001
1000
0010
0100
0001
0100
0010
,
1000
0001
1000
0001
0100
0010
1000
0010
0100
0001
1000
0001
1000
0100
0010
0001
,
1000
0100
1000
0001
0010
0100
1000
0001
0010
0001
1000
0100
1000
0001
0010
0100
,
1000
0001
1000
0001
0010
0100
1000
0001
0100
0010
1000
0001
1000
0010
0100
0001
,
1000
0000
1010
0000
1010
1010
0000
1010
,
1000
0000
0001
0000
0001
0001
0000
0001
,
0011
0000
0110
0000
0110
0110
0000
0110
,
0100
0000
0000
0000
1000
0000
0000
0000
1000
0000
1000
0010
0100
0000
0001
0000
,
1000
0010
0100
0001
1000
0010
1000
0001
0100
0001
1000
0010
0100
0001
0100
0010
,
1000
0001
1000
0001
0100
0010
1000
0010
0100
0001
1000
0001
1000
0100
0010
0001
,
1000
0010
0100
0001
0100
0010
1000
0001
0100
0010
1000
0001
1000
0001
0010
0100
,
1000
0001
1000
0001
0010
0100
1000
0100
0010
0001
1000
0001
1000
0010
0100
0001
,
0100
0010
1000
0001
1000
1000
0010
1000
,
0001
0010
0100
1000
0100
0100
0010
0100
,
1000
0001
0100
0010
0100
0100
0001
0100
,
0010
0000
1000
0000
0001
0000
0010
0000
0001
0000
0001
0010
0100
0000
1000
0000
,
0001
0010
0001
1000
0100
0010
0001
1000
0100
1000
0001
0010
0001
1000
0100
0010
,
0001
1000
0001
1000
0100
0010
0001
1000
0001
0100
0010
1000
0001
0100
0010
1000
,
0001
0100
0010
1000
0010
0100
0001
1000
0010
0100
0001
1000
0001
1000
0100
0010
,
0001
1000
0001
1000
0100
0010
0001
0010
0100
1000
0001
1000
0001
0100
0010
1000
,
0010
0100
0001
1000
0001
0001
0010
0001
,
1000
0100
0010
0001
0010
0010
0100
0010
,
0001
1000
0010
0100
0010
0010
1000
0010
,
0100
0000
0001
0000
1000
0000
0100
0000
1000
0000
1000
0001
0010
0000
0100
0000
,
1000
0100
1000
0001
0010
0100
1000
0001
0010
0001
1000
0100
1000
0001
0010
0100
,
1000
0001
1000
0001
0010
0100
1000
0001
0100
0010
1000
0001
1000
0010
0100
0001
,
1000
0010
0100
0001
0100
0010
1000
0001
0100
0010
1000
0001
1000
0001
0010
0100
,
1000
0000
0001
0000
0010
0000
0001
0000
0010
0000
0100
1000
0001
0000
1000
0000
,
0010
0100
0010
0100
0010
0100
0010
0100
,
0001
0000
0000
0000
0000
1000
0010
0100
,
0001
0000
0000
0000
0000
1000
0100
0010
,
0001
0000
0000
0000
,
1000
0001
1000
0001
1000
0001
1000
0001
,
1000
0000
0000
0000
0000
1000
0100
1000
,
1100
0000
0000
0000
0000
0001
0100
0001
,
0101
0100
0010
0010
,
1000
0000
0000
0000
0001
0000
0000
0000
1000
0000
0000
0001
0100
0000
0001
0000
,
2002
0000
0000
3003
;

//---------------dance-double - ----------------
#NOTES:
     dance-double:
     Dossar:
     Challenge:
     13:
     1.000,1.000,0.264,0.099,1.000: // measure 1
00000000
00000000
00000000
00000000
,  // measure 2
00000000
00000000
00000000
00000000
,  // measure 3
10010000
00000000
00000000
00000000
00000000
10000000
00010000
01000000
,  // measure 4
01001000
00000000
00000000
00000000
00000000
00001000
00010000
00000100
,  // measure 5
00000110
00000000
00000000
00000000
00000000
00000000
00001000
00000100
00000010
00000001
00001000
00000100
00001000
00000100
00010000
00001000
,  // measure 6
00100000
00000000
01000000
00000000
00100000
00000000
01000000
00000000
00100000
00000000
00010000
10000000
01000000
00000000
00100000
00000000
,  // measure 7
00101000
00000000
00000000
00000000
00000000
00001000
00010000
00000010
,  // measure 8
00010010
00000000
00000000
00000000
00000000
00000010
00001000
00000010
,  // measure 9
00000110
00000000
00000000
00000000
00000000
00000000
00001000
00000010
00000100
00000001
00001000
00000010
00001000
00000001
00000100
00000010
,  // measure 10
00001000
00000001
00001000
00000001
00001000
00000001
00001000
00000001
,  // measure 11
00001000
00000010
00000100
00000001
00000100
00000010
00001000
00000001
00000100
00000010
00000100
00000001
00001000
00000010
00000100
00000001
,  // measure 12
00002000
00003200
00020300
00032000
00203000
00320000
00230000
02300000
,  // measure 13
13000000
00010000
01000000
00100000
10000000
00010000
01000000
00100000
10000000
00100000
01000000
00010000
00100000
00001000
00010000
00001000
,  // measure 14
00010000
00000100
00001000
00000100
00000010
00000001
00001000
00000100
00001000
00000001
00000010
00000100
00001000
00000100
00010000
00001000
,  // measure 15
01000000
00001000
01000000
00010000
01000000
00100000
10000000
00010000
01000000
00100000
10000000
00010000
01000000
00001000
00010000
00001000
,  // measure 16
00010000
00000100
00001000
00000100
00000010
00000001
00001000
00000100
00000010
00000001
00000010
00000100
00001000
00000100
00010000
00001000
,  // measure 17
01000000
00010000
01000000
00100000
10000000
00010000
01000000
00100000
10000000
00010000
01000000
00001000
00010000
00001000
01000000
00001000
,  // measure 18
00010000
00000100
00000010
00000001
00001000
00000100
00001000
00000001
00000010
00000100
00001000
00000100
00010000
00001000
00010000
00001000
,  // measure 19
01000000
00010000
10000000
00100000
01000000
00010000
10000000
00100000
01000000
00010000
01000000
00001000
00010000
00001000
01000000
00001000
,  // measure 20
00010000
00000100
00001000
00000100
00000010
00000001
00001000
00000100
00000010
00000001
00000010
00000100
00001000
00000100
00010000
00001000
,  // measure 21
00010000
00000000
00011000
00000000
00011000
00011000
00000000
00011000
,  // measure 22
00001000
00000000
01000000
00000000
01000000
01000000
00000000
01000000
,  // measure 23
01100000
00000000
10100000
00000000
10100000
10100000
00000000
10100000
,  // measure 24
10000000
00000000
00000000
00000000
10000000
00000000
00000000
00000000
10000000
00000000
10000000
01000000
00100000
00000000
00001000
00000000
,  // measure 25
00010000
00001000
00010000
00000100
00000010
00000001
00001000
00000100
00000010
00000001
00000010
00000100
00001000
00000100
00010000
00001000
,  // measure 26
01000000
00010000
01000000
00100000
10000000
00010000
01000000
00100000
10000000
00100000
01000000
00010000
01000000
00001000
00010000
00001000
,  // measure 27
00010000
00000100
00001000
00000100
00000010
00000001
00001000
00000100
00000010
00000100
00001000
00000001
00000010
00000100
00001000
00000100
,  // measure 28
00010000
00001000
01000000
00001000
01000000
00010000
01000000
00100000
10000000
00010000
01000000
00100000
10000000
00010000
01000000
00100000
,  // measure 29
10000000
00000000
10010000
00000000
10010000
10010000
00000000
10010000
,  // measure 30
00010000
00000000
00100000
00000000
00100000
00100000
00000000
00100000
,  // measure 31
00101000
00000000
00011000
00000000
00011000
00011000
00000000
00011000
,  // measure 32
00010000
00000000
00000000
00000000
00010000
00000000
00000000
00000000
00010000
00000000
00010000
00000100
00001000
00000000
00000001
00000000
,  // measure 33
00001000
00000010
00000100
00000001
00001000
00000010
00000100
00000001
00001000
00000010
00000100
00000010
00001000
00000010
00010000
00001000
,  // measure 34
00100000
00010000
00100000
01000000
10000000
00010000
00100000
01000000
10000000
01000000
00100000
00010000
00100000
00001000
00010000
00000010
,  // measure 35
00010000
00000010
00001000
00000010
00000100
00000001
00001000
00000010
00000100
00000001
00001000
00000010
00001000
00000001
00001000
00000010
,  // measure 36
00010000
00001000
00010000
00001000
00100000
01000000
10000000
00010000
00100000
00010000
10000000
01000000
00100000
00010000
10000000
00010000
,  // measure 37
01000000
00100000
10000000
00010000
10000000
10000000
00100000
10000000
,  // measure 38
00010000
01000000
00001000
00010000
00001000
00001000
00100000
00001000
,  // measure 39
00010000
00000100
00000010
00000001
00000010
00000010
00000100
00000010
,  // measure 40
00000001
00000000
00001000
00000000
00000010
00000000
00000100
00000000
00000010
00000000
00000010
00000100
00000001
00000000
00001000
00000000
,  // measure 41
00000001
00000100
00000010
00001000
00000001
00001000
00000010
00000100
00000001
00001000
00000010
00001000
00000100
00010000
00001000
00010000
,  // measure 42
00001000
00100000
00010000
00100000
01000000
10000000
00010000
00100000
00010000
10000000
01000000
00100000
00010000
00100000
00001000
00010000
,  // measure 43
00000010
00010000
00000010
00001000
00000010
00000100
00000001
00001000
00000010
00000100
00000001
00001000
00000010
00010000
00001000
00010000
,  // measure 44
00001000
00100000
00010000
00100000
01000000
10000000
00010000
00100000
01000000
10000000
01000000
00100000
00010000
00100000
00001000
00010000
,  // measure 45
00000100
00000010
00000001
00001000
00000001
00000001
00000100
00000001
,  // measure 46
00001000
00000010
00000100
00000010
00000100
00000100
00000010
00000100
,  // measure 47
00000001
00010000
00001000
00100000
00001000
00001000
00010000
00001000
,  // measure 48
00100000
00000000
01000000
00000000
10000000
00000000
00010000
00000000
10000000
00000000
10000000
01000000
00100000
00000000
00010000
00000000
,  // measure 49
10000000
00100000
01000000
00010000
10000000
00100000
01000000
00010000
10000000
00100000
01000000
00010000
00100000
00001000
00010000
00001000
,  // measure 50
00010000
00000100
00001000
00000100
00000010
00000001
00001000
00000100
00001000
00000001
00000010
00000100
00001000
00000100
00010000
00001000
,  // measure 51
01000000
00010000
01000000
00100000
10000000
00010000
01000000
00100000
10000000
00010000
01000000
00001000
01000000
00010000
01000000
00001000
,  // measure 52
00010000
00000000
00000100
00000000
00000010
00000000
00000001
00000000
00001000
00000000
00000010
00000100
00000010
00000000
00010000
00000000
,  // measure 53
00001000
00100000
00001000
00100000
00001000
00100000
00001000
00100000
,  // measure 54
00001000
00010000
00001000
00100000
01000000
10000000
00010000
00100000
01000000
10000000
01000000
00100000
00010000
00100000
00001000
00010000
,  // measure 55
00000010
00001000
00000010
00000100
00000001
00001000
00000010
00000100
00000001
00000100
00000010
00001000
00000010
00010000
00001000
00010000
,  // measure 56
00001000
00100000
00010000
00100000
01000000
10000000
00010000
00100000
01000000
00100000
00010000
10000000
01000000
00100000
00010000
00100000
,  // measure 57
00001000
00010000
00000010
00001000
00000010
00000100
00000010
00001000
00000001
00000100
00000001
00001000
00000010
00001000
00000100
00010000
,  // measure 58
00001000
00100000
00010000
00100000
01000000
10000000
00010000
00100000
00010000
10000000
01000000
00100000
00010000
00100000
00001000
00010000
,  // measure 59
00000010
00010000
00000010
00001000
00000010
00000100
00000001
00001000
00000010
00000100
00000001
00001000
00000010
00010000
00001000
00010000
,  // measure 60
00001000
00100000
00010000
00100000
01000000
10000000
00010000
00100000
01000000
10000000
01000000
00100000
00010000
00100000
00001000
00010000
,  // measure 61
00000010
00001000
00000010
00000100
00000001
00001000
00000010
00000100
00000001
00001000
00000010
00010000
00001000
00010000
00000010
00010000
,  // measure 62
00002000
00000000
00000000
00003000
;
