#TITLE:SENORITA;
#SUBTITLE:Speedy Mix;
#ARTIST:JENNY ROM;
#TITLETRANSLIT:;
#SUBTITLETRANSLIT:;
#ARTISTTRANSLIT:;
#CREDIT:;
#BANNER:../ddrstream fallback-bn.png;
#BACKGROUND:../ddrstream fallback-bg.png;
#LYRICSPATH:;
#CDTITLE:;
#MUSIC:SENORITA(Speedy Mix).ogg;
#OFFSET:0.000;
#SAMPLESTART:50.310;
#SAMPLELENGTH:15.140;
#SELECTABLE:YES;
#DISPLAYBPM:174.000;
#BPMS:0.000=174.000;
#STOPS:;
#BGCHANGES:;

//---------------dance-single - ----------------
#NOTES:
     dance-single:
     Dossar:
     Challenge:
     14:
     1.000,1.000,0.000,0.092,1.000:
0000
0000
0000
0000
,
0000
0000
0000
0000
,
0000
0000
0000
0000
,
0000
0000
0000
0000
,
0000
0000
0000
0000
,
0001
0100
0010
1000
0001
0100
0010
1000
0001
0010
0001
1000
0010
0100
0001
1000
,
0001
0010
0100
1000
0001
0010
0100
1000
0001
1000
0100
1000
0001
0010
0100
1000
,
0001
0100
0010
1000
0001
0100
0010
1000
0001
0010
0001
1000
0010
0100
0001
1000
,
0010
0100
0001
1000
0100
1000
0001
0100
0010
1000
0001
0100
0010
0100
0001
1000
,
0001
0010
0100
1000
0001
0010
0100
1000
0001
1000
0100
1000
0001
0100
0010
0100
,
0001
1000
0100
1000
0001
1000
0010
0100
0001
1000
0010
0100
0010
1000
0001
1000
,
0100
1000
0001
0010
0100
0010
0001
1000
0100
0010
0100
1000
0001
1000
0010
1000
,
0001
0100
0010
1000
0001
0100
0010
0100
0001
1000
0100
1000
0001
0010
0100
0010
,
0001
1000
0010
0100
0001
1000
0010
0100
0001
1000
0100
1000
0001
0100
0010
1000
,
0001
1000
0100
0010
0001
1000
0100
0010
0001
1000
0001
0010
0001
1000
0100
0010
,
0001
1000
0010
0100
0001
1000
0010
0100
0001
1000
0100
1000
0001
0100
0010
1000
,
0001
1000
0100
0010
0001
1000
0100
0010
0001
1000
0001
0010
0001
1000
0010
0100
,
0010
1000
0001
0010
0001
1000
0010
0100
0001
1000
0001
0100
0010
0100
0001
1000
,
0001
0010
0001
1000
0100
0010
0100
1000
0001
0010
0100
0010
0001
1000
0001
0100
,
0001
1000
0010
0100
0001
1000
0010
0100
0001
1000
0001
0010
0001
1000
0100
0010
,
0001
1000
0010
1000
0001
0100
0010
1000
0001
0010
0001
1000
0010
0100
0001
1000
,
0001
0010
0100
1000
0001
0010
0100
1000
0001
1000
0100
1000
0001
0010
0100
1000
,
0001
0100
0010
1000
0001
0100
0010
1000
0001
0010
0001
1000
0010
0100
0001
1000
,
0010
0100
0001
1000
0100
1000
0001
0100
0010
1000
0001
0100
0010
0100
0001
1000
,
0001
0010
0100
1000
0001
0010
0100
1000
0001
1000
0100
1000
0001
0100
0010
0100
,
0001
1000
0100
1000
0001
1000
0010
0100
0001
1000
0010
0100
0010
1000
0001
1000
,
0100
1000
0001
0010
0100
0010
0001
1000
0100
0010
0100
1000
0001
1000
0010
1000
,
0001
0100
0010
1000
0001
0100
0010
0100
0001
1000
0100
1000
0001
0010
0100
0010
,
0001
1000
0010
0100
0001
1000
0010
0100
0001
1000
0100
1000
0001
0100
0010
1000
,
0001
1000
0100
0010
0001
1000
0100
0010
0001
1000
0001
0010
0001
1000
0100
0010
,
0001
1000
0010
0100
0001
1000
0010
0100
0001
1000
0100
1000
0001
0100
0010
1000
,
0001
0010
0100
1000
0001
0010
0100
1000
0001
1000
0100
1000
0001
0010
0100
1000
,
0001
0100
0010
1000
0001
0100
0010
1000
0001
0010
0001
1000
0010
0100
0001
1000
,
0010
0100
0001
1000
0100
1000
0001
0100
0010
1000
0001
0100
0010
0100
0001
1000
,
0001
0010
0100
1000
0001
0010
0100
1000
0001
1000
0100
1000
0001
0100
0010
0100
,
0001
1000
0100
1000
0001
1000
0010
0100
0001
1000
0010
0100
0010
1000
0001
1000
,
0100
1000
0001
0010
0100
0010
0001
1000
0100
0010
0100
1000
0001
1000
0010
1000
,
0001
0100
0010
1000
0001
0100
0010
0100
0001
1000
0100
1000
0001
0010
0100
0010
,
0001
1000
0010
0100
0001
1000
0010
0100
0001
1000
0100
1000
0001
0100
0010
1000
,
0001
1000
0100
0010
0001
1000
0100
0010
0001
1000
0001
0010
0001
1000
0100
0010
,
0001
1000
0010
0100
0001
1000
0010
0100
0001
1000
0100
1000
0001
0100
0010
1000
,
0001
1000
0100
0010
0001
1000
0100
0010
0001
1000
0001
0010
0001
1000
0010
0100
,
0010
1000
0001
0010
0001
1000
0010
0100
0001
1000
0001
0100
0010
0100
0001
1000
,
0001
0010
0001
1000
0100
0010
0100
1000
0001
0010
0100
0010
0001
1000
0001
0100
,
0001
1000
0010
0100
0001
1000
0010
0100
0001
1000
0001
0010
0001
1000
0100
0010
,
0001
1000
0010
1000
0001
0100
0010
1000
0001
0010
0001
1000
0010
0100
0001
1000
,
0001
0010
0100
1000
0001
0010
0100
1000
0001
1000
0100
1000
0001
0010
0100
1000
,
0001
0100
0010
1000
0001
0100
0010
1000
0001
0010
0001
1000
0010
0100
0001
1000
,
0010
0100
0001
1000
0100
1000
0001
0100
0010
1000
0001
0100
0010
0100
0001
1000
,
0001
0010
0100
1000
0001
0010
0100
1000
0001
1000
0100
1000
0001
0100
0010
0100
,
0001
1000
0100
1000
0001
1000
0010
0100
0001
1000
0010
0100
0010
1000
0001
1000
,
0100
1000
0001
0010
0100
0010
0001
1000
0100
0010
0100
1000
0100
0010
0002
0000
,
0003
2000
3020
0230
0302
0203
0320
2030
,
3001
0100
0010
1000
0001
0100
0010
1000
0001
0010
0001
1000
0010
0100
0001
1000
,
0001
0010
0100
1000
0001
0010
0100
1000
0001
1000
0100
1000
0001
0010
0100
1000
,
0001
0100
0010
1000
0001
0100
0010
1000
0001
0010
0001
1000
0010
0100
0001
1000
,
0010
0100
0001
1000
0100
1000
0001
0100
0010
1000
0001
0100
0010
0100
0001
1000
,
0001
0010
0100
1000
0001
0010
0100
1000
0001
1000
0100
1000
0001
0100
0010
0100
,
0001
1000
0100
1000
0001
1000
0010
0100
0001
1000
0010
0100
0010
1000
0001
1000
,
0100
1000
0001
0010
0100
0010
0001
1000
0100
0010
0100
1000
0001
1000
0010
1000
,
0001
0100
0010
1000
0001
0100
0010
0100
0001
1000
0010
0100
0001
1000
0010
1000
,
0001
0000
0000
0000
;

//---------------dance-single - ----------------
#NOTES:
     dance-single:
     Dossar:
     Hard:
     13:
     1.000,1.000,0.000,0.483,1.000:
0000
0000
0000
0000
,
0000
0000
0000
0000
,
0000
0000
0000
0000
,
0000
0000
0000
0000
,
0000
0000
0000
0000
,
0001
0100
0010
1000
0001
0100
0010
1000
0001
0010
0001
1000
0010
0100
0001
1000
,
0001
0010
0100
1000
0001
0010
0100
1000
0001
1000
0100
1000
0001
0010
0100
1000
,
0001
0100
0010
1000
0001
0100
0010
1000
0001
0010
0001
1000
0010
0100
0001
1000
,
0010
0100
0001
1000
0100
1000
0001
0100
0010
1000
0001
0100
0010
0100
0001
1000
,
0001
0010
0100
1000
0001
0010
0100
1000
0001
1000
0100
1000
0001
0100
0010
0100
,
0001
1000
0100
1000
0001
1000
0010
0100
0001
1000
0010
0100
0010
1000
0001
1000
,
0100
1000
0001
0010
0100
0010
0001
1000
0100
0010
0100
1000
0001
1000
0010
1000
,
0001
0100
0010
1000
0001
0100
0010
0100
0001
1000
0100
1000
0001
0010
0100
0010
,
0001
1000
0010
0100
0001
1000
0010
0100
0001
1000
0100
1000
0001
0100
0010
1000
,
0001
1000
0100
0010
0001
1000
0100
0010
0001
1000
0001
0010
0001
1000
0100
0010
,
0001
1000
0010
0100
0001
1000
0010
0100
0001
1000
0100
1000
0001
0100
0010
1000
,
0001
1000
0100
0010
0001
1000
0100
0010
0001
1000
0001
0010
0001
1000
0010
0100
,
0010
1000
0001
0010
0001
1000
0010
0100
0001
1000
0001
0100
0010
0100
0001
1000
,
0001
0010
0001
1000
0100
0010
0100
1000
0001
0010
0100
0010
0001
1000
0001
0100
,
0001
1000
0010
0100
0001
1000
0010
0100
0001
1000
0001
0010
0001
1000
0100
0010
,
0001
1000
0010
1000
0001
0100
0010
1000
0001
0010
0001
1000
0010
0100
0001
1000
,
0001
0010
0100
1000
0001
0010
0100
1000
0001
1000
0100
1000
0001
0010
0100
1000
,
0001
0100
0010
1000
0001
0100
0010
1000
0001
0010
0001
1000
0010
0100
0001
1000
,
0010
0100
0001
1000
0100
1000
0001
0100
0010
1000
0001
0100
0010
0100
0001
1000
,
0001
0010
0100
1000
0001
0010
0100
1000
0001
1000
0100
1000
0001
0100
0010
0100
,
0001
1000
0100
1000
0001
1000
0010
0100
0001
1000
0010
0100
0010
1000
0001
1000
,
0100
1000
0001
0010
0100
0010
0001
1000
0100
0010
0100
1000
0001
1000
0010
1000
,
0001
0100
0010
1000
0001
0100
0010
0100
0001
1000
0100
1000
0001
0010
0100
0010
,
0001
1000
0010
0100
0001
1000
0010
0100
0001
1000
0100
1000
0001
0100
0010
1000
,
0002
0203
0320
0230
0302
0000
2003
3000
,
0200
0320
0000
0032
0000
0003
0000
2000
,
3020
0230
0300
0002
0000
0003
0000
2000
,
3002
0023
0030
0200
0000
0300
0000
2000
,
3002
0000
0203
0320
0230
0000
0302
0203
,
0320
2030
0000
3002
0000
0003
0000
0000
,
2000
0000
0000
3200
0000
0000
0320
0000
0032
0000
0000
2003
0000
0000
3200
0000
,
0320
0000
0000
0000
0000
0000
0030
0000
0100
0010
0100
1000
0001
1000
0010
1000
,
0001
0100
0010
1000
0001
0100
0010
0100
0001
1000
0100
1000
0001
0010
0100
0010
,
0001
1000
0010
0100
0001
1000
0010
0100
0001
1000
0100
1000
0001
0100
0010
1000
,
0001
1000
0100
0010
0001
1000
0100
0010
0001
1000
0001
0010
0001
1000
0100
0010
,
0001
1000
0010
0100
0001
1000
0010
0100
0001
1000
0100
1000
0001
0100
0010
1000
,
0001
1000
0100
0010
0001
1000
0100
0010
0001
1000
0001
0010
0001
1000
0010
0100
,
0010
1000
0001
0010
0001
1000
0010
0100
0001
1000
0001
0100
0010
0100
0001
1000
,
0001
0010
0001
1000
0100
0010
0100
1000
0001
0010
0100
0010
0001
1000
0001
0100
,
0001
1000
0010
0100
0001
1000
0010
0100
0001
1000
0001
0010
0001
1000
0100
0010
,
0001
1000
0010
1000
0001
0100
0010
1000
0001
0010
0001
1000
0010
0100
0001
1000
,
0001
0010
0100
1000
0001
0010
0100
1000
0001
1000
0100
1000
0001
0010
0100
1000
,
0001
0100
0010
1000
0001
0100
0010
1000
0001
0010
0001
1000
0010
0100
0001
1000
,
0010
0100
0001
1000
0100
1000
0001
0100
0010
1000
0001
0100
0010
0100
0001
1000
,
0001
0010
0100
1000
0001
0010
0100
1000
0001
1000
0100
1000
0001
0100
0010
0100
,
0001
1000
0100
1000
0001
1000
0010
0100
0001
1000
0010
0100
0010
1000
0001
1000
,
0100
1000
0001
0010
0100
0010
0001
1000
0100
0010
0100
1000
0100
0010
0002
0000
,
0003
2000
3020
0230
0302
0203
0320
2030
,
3001
0100
0010
1000
0001
0100
0010
1000
0001
0010
0001
1000
0010
0100
0001
1000
,
0001
0010
0100
1000
0001
0010
0100
1000
0001
1000
0100
1000
0001
0010
0100
1000
,
0001
0100
0010
1000
0001
0100
0010
1000
0001
0010
0001
1000
0010
0100
0001
1000
,
0010
0100
0001
1000
0100
1000
0001
0100
0010
1000
0001
0100
0010
0100
0001
1000
,
0001
0010
0100
1000
0001
0010
0100
1000
0001
1000
0100
1000
0001
0100
0010
0100
,
0001
1000
0100
1000
0001
1000
0010
0100
0001
1000
0010
0100
0010
1000
0001
1000
,
0100
1000
0001
0010
0100
0010
0001
1000
0100
0010
0100
1000
0001
1000
0010
1000
,
0001
0100
0010
1000
0001
0100
0010
0100
0001
1000
0010
0100
0001
1000
0010
1000
,
0001
0000
0000
0000
;

//---------------dance-single - ----------------
#NOTES:
     dance-single:
     Dossar:
     Medium:
     13:
     1.000,1.000,0.000,0.967,1.000:
0000
0000
0000
0000
,
0000
0000
0000
0000
,
0000
0000
0000
0000
,
0000
0000
0000
0000
,
0000
0000
0000
0000
,
0001
0100
0010
1000
0001
0100
0010
1000
0001
0010
0001
1000
0010
0100
0001
1000
,
0001
0010
0100
1000
0001
0010
0100
1000
0001
1000
0100
1000
0001
0010
0100
1000
,
0001
0100
0010
1000
0001
0100
0010
1000
0001
0010
0001
1000
0010
0100
0001
1000
,
0010
0100
0001
1000
0100
1000
0001
0100
0010
1000
0001
0100
0010
0100
0001
1000
,
0001
0010
0100
1000
0001
0010
0100
1000
0001
1000
0100
1000
0001
0100
0010
0100
,
0001
1000
0100
1000
0001
1000
0010
0100
0001
1000
0010
0100
0010
1000
0001
1000
,
0100
1000
0001
0010
0100
0010
0001
1000
0100
0010
0100
1000
0001
1000
0010
1000
,
0001
0100
0010
1000
0001
0100
0010
0100
0001
1000
0100
1000
0001
0010
0100
0010
,
0002
0000
0003
2000
0000
3000
0000
0002
,
0003
0200
0320
2030
3002
0203
0320
2030
,
3002
0000
0003
2000
0000
3000
0000
0002
,
0000
2003
3200
0320
0032
2003
3200
0320
,
0032
0000
0003
2000
0000
3000
0000
0002
,
0000
2003
3020
2030
3020
2030
3002
0023
,
0032
0023
0230
2300
3200
2300
3002
0203
,
0302
0000
0203
0000
0320
0000
2030
0000
3010
0100
0010
1000
0001
0000
1000
0000
,
0001
0010
0100
1000
0001
0010
0100
1000
0001
1000
0100
1000
0001
0010
0100
1000
,
0001
0100
0010
1000
0001
0100
0010
1000
0001
0010
0001
1000
0010
0100
0001
1000
,
0010
0100
0001
1000
0100
1000
0001
0100
0010
1000
0001
0100
0010
0100
0001
1000
,
0001
0010
0100
1000
0001
0010
0100
1000
0001
1000
0100
1000
0001
0100
0010
0100
,
0001
1000
0100
1000
0001
1000
0010
0100
0001
1000
0010
0100
0010
1000
0001
1000
,
0100
1000
0001
0010
0100
0010
0001
1000
0100
0010
0100
1000
0001
1000
0010
1000
,
0001
0100
0010
1000
0001
0100
0010
0100
0001
1000
0100
1000
0001
0010
0100
0010
,
0001
1000
0010
0100
0001
1000
0010
0100
0001
1000
0100
1000
0001
0100
0010
1000
,
0002
0203
0320
0230
0302
0000
2003
3000
,
0200
0320
0000
0032
0000
0003
0000
2000
,
3020
0230
0300
0002
0000
0003
0000
2000
,
3002
0023
0030
0200
0000
0300
0000
2000
,
3002
0000
0203
0320
0230
0000
0302
0203
,
0320
2030
0000
3002
0000
0003
0000
0000
,
2000
0000
0000
3200
0000
0000
0320
0000
0032
0000
0000
2003
0000
0000
3200
0000
,
0320
0000
0000
0000
0000
0000
0030
0000
0100
0010
0100
1000
0001
1000
0010
1000
,
0001
0100
0010
1000
0001
0100
0010
0100
0001
1000
0100
1000
0001
0010
0100
0010
,
0001
1000
0010
0100
0001
1000
0010
0100
0001
1000
0100
1000
0001
0100
0010
1000
,
0001
1000
0100
0010
0001
1000
0100
0010
0001
1000
0001
0010
0001
1000
0100
0010
,
0001
1000
0010
0100
0001
1000
0010
0100
0001
1000
0100
1000
0001
0100
0010
1000
,
0001
1000
0100
0010
0001
1000
0100
0010
0001
1000
0001
0010
0001
1000
0010
0100
,
0010
1000
0001
0010
0001
1000
0010
0100
0001
1000
0001
0100
0010
0100
0001
1000
,
0001
0010
0001
1000
0100
0010
0100
1000
0001
0010
0100
0010
0001
1000
0001
0100
,
0001
1000
0010
0100
0001
1000
0010
0100
0001
1000
0001
0010
0001
1000
0100
0010
,
0001
0000
1000
0000
0010
0100
0001
1000
,
0010
0000
1000
0000
0010
0100
0001
1000
,
0100
0000
0010
0000
0001
1000
0100
0010
,
0001
0010
0100
1000
0001
0010
0100
1000
,
0001
0000
1000
0000
0001
0100
0010
1000
,
0001
0000
1000
0000
0001
0100
0010
1000
,
0001
0000
1000
0000
0001
0010
0100
2000
,
3000
0002
0203
0320
2030
3020
0230
0302
,
1003
0010
0100
0001
1000
0010
0100
0001
1000
0100
1000
0001
0100
0010
1000
0001
,
1000
0100
0010
0001
1000
0100
0010
0001
1000
0001
0010
0001
1000
0100
0010
0001
,
1000
0010
0100
0001
1000
0010
0100
0001
1000
0100
1000
0001
0100
0010
1000
0001
,
0100
0010
1000
0001
0010
0001
1000
0010
0100
0001
1000
0010
0100
0010
1000
0001
,
1000
0100
0010
0001
1000
0100
0010
0001
1000
0001
0010
0001
1000
0010
0100
0010
,
1000
0001
0010
0001
1000
0001
0100
0010
1000
0001
0100
0010
0100
0001
1000
0001
,
0010
0001
1000
0100
0010
0100
1000
0001
0010
0100
0010
0001
1000
0001
0100
0001
,
1000
0010
0100
0001
1000
0010
0100
0010
1000
0001
0100
0010
1000
0001
0100
0001
,
1000
0000
0000
0000
;

//---------------dance-single - ----------------
#NOTES:
     dance-single:
     Dossar:
     Easy:
     12:
     1.000,1.000,0.000,1.000,1.000:
0000
0000
0000
0000
,
0000
0000
0000
0000
,
0000
0000
0000
0000
,
0000
0000
0000
0000
,
0000
0000
0000
0000
,
0001
0000
0010
0000
0100
1000
0100
0010
0001
0000
1000
0000
0001
1000
0001
0100
,
0010
0000
1000
0000
0001
0000
0100
0001
1000
0000
0010
0000
0100
0000
0001
1000
,
0100
0000
0010
0000
0001
1000
0001
0010
0100
0000
1000
0000
0001
0100
0001
1000
,
0010
0000
1000
0000
0001
0000
0010
0001
1000
0000
0100
0000
0010
0000
0100
1000
,
0001
1000
0010
0100
0001
1000
0010
1000
0001
0010
0001
1000
0010
0100
0001
1000
,
0001
0010
0100
1000
0001
0010
0100
1000
0001
0010
0100
1000
0001
0010
0100
1000
,
0001
0100
0010
1000
0001
0100
0010
1000
0001
0010
0001
1000
0010
0100
0001
1000
,
0010
0100
0001
1000
0100
1000
0001
0100
0010
1000
0001
0100
0010
0100
0001
1000
,
0002
0000
0003
2000
0000
3000
0000
0002
,
0003
0200
0320
2030
3002
0203
0320
2030
,
3002
0000
0003
2000
0000
3000
0000
0002
,
0000
2003
3200
0320
0032
2003
3200
0320
,
0032
0000
0003
2000
0000
3000
0000
0002
,
0000
2003
3020
2030
3020
2030
3002
0023
,
0032
0023
0230
2300
3200
2300
3002
0203
,
0302
0000
0203
0000
0320
0000
2030
0000
3010
0100
0010
1000
0001
0000
1000
0000
,
0001
0010
0100
1000
0001
0010
0100
1000
0001
1000
0100
1000
0001
0010
0100
1000
,
0001
0100
0010
1000
0001
0100
0010
1000
0001
0010
0001
1000
0010
0100
0001
1000
,
0010
0100
0001
1000
0100
1000
0001
0100
0010
1000
0001
0100
0010
0100
0001
1000
,
0001
0010
0100
1000
0001
0010
0100
1000
0001
0010
0001
1000
0100
0010
0001
1000
,
0020
0000
0030
0200
0000
0300
0000
0002
,
0003
2000
3200
0320
0032
0023
0230
2300
,
3002
0203
0320
2030
3002
0203
0320
2030
,
3001
0100
0010
1000
0001
0000
1000
0010
0100
0001
0100
0010
1000
0000
0010
1000
,
0002
0203
0320
0230
0302
0000
2003
3000
,
0200
0320
0000
0032
0000
0003
0000
2000
,
3020
0230
0300
0002
0000
0003
0000
2000
,
3002
0023
0030
0200
0000
0300
0000
2000
,
3002
0000
0203
0320
0230
0000
0302
0203
,
0320
2030
0000
3002
0000
0003
0000
0000
,
2000
0000
0000
3200
0000
0000
0320
0000
0032
0000
0000
2003
0000
0000
3200
0000
,
0320
0000
0000
0000
0000
0000
0030
0000
0001
1000
0010
0100
0001
1000
0010
1000
,
0001
0100
0010
1000
0001
0100
0010
0100
0001
1000
0100
1000
0001
0010
0100
0010
,
0001
1000
0010
0100
0001
1000
0010
0100
0001
1000
0100
1000
0001
0100
0010
1000
,
0001
1000
0100
0010
0001
1000
0100
0010
0001
1000
0001
0010
0001
1000
0100
0010
,
0001
1000
0010
0100
0001
1000
0010
0100
0001
1000
0100
1000
0001
0100
0010
1000
,
0001
1000
0100
0010
0001
1000
0100
0010
0001
1000
0001
0010
0001
1000
0010
0100
,
0010
1000
0001
0010
0001
1000
0010
0100
0001
1000
0001
0100
0010
0100
0001
1000
,
0001
0010
0001
1000
0100
0010
0100
1000
0001
0010
0100
0010
0001
1000
0001
0100
,
0001
1000
0010
0100
0001
1000
0010
0100
0001
1000
0001
0010
0001
1000
0100
0010
,
0001
0000
1000
0000
0010
0100
0001
1000
,
0010
0000
1000
0000
0010
0100
0001
1000
,
0100
0000
0010
0000
0001
1000
0100
0010
,
0001
0010
0100
1000
0001
0010
0100
1000
,
0001
0000
1000
0000
0001
0100
0010
1000
,
0001
0000
1000
0000
0001
0100
0010
1000
,
0001
0000
1000
0000
0001
0010
0100
2000
,
3000
0002
0203
0320
2030
3020
0230
0302
,
1003
0000
0100
0000
0010
0001
0010
0100
1000
0000
0001
0000
1000
0001
1000
0010
,
0100
0000
0001
0000
1000
0000
0010
1000
0001
0000
0100
0000
0010
0000
1000
0001
,
0010
0000
0100
0000
1000
0001
1000
0100
0010
0000
0001
0000
1000
0010
1000
0001
,
0100
0000
0010
0000
1000
0000
0001
1000
0010
0000
0100
0000
0001
0000
1000
0001
,
1000
0100
0010
0001
1000
0100
0010
0001
1000
0100
0010
0001
1000
0010
0100
0010
,
1000
0001
0010
0001
1000
0010
0100
0001
1000
0010
0100
0001
0100
0010
1000
0001
,
0010
0001
1000
0100
0010
0100
1000
0001
0010
0100
0010
0001
1000
0010
0100
0001
,
1000
0010
0100
0001
1000
0010
0100
0010
1000
0001
0100
0010
1000
0001
0100
0001
,
1000
0000
0000
0000
;

//---------------dance-double - ----------------
#NOTES:
     dance-double:
     Dossar:
     Challenge:
     13:
     1.000,1.000,0.000,0.967,1.000: // measure 1
00000000
00000000
00000000
00000000
,  // measure 2
00000000
00000000
00000000
00000000
,  // measure 3
00000000
00000000
00000000
00000000
,  // measure 4
00000000
00000000
00000000
00000000
,  // measure 5
00000000
00000000
00000000
00000000
,  // measure 6
10000000
00100000
01000000
00010000
10000000
00100000
10000000
00010000
01000000
00010000
10000000
00100000
01000000
00010000
00100000
00001000
,  // measure 7
00010000
00000100
00001000
00000100
00000010
00000001
00001000
00000100
00000010
00000001
00000010
00000100
00001000
00000100
00010000
00001000
,  // measure 8
01000000
00010000
01000000
00100000
10000000
00010000
01000000
00100000
10000000
00010000
10000000
00100000
01000000
00001000
00010000
00000100
,  // measure 9
00010000
00000100
00001000
00000100
00000010
00000001
00001000
00000100
00001000
00000001
00000010
00000100
00001000
00000100
00010000
00001000
,  // measure 10
00100000
00010000
10000000
00010000
01000000
00100000
10000000
00010000
01000000
00100000
01000000
00010000
01000000
00001000
00010000
00000100
,  // measure 11
00010000
00001000
00010000
00000100
00001000
00000001
00000010
00000100
00001000
00000001
00000010
00000100
00000010
00000001
00001000
00000100
,  // measure 12
00010000
00001000
01000000
00010000
01000000
00100000
10000000
00010000
01000000
00100000
10000000
00010000
01000000
00001000
01000000
00001000
,  // measure 13
00010000
00000100
00000010
00000001
00001000
00000100
00000010
00000001
00000010
00000100
00001000
00000001
00000010
00000100
00001000
00000001
,  // measure 14
00000200
00000000
00000300
00000020
00000000
00000030
00000000
00002000
,  // measure 15
00003000
00000200
00020300
00032000
00203000
02300000
23000000
30020000
,  // measure 16
02030000
00000000
03000000
00002000
00000000
00003000
00000000
00020000
,  // measure 17
00000000
00030200
00000320
00000032
00002003
00003020
00020030
00032000
,  // measure 18
00203000
00000000
00300000
00020000
00000000
00030000
00000000
20000000
,  // measure 19
00000000
30020000
02030000
03020000
02030000
03020000
00230000
00302000
,  // measure 20
00203000
00302000
00023000
00030200
00020300
00030200
00000320
00000032
,  // measure 21
00000023
00000000
00000032
00000000
00002003
00000000
00003020
00000000
00000130
00000001
00000100
00000010
00001000
00000000
00000000
00000000
,  // measure 22
00000001
00000100
00000010
00001000
00000001
00000100
00000001
00001000
00000010
00001000
00000001
00000100
00000010
00001000
00000100
00010000
,  // measure 23
00001000
00100000
00010000
00100000
01000000
10000000
00010000
00100000
01000000
10000000
01000000
00100000
00010000
00100000
00001000
00010000
,  // measure 24
00000010
00001000
00000010
00000100
00000001
00001000
00000010
00000100
00000001
00001000
00000001
00000100
00000010
00010000
00001000
00100000
,  // measure 25
00001000
00100000
00010000
00100000
01000000
10000000
00010000
00100000
00010000
10000000
01000000
00100000
00010000
00100000
00001000
00010000
,  // measure 26
00000100
00001000
00000001
00001000
00000010
00000100
00000001
00001000
00000010
00000100
00000010
00001000
00000010
00010000
00001000
00100000
,  // measure 27
00001000
00010000
00001000
00100000
00010000
10000000
01000000
00100000
00010000
10000000
01000000
00100000
01000000
10000000
00010000
00100000
,  // measure 28
00001000
00010000
00000010
00001000
00000010
00000100
00000001
00001000
00000010
00000100
00000001
00001000
00000010
00010000
00000010
00010000
,  // measure 29
00001000
00100000
01000000
10000000
00010000
00100000
01000000
10000000
01000000
00100000
00010000
10000000
01000000
00100000
00010000
10000000
,  // measure 30
00020000
02030000
03002000
02003000
03020000
00000000
00230000
00300000
,  // measure 31
00002000
00023000
00000000
00030020
00000000
00000030
00000000
00000200
,  // measure 32
00000302
00002003
00003000
00000200
00000000
00000300
00000000
00020000
,  // measure 33
00032000
00203000
00300000
02000000
00000000
03000000
00000000
20000000
,  // measure 34
30020000
00000000
02030000
03002000
00203000
00300000
00002000
00023000
,  // measure 35
00030200
00002300
00000000
00003002
00000000
00000003
00000000
00000000
,  // measure 36
00002000
00000000
00000000
00003020
00000000
00000000
00020030
00000000
00032000
00000000
00000000
00203000
00000000
00000000
02300000
00000000
,  // measure 37
23000000
00000000
00000000
00000000
00000000
00000000
30000000
00000000
00010000
01000000
00100000
10000000
00010000
01000000
00100000
10000000
,  // measure 38
00010000
01000000
00010000
10000000
00100000
01000000
00010000
10000000
00100000
01000000
00010000
01000000
00001000
01000000
00001000
00010000
,  // measure 39
00001000
00010000
00000100
00001000
00000100
00000010
00000001
00001000
00000100
00000010
00000001
00001000
00000100
00010000
00000100
00010000
,  // measure 40
00001000
01000000
00010000
01000000
00100000
10000000
00010000
01000000
00100000
10000000
00010000
10000000
00100000
01000000
00001000
01000000
,  // measure 41
00001000
00010000
00000100
00001000
00000100
00000010
00000001
00001000
00000100
00000010
00000100
00001000
00000100
00010000
00001000
00100000
,  // measure 42
00001000
00010000
00001000
01000000
00010000
01000000
00100000
10000000
00010000
01000000
00100000
10000000
00010000
01000000
00001000
00010000
,  // measure 43
00001000
00010000
00000100
00000010
00000001
00001000
00000100
00001000
00000001
00000010
00000100
00001000
00000100
00010000
00001000
01000000
,  // measure 44
00010000
01000000
00100000
10000000
00010000
01000000
00010000
10000000
00100000
01000000
00010000
10000000
00010000
01000000
00001000
00010000
,  // measure 45
00001000
00010000
00000100
00001000
00000100
00000010
00000100
00001000
00000001
00000010
00000100
00001000
00000100
00010000
00001000
00100000
,  // measure 46
00010000
10000000
00010000
01000000
00100000
01000000
00010000
10000000
00100000
01000000
00010000
00100000
00001000
00010000
00001000
00100000
,  // measure 47
00001000
00010000
00000100
00001000
00000100
00000010
00000001
00001000
00000100
00000010
00000001
00001000
00000100
00010000
00000100
00010000
,  // measure 48
00001000
01000000
00010000
01000000
00100000
10000000
00010000
01000000
00100000
10000000
00010000
10000000
00100000
01000000
00001000
01000000
,  // measure 49
00001000
00010000
00000100
00001000
00000100
00000010
00000001
00001000
00000100
00000010
00000100
00001000
00000100
00010000
00001000
00100000
,  // measure 50
00001000
00010000
00001000
01000000
00010000
01000000
00100000
10000000
00010000
01000000
00100000
10000000
00010000
01000000
00001000
00010000
,  // measure 51
00001000
00010000
00000100
00000010
00000001
00001000
00000100
00001000
00000001
00000010
00000100
00001000
00000100
00010000
00001000
01000000
,  // measure 52
00010000
01000000
00100000
10000000
00010000
01000000
00010000
10000000
00100000
01000000
00010000
10000000
00010000
01000000
00200000
00000000
,  // measure 53
00300000
20000000
32000000
03200000
00302000
00023000
00030020
00000230
,  // measure 54
00000301
00001000
00000010
00001000
00000001
00000100
00000010
00001000
00000001
00000100
00000001
00001000
00000010
00001000
00000100
00010000
,  // measure 55
00001000
00100000
00010000
00100000
01000000
10000000
00010000
00100000
01000000
10000000
01000000
00100000
00010000
00100000
00001000
00010000
,  // measure 56
00000010
00001000
00000010
00000100
00000001
00001000
00000010
00000100
00000001
00001000
00000001
00000100
00000010
00010000
00001000
00100000
,  // measure 57
00010000
00100000
01000000
10000000
00010000
00100000
01000000
00100000
00010000
10000000
01000000
00100000
00010000
00100000
00001000
00010000
,  // measure 58
00000100
00001000
00000001
00001000
00000010
00000100
00000001
00001000
00000010
00000100
00000010
00001000
00000010
00010000
00001000
00100000
,  // measure 59
00001000
00010000
00001000
00100000
00010000
10000000
01000000
00100000
00010000
10000000
01000000
00100000
01000000
10000000
00010000
00100000
,  // measure 60
00001000
00010000
00000010
00001000
00000010
00000100
00000001
00001000
00000010
00000100
00000001
00001000
00000010
00010000
00000010
00010000
,  // measure 61
00001000
00100000
01000000
10000000
00010000
00100000
01000000
10000000
01000000
00100000
00010000
10000000
01000000
10000000
00010000
00100000
,  // measure 62
00010000
00000000
00000000
00000000
;
