#TITLE:SANA MOLLETE NE ENTE;
#SUBTITLE:(B.L.T. STYLE);
#ARTIST:Togo Project feat. Sana;
#SUBTITLETRANSLIT:;
#ARTISTTRANSLIT:;
#CREDIT:;
#BANNER:../ddrstream fallback-bn.png;
#BACKGROUND:../ddrstream fallback-bg.png;
#LYRICSPATH:;
#CDTITLE:;
#MUSIC:SANA MOLLETE NE ENTE (BLT STYLE).ogg;
#OFFSET:-2.720;
#SAMPLESTART:40.040;
#SAMPLELENGTH:21.280;
#SELECTABLE:YES;
#BPMS:0.000=180.000;
#STOPS:;
#BGCHANGES:;

//---------------dance-single - ----------------
#NOTES:
     dance-single:
     Dossar:
     Challenge:
     14:
     1.000,1.000,0.105,0.172,1.000:
0000
0000
0000
0000
,
0000
0000
0000
0000
,
0000
0000
0000
0000
,
0000
0000
0000
0000
,
0001
0100
0001
0100
0000
0010
0000
1000
,
0000
0001
0000
0000
0000
0000
0000
0000
,
1000
0100
1000
0100
0000
0010
0000
0001
,
0000
0000
2000
3000
,
0001
0000
0100
0000
0010
0000
1000
0001
,
0000
0010
0000
0100
0000
0010
0001
1000
,
0010
0000
0100
0000
0010
0000
1000
0001
,
0000
0010
0000
0100
0020
0000
0030
0000
,
0001
0000
0100
0000
0010
0000
1000
0001
,
0000
0010
0000
0100
0000
0000
0000
0000
,
0000
0000
1001
0000
0220
0000
0330
2002
,
0000
0000
0000
3003
,
1000
0100
1000
0001
0100
0001
1000
0001
,
0010
0000
0100
0000
0010
0000
0001
0000
1000
0000
0001
0000
1000
0100
1000
0001
,
1000
0001
1000
0010
0100
0010
1000
0001
,
1000
0000
0100
0000
0010
0000
0001
0010
0100
1000
0001
0010
0001
1000
0100
0010
,
0001
1000
0001
0100
0010
0100
0001
1000
,
0100
0000
0010
0000
0100
0000
1000
0000
0001
0000
1000
0000
0001
0100
0001
1000
,
0001
0100
0001
1000
0100
1000
0001
0010
,
0100
0000
1000
0000
0001
0000
1000
0100
0010
0001
1000
0100
1000
0001
0010
0100
,
1000
0001
1000
0010
0100
0010
1000
0001
,
0010
0000
0100
0000
0010
0000
0001
0000
1000
0000
0001
0000
0100
0010
0100
0001
,
0100
0010
0100
0001
1000
0001
1000
0100
,
0010
0000
0001
0000
0010
0000
0001
1000
0001
0100
0010
0100
0001
1000
0001
1000
,
0100
0010
0001
0010
0100
1000
0001
0010
0100
1000
0100
0010
0001
1000
0001
1000
,
0010
0100
0001
0100
0010
1000
0001
0100
0010
1000
0010
0100
0001
1000
0001
1000
,
0100
0010
0001
0010
0100
1000
0001
0010
0100
0010
0100
1000
0001
0010
0100
1000
,
0001
0100
0010
1000
0010
0100
0001
1000
0010
0100
0010
0100
0001
1000
0010
0100
,
0001
1000
0001
1000
0100
0010
0001
1000
0100
1000
0001
0010
0001
1000
0100
1000
,
0001
0010
0100
0010
0100
1000
0001
0010
0100
1000
0001
0010
0001
1000
0100
0010
,
0001
1000
0001
1000
0010
0100
0001
1000
0010
1000
0001
0100
0010
1000
0010
0100
,
0001
1000
0001
1000
0010
0100
0001
0100
0010
1000
0001
0100
0010
0100
0001
1000
,
0001
0010
0100
1000
0001
0010
0100
1000
0100
0010
0001
1000
0100
0010
0001
1000
,
0001
1000
0010
0100
0001
1000
0001
1000
0010
0100
0001
0100
0010
1000
0001
1000
,
0001
0010
0100
1000
0100
0010
0001
1000
0100
1000
0001
0010
0100
1000
0001
0010
,
0001
1000
0010
1000
0001
0100
0001
1000
0010
0100
0001
1000
0010
1000
0001
0100
,
0001
1000
0100
1000
0001
0010
0100
1000
0001
0010
0001
1000
0100
1000
0001
0010
,
0100
1000
0100
0010
0001
1000
0001
1000
0100
0010
0001
0010
0100
1000
0001
1000
,
0001
0100
0010
1000
0001
0100
0001
1000
0010
0100
0001
1000
0010
1000
0001
0100
,
0001
1000
0010
0100
0001
1000
0001
1000
0010
0100
0001
1000
0001
0100
0010
1000
,
0001
0010
0100
1000
0001
0010
0100
1000
0001
0010
0100
0010
0001
1000
0100
0010
,
0001
1000
0010
0100
0001
1000
0010
0100
0001
0100
0010
1000
0001
0100
0010
1000
,
0001
1000
0100
0010
0001
1000
0100
0010
0001
0010
0100
1000
0001
0010
0100
0010
,
0001
1000
0001
0100
0010
1000
0001
0100
0010
0100
0001
1000
0010
0100
0001
1000
,
0010
0100
0001
1000
0100
0010
0001
1000
0100
0010
0001
1000
0100
0010
0100
1000
,
0001
0010
0001
1000
0100
1000
0001
0100
0001
1000
0010
1000
0001
0010
0001
1000
,
0100
1000
0001
0010
0100
1000
0001
0010
0100
0010
0001
1000
0100
0010
0001
1000
,
0100
1000
0001
0100
0001
1000
0010
0100
0001
1000
0010
0100
0001
0100
0010
1000
,
0001
0100
0001
1000
0100
0010
0001
1000
0100
0010
0001
1000
0100
1000
0001
0010
,
0001
1000
0010
0100
0001
0100
0010
1000
0001
0100
0001
1000
0100
1000
0001
0010
,
0001
1000
0100
1000
0001
0010
0100
1000
0001
0010
0100
1000
0100
0010
0001
1000
,
0001
0100
0010
1000
0001
0100
0010
1000
0001
0100
0001
1000
0010
1000
0001
0010
,
0100
1000
0001
0010
0100
1000
0001
0010
0100
0010
0001
1000
0100
0010
0001
1000
,
0010
0100
0001
1000
0010
0100
0001
0100
0010
1000
0001
0100
0010
1000
0001
1000
,
0100
0010
0001
1000
0100
0010
0001
0010
0100
1000
0001
0010
0100
1000
0100
0010
,
0001
0000
1000
0010
1000
0000
0001
0000
0100
0000
0000
0010
0000
0000
1000
0000
,
0001
0100
0010
1000
0001
0100
0010
1000
0010
0100
0001
1000
0010
0100
0001
1000
,
0001
1000
0100
0010
0001
1000
0001
1000
0100
0010
0001
0010
0100
1000
0001
1000
,
0001
0100
0010
1000
0010
0100
0001
1000
0010
1000
0001
0100
0010
1000
0001
0100
,
0001
1000
0100
1000
0001
0010
0001
1000
0100
0010
0001
1000
0100
1000
0001
0010
,
0001
1000
0010
1000
0001
0100
0010
1000
0001
0100
0001
1000
0010
1000
0001
0100
,
0010
1000
0010
0100
0001
1000
0001
1000
0010
0100
0001
0100
0010
1000
0001
1000
,
0001
0010
0100
1000
0001
0010
0001
1000
0100
0010
0001
1000
0100
1000
0001
0010
,
0001
1000
0100
0010
0001
1000
0001
1000
0100
0010
0001
1000
0001
1000
0100
0010
,
0001
1000
0001
0100
0010
0000
0000
0000
0220
0000
0000
0000
0330
0000
2002
0000
,
0000
3003
1100
0000
0220
0000
0330
0022
,
0000
0033
1001
0000
2020
0000
3030
0202
,
0000
0000
0000
0000
,
0303
0000
0000
0000
;

//---------------dance-single - ----------------
#NOTES:
     dance-single:
     Dossar:
     Hard:
     13:
     0.943,1.000,0.105,0.210,1.000:
0000
0000
0000
0000
,
0000
0000
0000
0000
,
0000
0000
0000
0000
,
0000
0000
0000
0000
,
0001
0100
0001
0100
0000
0010
0000
1000
,
0000
0001
0000
0000
0000
0000
0000
0000
,
1000
0100
1000
0100
0000
0010
0000
0001
,
0000
0000
2000
3000
,
0001
0000
0100
0000
0010
0000
1000
0001
,
0000
0010
0000
0100
0000
0010
0001
1000
,
0010
0000
0100
0000
0010
0000
1000
0001
,
0000
0010
0000
0100
0020
0000
0030
0000
,
0001
0000
0100
0000
0010
0000
1000
0001
,
0000
0010
0000
0100
0000
0000
0000
0000
,
0000
0000
1001
0000
0220
0000
0330
2002
,
0000
0000
0000
3003
,
1000
0100
1000
0001
0100
0001
1000
0001
,
0010
0000
0100
0000
0010
0000
0001
0000
1000
0000
0001
0000
1000
0100
1000
0001
,
1000
0001
1000
0010
0100
0010
1000
0001
,
1000
0000
0100
0000
0010
0000
0001
0010
0100
1000
0001
0010
0001
1000
0100
0010
,
0001
1000
0001
0100
0010
0100
0001
1000
,
0100
0000
0010
0000
0100
0000
1000
0000
0001
0000
1000
0000
0001
0100
0001
1000
,
0001
0100
0001
1000
0100
1000
0001
0010
,
0100
0000
1000
0000
0001
0000
1000
0100
0010
0001
1000
0100
1000
0001
0010
0100
,
1000
0001
1000
0010
0100
0010
1000
0001
,
0010
0000
0100
0000
0010
0000
0001
0000
1000
0000
0001
0000
0100
0010
0100
0001
,
0100
0010
0100
0001
1000
0001
1000
0100
,
0010
0000
0001
0000
0010
0000
0001
1000
0001
0100
0010
0100
0001
1000
0001
1000
,
0100
0010
0001
0010
0100
1000
0001
0010
0100
1000
0100
0010
0001
1000
0001
1000
,
0010
0100
0001
0100
0010
1000
0001
0100
0010
1000
0010
0100
0001
1000
0001
1000
,
0100
0010
0001
0010
0100
1000
0001
0010
0100
0010
0100
1000
0001
0010
0100
1000
,
0001
0100
0010
1000
0010
0100
0001
1000
0010
0100
0010
0100
0001
1000
0010
0100
,
0001
1000
0001
1000
0100
0010
0001
1000
0100
1000
0001
0010
0001
1000
0100
1000
,
0001
0010
0100
0010
0100
1000
0001
0010
0100
1000
0001
0010
0001
1000
0100
0010
,
0001
1000
0001
1000
0010
0100
0001
1000
0010
1000
0001
0100
0010
1000
0010
0100
,
0001
1000
0001
1000
0010
0100
0001
0100
0010
1000
0001
0100
0010
0100
0001
1000
,
0001
0010
0100
1000
0001
0010
0100
1000
0100
0010
0001
1000
0100
0010
0001
1000
,
0001
1000
0010
0100
0001
1000
0001
1000
0010
0100
0001
0100
0010
1000
0001
1000
,
0001
0010
0100
1000
0100
0010
0001
1000
0100
1000
0001
0010
0100
1000
0001
0010
,
0001
1000
0010
1000
0001
0100
0001
1000
0010
0100
0001
1000
0010
1000
0001
0100
,
0001
1000
0100
1000
0001
0010
0100
1000
0001
0010
0001
1000
0100
1000
0001
0010
,
0100
1000
0100
0010
0001
1000
0001
1000
0100
0010
0001
0010
0100
1000
0001
1000
,
0001
0100
0010
1000
0001
0100
0001
1000
0010
0100
0001
1000
0010
1000
0001
0100
,
0001
1000
0010
0100
0001
1000
0001
1000
0010
0100
0001
1000
0001
0100
0010
1000
,
0001
0100
0010
1000
0000
0001
0000
0010
,
0000
0001
0000
0000
0000
0000
0000
0000
,
1000
0010
0100
0001
0000
1000
0000
0001
,
0000
0000
0200
0300
0200
0300
0000
0000
,
0001
0100
0010
1000
0000
0001
0000
0010
,
0000
0001
0000
0000
0000
0000
0000
0000
,
1000
0100
0010
0001
0000
1000
0000
0001
,
0000
0000
0200
0300
0200
0300
0000
0000
,
0001
1000
0001
0100
0010
0100
0001
1000
,
0100
0000
0010
0000
0100
0000
1000
0000
0001
0000
1000
0000
0010
0100
0010
1000
,
0010
0100
0010
1000
0001
1000
0100
0010
,
0001
0000
1000
0000
0001
0000
1000
0100
1000
0001
0010
0100
1000
0001
0010
0001
,
1000
0001
1000
0100
0010
0100
1000
0001
,
0100
0000
0010
0000
0100
0000
0001
0000
1000
0000
0001
0000
0010
0001
0010
0100
,
0010
0001
0010
0100
1000
0100
0010
0001
,
1000
0000
0001
0100
0001
0000
1000
0000
0010
0000
0000
0100
0000
0000
0001
0000
,
1000
0010
0100
0001
1000
0010
0100
0001
0100
0010
1000
0001
0100
0010
1000
0001
,
1000
0001
0010
0100
1000
0001
1000
0001
0010
0100
1000
0100
0010
0001
1000
0001
,
1000
0010
0100
0001
0100
0010
1000
0001
0100
0001
1000
0010
0100
0001
1000
0010
,
1000
0001
0010
0001
1000
0100
1000
0001
0010
0100
1000
0001
0010
0001
1000
0100
,
1000
0001
0100
0001
1000
0010
0100
0001
1000
0010
1000
0001
0100
0001
1000
0010
,
0100
0001
0100
0010
1000
0001
1000
0001
0100
0010
1000
0010
0100
0001
1000
0001
,
1000
0100
0010
0001
1000
0100
1000
0001
0010
0100
1000
0001
0010
0001
1000
0100
,
1000
0001
0010
0100
1000
0001
1000
0001
0010
0100
1000
0001
1000
0001
0010
0100
,
1000
0001
1000
0010
0100
0000
0000
0000
0220
0000
0000
0000
0330
0000
2002
0000
,
0000
3003
1100
0000
0220
0000
0330
0022
,
0000
0033
1001
0000
2020
0000
3030
0202
,
0000
0000
0000
0000
,
0303
0000
0000
0000
;

//---------------dance-single - ----------------
#NOTES:
     dance-single:
     Dossar:
     Medium:
     12:
     0.826,1.000,0.105,0.210,0.772:
0000
0000
0000
0000
,
0000
0000
0000
0000
,
0000
0000
0000
0000
,
0000
0000
0000
0000
,
0001
0100
0001
0100
0000
0010
0000
1000
,
0000
0001
0000
0000
0000
0000
0000
0000
,
1000
0100
1000
0100
0000
0010
0000
0001
,
0000
0000
2000
3000
,
0001
0000
0100
0000
0010
0000
1000
0001
,
0000
0010
0000
0100
0000
0010
0001
1000
,
0010
0000
0100
0000
0010
0000
1000
0001
,
0000
0010
0000
0100
0020
0000
0030
0000
,
0001
0000
0100
0000
0010
0000
1000
0001
,
0000
0010
0000
0100
0000
0000
0000
0000
,
0000
0000
1001
0000
0220
0000
0330
2002
,
0000
0000
0000
3003
,
1000
0100
1000
0001
0100
0001
1000
0001
,
0010
0000
0100
0000
0010
0000
0001
0000
1000
0000
0001
0000
1000
0100
1000
0001
,
1000
0001
1000
0010
0100
0010
1000
0001
,
1000
0000
0100
0000
0010
0000
0001
0010
0100
1000
0001
0010
0001
1000
0100
0010
,
0001
1000
0001
0100
0010
0100
0001
1000
,
0100
0000
0010
0000
0100
0000
1000
0000
0001
0000
1000
0000
0001
0100
0001
1000
,
0001
0100
0001
1000
0100
1000
0001
0010
,
0100
0000
1000
0000
0001
0000
1000
0100
0010
0001
1000
0100
1000
0001
0010
0100
,
1000
0001
1000
0010
0100
0010
1000
0001
,
0010
0000
0100
0000
0010
0000
0001
0000
1000
0000
0001
0000
0100
0010
0100
0001
,
0100
0010
0100
0001
1000
0001
1000
0100
,
0010
0000
0001
0000
0010
0000
0001
1000
0001
0100
0010
0100
0001
1000
0001
1000
,
0100
0010
0001
0010
0100
1000
0001
0010
0100
1000
0100
0010
0001
1000
0001
1000
,
0010
0100
0001
0100
0010
1000
0001
0100
0010
1000
0010
0100
0001
1000
0001
1000
,
0100
0010
0001
0010
0100
1000
0001
0010
0100
0010
0100
1000
0001
0010
0100
1000
,
0001
0100
0010
1000
0010
0100
0001
1000
0010
0100
0010
0100
0001
1000
0010
0100
,
0001
1000
0001
1000
0100
0010
0001
1000
0100
1000
0001
0010
0001
1000
0100
1000
,
0001
0010
0100
0010
0100
1000
0001
0010
0100
1000
0001
0010
0001
1000
0100
0010
,
0001
1000
0001
1000
0010
0100
0001
1000
0010
1000
0001
0100
0010
1000
0010
0100
,
0001
1000
0001
1000
0010
0100
0001
0100
0010
1000
0001
0100
0010
0100
0001
1000
,
0001
0000
0100
0010
0100
0010
0000
1000
,
0000
0001
0000
0100
0000
0001
1000
0001
,
1000
0000
0100
0010
0100
0010
0000
0001
,
0000
0010
0000
0100
0000
1000
0001
1000
,
0001
0000
1000
0010
1000
0010
0000
0100
,
0000
0001
0000
1000
0000
0001
0010
0001
,
0010
0000
0100
1000
0100
1000
0000
0001
,
0000
1000
0000
0010
0000
0000
1000
0000
,
0001
0100
0010
1000
0000
0001
0000
0010
,
0000
0001
0000
0000
0000
0000
0000
0000
,
1000
0010
0100
0001
0000
1000
0000
0001
,
0000
0000
0200
0300
0200
0300
0000
0000
,
0001
0100
0010
1000
0000
0001
0000
0010
,
0000
0001
0000
0000
0000
0000
0000
0000
,
1000
0100
0010
0001
0000
1000
0000
0001
,
0000
0000
0200
0300
0200
0300
0000
0000
,
0001
1000
0001
0100
0010
0100
0001
1000
,
0100
0000
0010
0000
0100
0000
1000
0000
0001
0000
1000
0000
0010
0100
0010
1000
,
0010
0100
0010
1000
0001
1000
0100
0010
,
0001
0000
1000
0000
0001
0000
1000
0100
1000
0001
0010
0100
1000
0001
0010
0001
,
1000
0001
1000
0100
0010
0100
1000
0001
,
0100
0000
0010
0000
0100
0000
0001
0000
1000
0000
0001
0000
0010
0001
0010
0100
,
0010
0001
0010
0100
1000
0100
0010
0001
,
1000
0000
0001
0100
0001
0000
1000
0000
0010
0000
0000
0100
0000
0000
0001
0000
,
1000
0010
0100
0001
1000
0010
0100
0001
0100
0010
1000
0001
0100
0010
1000
0001
,
1000
0001
0010
0100
1000
0001
1000
0001
0010
0100
1000
0100
0010
0001
1000
0001
,
1000
0010
0100
0001
0100
0010
1000
0001
0100
0001
1000
0010
0100
0001
1000
0010
,
1000
0001
0010
0001
1000
0100
1000
0001
0010
0100
1000
0001
0010
0001
1000
0100
,
1000
0001
0100
0001
1000
0010
0100
0001
1000
0010
1000
0001
0100
0001
1000
0010
,
0100
0001
0100
0010
1000
0001
1000
0001
0100
0010
1000
0010
0100
0001
1000
0001
,
1000
0100
0010
0001
1000
0100
1000
0001
0010
0100
1000
0001
0010
0001
1000
0100
,
1000
0001
0010
0100
1000
0001
1000
0001
0010
0100
1000
0001
1000
0001
0010
0100
,
1000
0001
1000
0010
0100
0000
0000
0000
0220
0000
0000
0000
0330
0000
2002
0000
,
0000
3003
1100
0000
0220
0000
0330
0022
,
0000
0033
1001
0000
2020
0000
3030
0202
,
0000
0000
0000
0000
,
0303
0000
0000
0000
;

//---------------dance-single - ----------------
#NOTES:
     dance-single:
     Dossar:
     Easy:
     12:
     0.774,1.000,0.105,0.629,0.477:
0000
0000
0000
0000
,
0000
0000
0000
0000
,
0000
0000
0000
0000
,
0000
0000
0000
0000
,
0001
0100
0001
0100
0000
0010
0000
1000
,
0000
0001
0000
0000
0000
0000
0000
0000
,
1000
0100
1000
0100
0000
0010
0000
0001
,
0000
0000
2000
3000
,
0001
0000
0100
0000
0010
0000
1000
0001
,
0000
0010
0000
0100
0000
0010
0001
1000
,
0010
0000
0100
0000
0010
0000
1000
0001
,
0000
0010
0000
0100
0020
0000
0030
0000
,
0001
0000
0100
0000
0010
0000
1000
0001
,
0000
0010
0000
0100
0000
0000
0000
0000
,
0000
0000
1001
0000
0220
0000
0330
2002
,
0000
0000
0000
3003
,
1000
0100
1000
0001
0100
0001
1000
0001
,
0010
0100
0010
0001
1000
0001
2000
3020
,
1030
0001
1000
0010
0100
0010
1000
0001
,
1000
0100
0010
0002
2003
3002
0203
0000
,
0301
1000
0001
0100
0010
0100
0001
1000
,
0100
0010
0100
1000
0001
1000
0002
2003
,
3001
0100
0001
1000
0100
1000
0001
0010
,
0100
1000
0001
2000
3020
2030
3002
0000
,
1003
0001
1000
0010
0100
0010
1000
0001
,
0010
0100
0010
0001
1000
0001
0200
0302
,
0103
0010
0100
0001
1000
0001
1000
0100
,
0010
0001
0010
0002
2003
3002
2003
0000
,
3100
0010
0001
0010
0100
1000
0001
0010
0100
1000
0100
0010
0001
1000
0001
1000
,
0010
0100
0001
0100
0010
1000
0001
0100
0010
1000
0010
0100
0001
1000
0001
1000
,
0100
0010
0001
0010
0100
1000
0001
0010
0100
0010
0100
1000
0001
0010
0100
1000
,
0001
0100
0010
1000
0010
0100
0001
1000
0010
0100
0010
0100
0001
1000
0010
0100
,
0001
0000
1000
0000
0010
0000
0100
0001
,
0100
0000
0010
1000
0000
0001
0010
0001
,
0010
0000
0100
0000
1000
0001
0000
0100
,
0000
0010
0000
0100
0010
1000
0001
1000
,
0001
0000
0100
0010
0100
0010
0000
1000
,
0000
0001
0000
0100
0000
0001
1000
0001
,
1000
0000
0100
0010
0100
0010
0000
0001
,
0000
0010
0000
0100
0000
1000
0001
1000
,
0001
0000
1000
0010
1000
0010
0000
0100
,
0000
0001
0000
1000
0000
0001
0010
0001
,
0010
0000
0100
1000
0100
1000
0000
0001
,
0000
1000
0000
0010
0000
0000
1000
0000
,
0001
0100
0010
1000
0000
0001
0000
0010
,
0000
0001
0000
0000
0000
0000
0000
0000
,
1000
0010
0100
0001
0000
1000
0000
0001
,
0000
0000
0200
0300
0200
0300
0000
0000
,
0001
0100
0010
1000
0000
0001
0000
0010
,
0000
0001
0000
0000
0000
0000
0000
0000
,
1000
0100
0010
0001
0000
1000
0000
0001
,
0000
0000
0200
0300
0200
0300
0000
0000
,
0001
1000
0001
1000
0100
0010
0001
1000
0100
1000
0001
0010
0001
1000
0100
1000
,
0001
0010
0100
1000
0001
1000
0001
0010
0100
1000
0001
0010
0001
1000
0100
0010
,
0001
1000
0001
1000
0010
0100
0001
1000
0010
1000
0001
0100
0010
1000
0010
0100
,
0001
1000
0001
1000
0010
0100
0001
0100
0010
1000
0001
0100
0010
0100
0001
1000
,
0001
1000
0001
0100
0010
0100
0001
1000
,
0100
0010
0100
1000
0001
1000
0020
0230
,
0310
0100
0010
1000
0001
1000
0100
0010
,
0001
0000
1000
0010
1000
0000
0001
0000
0100
0000
0000
0010
0000
0000
1000
0000
,
0001
0200
0320
0230
0302
2003
3002
0023
,
0230
0320
0032
2003
3002
0203
0320
0230
,
0302
2003
3002
2003
3000
0200
0300
0020
,
0000
0000
0000
0000
0030
0002
2003
3002
,
1003
0010
0100
0001
1000
0010
0100
0001
1000
0010
1000
0001
0100
0001
1000
0010
,
0100
0001
0100
0010
1000
0001
1000
0001
0100
0010
1000
0010
0100
0001
1000
0001
,
1000
0100
0010
0001
1000
0100
1000
0001
0010
0100
1000
0001
0010
0001
1000
0100
,
1000
0001
0010
0100
1000
0001
1000
0001
0010
0100
1000
0001
1000
0001
0010
0100
,
1000
0001
1000
0010
0100
0000
0000
0000
0220
0000
0000
0000
0330
0000
2002
0000
,
0000
3003
1100
0000
0220
0000
0330
0022
,
0000
0033
1001
0000
2020
0000
3030
0202
,
0000
0000
0000
0000
,
0303
0000
0000
0000
;

//---------------dance-double - ----------------
#NOTES:
     dance-double:
     Dossar:
     Challenge:
     13:
     0.894,1.000,0.105,0.248,1.000: // measure 1
00000000
00000000
00000000
00000000
,  // measure 2
00000000
00000000
00000000
00000000
,  // measure 3
00000000
00000000
00000000
00000000
,  // measure 4
00000000
00000000
00000000
00000000
,  // measure 5
10000000
01000000
10000000
01000000
00000000
00100000
00000000
00001000
,  // measure 6
00000000
00010000
00000000
00000000
00000000
00000000
00000000
00000000
,  // measure 7
00000100
00001000
00000100
00001000
00000000
00000001
00000000
00000100
,  // measure 8
00000000
00000000
00000020
00000030
,  // measure 9
00010000
00000000
00001000
00000000
00010000
00000000
00000100
00000010
,  // measure 10
00000000
00000001
00000000
00001000
00000000
00000010
00010000
00001000
,  // measure 11
00100000
00000000
01000000
00000000
00100000
00000000
00010000
10000000
,  // measure 12
00000000
00100000
00000000
01000000
00002000
00000000
00003000
00000000
,  // measure 13
00010000
00000000
00001000
00000000
00010000
00000000
00000100
00000010
,  // measure 14
00000000
00000001
00000000
00001000
00000000
00000000
00000000
00000000
,  // measure 15
00000000
00000000
00001010
00000000
00020020
00000000
00030030
00022000
,  // measure 16
00000000
00000000
00000000
00033000
,  // measure 17
00001000
00100000
00100000
00001000
00000000
00010000
00001000
00000000
,  // measure 18
00010000
00000000
00000100
00000000
00000100
00000000
00010000
00000000
00000000
00000000
00000000
00000000
00001000
00100000
00001000
00100000
,  // measure 19
01000000
00000000
10000000
00010000
00000000
00010000
00000000
00000000
,  // measure 20
01000000
00000000
00010000
00000000
00010000
00000000
10000000
01000000
00100000
00010000
00100000
01000000
10000000
00010000
00100000
00001000
,  // measure 21
00010000
00001000
00001000
00010000
00000000
00001000
00010000
00000000
,  // measure 22
00000100
00000000
00001000
00000000
00001000
00000000
00000100
00000000
00000000
00000000
00000000
00000000
00001000
00000100
00001000
00000100
,  // measure 23
00010000
00000000
00001000
01000000
00000000
01000000
00000000
00000000
,  // measure 24
00010000
00000000
10000000
00000000
10000000
00000000
00010000
01000000
00100000
10000000
00010000
01000000
00010000
10000000
00100000
01000000
,  // measure 25
00001000
00010000
00010000
00001000
00000000
00010000
00001000
00000000
,  // measure 26
00100000
00000000
01000000
00000000
01000000
00000000
00100000
00000000
00000000
00000000
00000000
00000000
00010000
00100000
00010000
00100000
,  // measure 27
00001000
00000000
00010000
00000010
00000000
00000010
00000000
00000000
,  // measure 28
00001000
00000000
00000001
00000000
00000001
00000000
00001000
00000010
00000100
00000001
00001000
00000010
00001000
00000001
00000100
00000010
,  // measure 29
00001000
00000001
00001000
00000010
00000100
00000001
00001000
00000010
00000100
00000001
00001000
00000100
00010000
00000100
00001000
00000100
,  // measure 30
00010000
00001000
00010000
00000100
00010000
00001000
00100000
00010000
00100000
01000000
10000000
00010000
00100000
00001000
00010000
00001000
,  // measure 31
00100000
00001000
00010000
00000010
00001000
00000010
00000100
00000001
00001000
00000010
00000100
00000001
00000100
00000010
00000100
00000001
,  // measure 32
00001000
00000100
00010000
00001000
00010000
00001000
00100000
01000000
10000000
00010000
00100000
01000000
10000000
01000000
00100000
00001000
,  // measure 33
00010000
00001000
00100000
00001000
00010000
00000010
00010000
00001000
00010000
00000010
00001000
00000010
00000100
00000001
00001000
00000100
,  // measure 34
00010000
00000100
00010000
00001000
01000000
00010000
01000000
00100000
10000000
00010000
01000000
00100000
10000000
00010000
01000000
00001000
,  // measure 35
00010000
00001000
01000000
00001000
00010000
00000100
00010000
00001000
00010000
00000100
00000010
00000001
00001000
00000100
00010000
00001000
,  // measure 36
00010000
00000100
00010000
00001000
00100000
00010000
00100000
01000000
10000000
00010000
00100000
00001000
00100000
00010000
00100000
00001000
,  // measure 37
00010000
00001000
00100000
00001000
00010000
00000010
00010000
00000010
00001000
00000001
00000100
00000010
00001000
00000001
00001000
00000010
,  // measure 38
00010000
00001000
00010000
00000010
00010000
00001000
00100000
00001000
00010000
00001000
00100000
01000000
10000000
00010000
00100000
00001000
,  // measure 39
00100000
00001000
00010000
00000100
00001000
00000100
00000010
00000001
00001000
00000100
00000010
00000001
00001000
00000100
00010000
00001000
,  // measure 40
00100000
00001000
00010000
00001000
00100000
01000000
10000000
00010000
10000000
00010000
00100000
01000000
10000000
00010000
00100000
00001000
,  // measure 41
00100000
00001000
00010000
00000010
00010000
00001000
00010000
00000010
00001000
00000001
00000100
00000010
00001000
00000010
00010000
00000010
,  // measure 42
00010000
00001000
00100000
00010000
00100000
01000000
10000000
00010000
00100000
00010000
10000000
01000000
00100000
00010000
00100000
00001000
,  // measure 43
00010000
00000010
00010000
00001000
00010000
00000010
00001000
00000010
00000100
00000010
00001000
00000001
00001000
00000010
00010000
00001000
,  // measure 44
00010000
00000100
00010000
00001000
00100000
00010000
10000000
01000000
00100000
00010000
00100000
00001000
00010000
00000100
00010000
00000100
,  // measure 45
00001000
00000100
00000010
00000001
00000000
00001000
00000000
00000100
,  // measure 46
00000000
00010000
00000000
00000000
00000000
00000000
00000000
00000000
,  // measure 47
00001000
01000000
00010000
10000000
00000000
00100000
00000000
01000000
,  // measure 48
00000000
00000000
00002000
00003000
00002000
00003000
00000000
00000000
,  // measure 49
00010000
00000100
00001000
00000001
00000000
00000100
00000000
00000010
,  // measure 50
00000000
00010000
00000000
00000000
00000000
00000000
00000000
00000000
,  // measure 51
00001000
00100000
00010000
10000000
00000000
00100000
00000000
01000000
,  // measure 52
00000000
00000000
00002000
00003000
00002000
00003000
00000000
00000000
,  // measure 53
00010000
00000100
00000100
00010000
00000000
00001000
00010000
00000000
,  // measure 54
00001000
00000000
00100000
00000000
00100000
00000000
00001000
00000000
00000000
00000000
00000000
00000000
00010000
00000100
00010000
00000100
,  // measure 55
00000010
00000000
00000001
00001000
00000000
00001000
00000000
00000000
,  // measure 56
00000010
00000000
00001000
00000000
00001000
00000000
00000001
00000010
00000100
00001000
00000100
00000010
00000001
00001000
00000100
00010000
,  // measure 57
00001000
00010000
00010000
00001000
00000000
00010000
00001000
00000000
,  // measure 58
00100000
00000000
00010000
00000000
00010000
00000000
00100000
00000000
00000000
00000000
00000000
00000000
00010000
00100000
00010000
00100000
,  // measure 59
00001000
00000000
00010000
00000010
00000000
00000010
00000000
00000000
,  // measure 60
00001000
00000000
00000100
00010000
00000100
00000000
00010000
00000000
00001000
00000000
00000000
00100000
00000000
00000000
00010000
00000000
,  // measure 61
00010000
10000000
00100000
01000000
00100000
10000000
00010000
01000000
00100000
10000000
00010000
00100000
00001000
00100000
00010000
00100000
,  // measure 62
00001000
00010000
00001000
00100000
00001000
00010000
00000100
00001000
00000100
00000010
00000001
00001000
00000100
00010000
00001000
00010000
,  // measure 63
00000100
00010000
00001000
01000000
00010000
01000000
00100000
10000000
00010000
01000000
00100000
10000000
00100000
01000000
00100000
10000000
,  // measure 64
00010000
00100000
00001000
00010000
00001000
00010000
00000100
00000010
00000001
00001000
00000100
00000010
00000001
00000010
00000100
00010000
,  // measure 65
00001000
00010000
00000100
00010000
00001000
01000000
00001000
00010000
00001000
01000000
00010000
01000000
00100000
10000000
00010000
00100000
,  // measure 66
00001000
00100000
00001000
00010000
00000010
00001000
00000010
00000100
00000001
00001000
00000010
00000100
00000001
00001000
00000010
00010000
,  // measure 67
00001000
00010000
00000010
00010000
00001000
00100000
00001000
00010000
00001000
00100000
01000000
10000000
00010000
00100000
00001000
00010000
,  // measure 68
00001000
00100000
00001000
00010000
00000100
00001000
00000100
00000010
00000001
00001000
00000100
00010000
00000100
00001000
00000100
00010000
,  // measure 69
00001000
00010000
00000100
00010000
00001000
00000000
00000000
00000000
00022000
00000000
00000000
00000000
00033000
00000000
00202000
00000000
,  // measure 70
00000000
00303000
00220000
00330000
20020000
00000000
30030000
20002000
,  // measure 71
00000000
30003000
02002000
03003000
00022000
00000000
00033000
00020200
,  // measure 72
00000000
00000000
00000000
00000000
,  // measure 73
00030300
00000000
00000000
00000000
;
