#TITLE:Polovtsian Dances And Chorus;
#SUBTITLE:;
#ARTIST:Naoto Suzuki feat. Martha;
#TITLETRANSLIT:;
#SUBTITLETRANSLIT:;
#ARTISTTRANSLIT:;
#CREDIT:;
#BANNER:../ddrstream fallback-bn.png;
#BACKGROUND:../ddrstream fallback-bg.png;
#LYRICSPATH:;
#CDTITLE:;
#MUSIC:Polovtsian Dances And Chorus.ogg;
#OFFSET:-0.040;
#SAMPLESTART:69.040;
#SAMPLELENGTH:13.080;
#SELECTABLE:YES;
#DISPLAYBPM:146.000;
#BPMS:0.000=150.000,4.000=145.997;
#STOPS:;
#BGCHANGES:;

//---------------dance-single - ----------------
#NOTES:
     dance-single:
     Dossar:
     Challenge:
     12:
     1.000,0.924,0.000,0.000,1.000:
0000
0000
0000
0000
,
0000
0000
0000
0000
,
0000
0000
0000
0000
,
0000
0000
0000
0000
,
0000
0000
0000
0000
,
0000
0000
0000
0000
,
1000
0000
0000
0000
0001
0000
0000
1000
0000
0000
0100
0000
0100
0000
0000
0010
,
0000
0000
0001
0000
0001
0000
0000
1000
0000
0000
0010
0000
0010
0000
0000
0000
,
0100
0000
0000
0000
0010
0000
0000
1000
0000
0000
0001
0000
0001
0000
0000
0010
,
0000
0000
0001
0000
0001
0000
0000
1000
0000
0000
0010
0000
0010
0000
0000
0000
,
1000
0010
0100
0001
1000
0010
0100
0001
0100
0010
1000
0001
0100
0010
1000
0001
,
1000
0001
0010
0100
1000
0001
1000
0001
0010
0100
1000
0100
0010
0001
1000
0001
,
1000
0010
0100
0001
0100
0010
1000
0001
0100
0001
1000
0010
0100
0001
1000
0010
,
1000
0001
0010
0001
1000
0100
1000
0001
0010
0100
1000
0001
0010
0001
1000
0100
,
1000
0001
0100
0001
1000
0010
0100
0001
1000
0010
1000
0001
0100
0001
1000
0010
,
0100
0001
0100
0010
1000
0001
1000
0001
0100
0010
1000
0010
0100
0001
1000
0001
,
1000
0100
0010
0001
1000
0100
1000
0001
0010
0100
1000
0001
0010
0001
1000
0100
,
1000
0001
0010
0100
1000
0001
1000
0001
0010
0100
1000
0001
0100
0001
1000
0010
,
0100
0010
1000
0001
1000
0010
0100
0001
0100
0010
1000
0001
0100
0010
1000
0001
,
1000
0001
0010
0100
1000
0001
1000
0001
0010
0100
1000
0100
0010
0001
1000
0001
,
1000
0010
0100
0001
0100
0010
1000
0001
0100
0001
1000
0010
0100
0001
1000
0010
,
1000
0001
0010
0001
1000
0100
1000
0001
0010
0100
1000
0001
0010
0001
1000
0100
,
1000
0001
0100
0001
1000
0010
0100
0001
1000
0010
1000
0001
0100
0001
1000
0010
,
0100
0001
0100
0010
1000
0001
1000
0001
0100
0010
1000
0010
0100
0001
1000
0001
,
1000
0100
0010
0001
1000
0100
1000
0001
0010
0100
1000
0001
0010
0001
1000
0100
,
1000
0001
0010
0100
1000
0001
1000
0001
0010
0100
1000
0001
0100
0001
1000
0010
,
0100
0010
1000
0001
1000
0010
0100
0001
0100
0010
1000
0001
0100
0010
1000
0001
,
1000
0001
0010
0100
1000
0001
1000
0001
0010
0100
1000
0100
0010
0001
1000
0001
,
1000
0010
0100
0001
0100
0010
1000
0001
0100
0001
1000
0010
0100
0001
1000
0010
,
1000
0001
0010
0001
1000
0100
1000
0001
0010
0100
1000
0001
0010
0001
1000
0100
,
1000
0001
0100
0001
1000
0010
0100
0001
1000
0010
1000
0001
0100
0001
1000
0010
,
0100
0001
0100
0010
1000
0001
1000
0001
0100
0010
1000
0010
0100
0001
1000
0001
,
1000
0100
0010
0001
1000
0100
1000
0001
0010
0100
1000
0001
0010
0001
1000
0100
,
1000
0001
0010
0100
1000
0001
0010
0001
1000
0100
0010
0001
1000
0100
0010
0001
,
1000
0001
0100
0010
1000
0010
0100
0001
0100
0010
1000
0001
0100
0010
1000
0001
,
1000
0001
0010
0100
1000
0001
1000
0001
0010
0100
1000
0100
0010
0001
1000
0001
,
1000
0010
0100
0001
0100
0010
1000
0001
0100
0001
1000
0010
0100
0001
1000
0010
,
1000
0001
0010
0001
1000
0100
1000
0001
0010
0100
1000
0001
0010
0001
1000
0100
,
1000
0001
0100
0001
1000
0010
0100
0001
1000
0010
1000
0001
0100
0001
1000
0010
,
0100
0001
0100
0010
1000
0001
1000
0001
0100
0010
1000
0010
0100
0001
1000
0001
,
1000
0100
0010
0001
1000
0100
1000
0001
0010
0100
1000
0001
0010
0001
1000
0100
,
1000
0001
0010
0100
1000
0001
1000
0001
0010
0100
1000
0001
0100
0001
1000
0010
,
0100
0010
1000
0001
1000
0010
0100
0001
0100
0010
1000
0001
0100
0010
1000
0001
,
1000
0001
0010
0100
1000
0001
1000
0001
0010
0100
1000
0100
0010
0001
1000
0001
,
1000
0010
0100
0001
0100
0010
1000
0001
0100
0001
1000
0010
0100
0001
1000
0010
,
1000
0001
0010
0001
1000
0100
1000
0001
0010
0100
1000
0001
0010
0001
1000
0100
,
1000
0001
0100
0001
1000
0010
0100
0001
1000
0010
1000
0001
0100
0001
1000
0010
,
0100
0001
0100
0010
1000
0001
1000
0001
0100
0010
1000
0010
0100
0001
1000
0001
,
1000
0100
0010
0001
1000
0100
1000
0001
0010
0100
1000
0001
0010
0001
1000
0100
,
1000
0001
0010
0100
1000
0001
1000
0001
0010
0100
1000
0001
0100
0001
1000
0010
,
0100
0010
1000
0001
1000
0010
0100
0001
0100
0010
1000
0001
0100
0010
1000
0001
,
1000
0001
0010
0100
1000
0001
1000
0001
0010
0100
1000
0100
0010
0001
1000
0001
,
1000
0010
0100
0001
0100
0010
1000
0001
0100
0001
1000
0010
0100
0001
1000
0010
,
1000
0001
0010
0001
1000
0100
1000
0001
0010
0100
1000
0001
0010
0001
1000
0100
,
1000
0001
0100
0001
1000
0010
0100
0001
1000
0010
1000
0001
0100
0001
1000
0010
,
0100
0001
0100
0010
1000
0001
1000
0001
0100
0010
1000
0010
0100
0001
1000
0001
,
1000
0100
0010
0001
1000
0100
1000
0001
0010
0100
1000
0001
0010
0001
1000
0100
,
1000
0001
0010
0100
1000
0001
0010
0001
1000
0100
0010
0001
1000
0100
0010
0001
,
1000
0000
0000
0000
;

//---------------dance-single - ----------------
#NOTES:
     dance-single:
     Dossar:
     Hard:
     11:
     0.861,0.924,0.000,0.232,1.000:
0000
0000
0000
0000
,
0000
0000
0000
0000
,
0000
0000
0000
0000
,
0000
0000
0000
0000
,
0000
0000
0000
0000
,
0000
0000
0000
0000
,
1000
0000
0000
0000
0001
0000
0000
1000
0000
0000
0100
0000
0100
0000
0000
0010
,
0000
0000
0001
0000
0001
0000
0000
1000
0000
0000
0010
0000
0010
0000
0000
0000
,
0100
0000
0000
0000
0010
0000
0000
1000
0000
0000
0001
0000
0001
0000
0000
0010
,
0000
0000
0001
0000
0001
0000
0000
1000
0000
0000
0010
0000
0010
0000
0000
0000
,
1000
0010
0100
0001
1000
0010
0100
0001
0100
0010
1000
0001
0100
0010
1000
0001
,
1000
0001
0010
0100
1000
0001
1000
0001
0010
0100
1000
0100
0010
0001
1000
0001
,
1000
0010
0100
0001
0100
0010
1000
0001
0100
0001
1000
0010
0100
0001
1000
0010
,
1000
0001
0010
0001
1000
0100
1000
0001
0010
0100
1000
0001
0010
0001
1000
0100
,
1000
0001
0100
0001
1000
0010
0100
0001
1000
0010
1000
0001
0100
0001
1000
0010
,
0100
0001
0100
0010
1000
0001
1000
0001
0100
0010
1000
0010
0100
0001
1000
0001
,
1000
0100
0010
0001
1000
0100
1000
0001
0010
0100
1000
0001
0010
0001
1000
0100
,
1000
0001
0010
0100
1000
0001
1000
0001
0010
0100
1000
0001
0100
0001
1000
0010
,
0100
0010
1000
0001
1000
0010
0100
0001
0100
0010
1000
0001
0100
0010
1000
0001
,
1000
0001
0010
0100
1000
0001
1000
0001
0010
0100
1000
0100
0010
0001
1000
0001
,
1000
0010
0100
0001
0100
0010
1000
0001
0100
0001
1000
0010
0100
0001
1000
0010
,
1000
0001
0010
0001
1000
0100
1000
0001
0010
0100
1000
0001
0010
0001
1000
0100
,
1000
0001
0100
0001
1000
0010
0100
0001
1000
0010
1000
0001
0100
0001
1000
0010
,
0100
0001
0100
0010
1000
0001
1000
0001
0100
0010
1000
0010
0100
0001
1000
0001
,
1000
0100
0010
0001
1000
0100
1000
0001
0010
0100
1000
0001
0010
0001
1000
0100
,
1000
0001
0010
0100
1000
0001
1000
0001
0010
0100
1000
0001
0100
0001
1000
0010
,
0200
0000
0302
0000
,
0000
0000
0103
0000
0010
0000
1000
0001
,
1000
0001
2000
0000
3100
0010
0200
0000
,
1300
0001
2000
0000
3020
0000
0230
0000
,
0302
0000
0023
0000
,
0000
0031
1000
0010
,
0100
0001
0200
0000
0301
1000
0002
0000
,
1003
0100
2000
0000
3002
0000
0023
0000
,
0032
0000
0203
0000
,
0000
0000
0310
0000
1000
0000
0001
0100
,
0001
0100
0002
0000
1003
0100
2000
0000
,
3001
0010
0002
0000
0203
0000
0320
0000
,
2030
0000
3002
0000
,
0000
0000
0013
0000
0100
0000
1000
0001
,
2000
0000
0000
0000
,
3001
0100
0010
0000
1000
0000
0001
0000
0000
0000
1000
0000
0000
0000
0001
1000
,
0010
0100
0001
1000
0001
0100
0010
1000
0010
0100
0001
1000
0010
0100
0001
1000
,
0001
1000
0100
0010
0001
1000
0001
1000
0100
0010
0001
0010
0100
1000
0001
1000
,
0001
0100
0010
1000
0010
0100
0001
1000
0010
1000
0001
0100
0010
1000
0001
0100
,
0001
1000
0100
1000
0001
0010
0001
1000
0100
0010
0001
1000
0100
1000
0001
0010
,
0001
1000
0010
1000
0001
0100
0010
1000
0001
0100
0001
1000
0010
1000
0001
0100
,
0010
1000
0010
0100
0001
1000
0001
1000
0010
0100
0001
0100
0010
1000
0001
1000
,
0001
0010
0100
1000
0001
0010
0001
1000
0100
0010
0001
1000
0100
1000
0001
0010
,
0001
1000
0100
0010
0001
1000
0001
1000
0100
0010
0001
1000
0010
1000
0001
0100
,
0010
0100
0001
1000
0001
0100
0010
1000
0010
0100
0001
1000
0010
0100
0001
1000
,
0001
1000
0100
0010
0001
1000
0001
1000
0100
0010
0001
0010
0100
1000
0001
1000
,
0001
0100
0010
1000
0010
0100
0001
1000
0010
1000
0001
0100
0010
1000
0001
0100
,
0001
1000
0100
1000
0001
0010
0001
1000
0100
0010
0001
1000
0100
1000
0001
0010
,
0001
1000
0010
1000
0001
0100
0010
1000
0001
0100
0001
1000
0010
1000
0001
0100
,
0010
1000
0010
0100
0001
1000
0001
1000
0010
0100
0001
0100
0010
1000
0001
1000
,
0001
0010
0100
1000
0001
0010
0001
1000
0100
0010
0001
1000
0100
1000
0001
0010
,
0001
1000
0100
0010
0001
1000
0100
1000
0001
0010
0100
1000
0001
0010
0100
1000
,
0001
0000
0000
0000
;

//---------------dance-single - ----------------
#NOTES:
     dance-single:
     Dossar:
     Medium:
     10:
     0.654,0.924,0.000,0.618,0.657:
0000
0000
0000
0000
,
0000
0000
0000
0000
,
0000
0000
0000
0000
,
0000
0000
0000
0000
,
0000
0000
0000
0000
,
0000
0000
0000
0000
,
1000
0000
0000
0000
0001
0000
0000
1000
0000
0000
0100
0000
0100
0000
0000
0010
,
0000
0000
0001
0000
0001
0000
0000
1000
0000
0000
0010
0000
0010
0000
0000
0000
,
0100
0000
0000
0000
0010
0000
0000
1000
0000
0000
0001
0000
0001
0000
0000
0010
,
0000
0000
0001
0000
0001
0000
0000
1000
0000
0000
0010
0000
0010
0000
0000
0000
,
1000
0002
0203
0301
,
1000
0000
0200
0000
0320
0000
0130
1000
,
0002
0203
0310
1000
,
0001
0020
0230
0320
,
0032
2003
3002
0103
,
0010
2000
3020
0230
,
0302
0023
0031
0100
,
0010
2000
3002
2003
,
3010
0100
0001
1000
0001
0100
0010
1000
0010
0100
0001
1000
0010
0100
0001
1000
,
0001
1000
0100
0010
0001
1000
0001
1000
0100
0010
0001
0010
0100
1000
0001
1000
,
0001
0100
0010
1000
0010
0100
0001
1000
0010
1000
0001
0100
0010
1000
0001
0100
,
0001
1000
0100
1000
0001
0010
0001
1000
0100
0010
0001
1000
0100
1000
0001
0010
,
0001
1000
0010
1000
0001
0100
0010
1000
0001
0100
0001
1000
0010
1000
0001
0100
,
0010
1000
0010
0100
0001
1000
0001
1000
0010
0100
0001
0100
0010
1000
0001
1000
,
0001
0010
0100
1000
0001
0010
0001
1000
0100
0010
0001
1000
0100
1000
0001
0010
,
0001
1000
0100
0010
0001
1000
0001
1000
0100
0010
0001
1000
0010
1000
0001
0100
,
0020
0000
2030
0000
,
0000
0000
3010
0000
0100
0000
0001
1000
,
0001
1000
0002
0000
0013
0100
0020
0000
,
0031
1000
0002
0000
0203
0000
0320
0000
,
2030
0000
3200
0000
,
0000
1300
0001
0100
,
0010
1000
0020
0000
1030
0001
2000
0000
,
3001
0010
0002
0000
2003
0000
3200
0000
,
2300
0000
3020
0000
,
0000
0000
0130
0000
0001
0000
1000
0010
,
1000
0010
2000
0000
3001
0010
0002
0000
,
1003
0100
2000
0000
3020
0000
0230
0000
,
0302
0000
2003
0000
,
0000
0000
3100
0000
0010
0000
0001
1000
,
0002
0000
0000
0000
,
1003
0010
0100
0000
0001
0000
1000
0000
0000
0000
0001
0000
0000
0000
1000
0001
,
1000
0002
0203
0301
,
1000
0000
0200
0000
0320
0000
0130
1000
,
0002
0203
0310
1000
,
0001
0020
0230
0320
,
0032
2003
3002
0103
,
0010
2000
3020
0230
,
0302
0023
0031
0100
,
0010
2000
3002
2003
,
3010
0100
0001
1000
0001
0100
0010
1000
0010
0100
0001
1000
0010
0100
0001
1000
,
0001
1000
0100
0010
0001
1000
0001
1000
0100
0010
0001
0010
0100
1000
0001
1000
,
0001
0100
0010
1000
0010
0100
0001
1000
0010
1000
0001
0100
0010
1000
0001
0100
,
0001
1000
0100
1000
0001
0010
0001
1000
0100
0010
0001
1000
0100
1000
0001
0010
,
0001
1000
0010
1000
0001
0100
0010
1000
0001
0100
0001
1000
0010
1000
0001
0100
,
0010
1000
0010
0100
0001
1000
0001
1000
0010
0100
0001
0100
0010
1000
0001
1000
,
0001
0010
0100
1000
0001
0010
0001
1000
0100
0010
0001
1000
0100
1000
0001
0010
,
0001
1000
0100
0010
0001
1000
0001
1000
0100
0010
0001
1000
0010
1000
0001
0100
,
0010
0000
0000
0000
;

//---------------dance-double - ----------------
#NOTES:
     dance-double:
     Dossar:
     Challenge:
     11:
     0.861,0.924,0.000,0.232,1.000: // measure 1
00000000
00000000
00000000
00000000
,  // measure 2
00000000
00000000
00000000
00000000
,  // measure 3
00000000
00000000
00000000
00000000
,  // measure 4
00000000
00000000
00000000
00000000
,  // measure 5
00000000
00000000
00000000
00000000
,  // measure 6
00000000
00000000
00000000
00000000
,  // measure 7
10000000
00000000
00000000
00000000
00010000
00000000
00000000
01000000
00000000
00000000
00001000
00000000
00001000
00000000
00000000
00010000
,  // measure 8
00000000
00000000
00000100
00000000
00000100
00000000
00000000
00000010
00000000
00000000
00000001
00000000
00000001
00000000
00000000
00000000
,  // measure 9
00001000
00000000
00000000
00000000
00000010
00000000
00000000
00010000
00000000
00000000
00001000
00000000
00001000
00000000
00000000
00100000
,  // measure 10
00000000
00000000
01000000
00000000
01000000
00000000
00000000
10000000
00000000
00000000
00010000
00000000
00010000
00000000
00000000
00000000
,  // measure 11
10000000
00100000
01000000
00010000
10000000
00100000
01000000
00010000
01000000
00100000
10000000
00010000
01000000
00100000
10000000
00010000
,  // measure 12
01000000
00001000
00010000
00001000
01000000
00001000
00010000
00000100
00010000
00001000
00010000
00000100
00001000
00000001
00001000
00000100
,  // measure 13
00000010
00000001
00001000
00000100
00000010
00000001
00001000
00000100
00001000
00000001
00000010
00000100
00001000
00000100
00000010
00000100
,  // measure 14
00010000
00001000
00010000
00000100
00010000
00001000
01000000
00001000
00010000
00001000
01000000
00010000
01000000
00001000
01000000
00010000
,  // measure 15
10000000
00100000
01000000
00010000
10000000
00010000
01000000
00100000
10000000
00010000
10000000
00100000
01000000
00010000
10000000
00010000
,  // measure 16
01000000
00001000
01000000
00001000
00010000
00001000
00010000
00000100
00010000
00001000
01000000
00001000
00010000
00001000
00010000
00000100
,  // measure 17
00000010
00000001
00001000
00000100
00000010
00000001
00001000
00000100
00001000
00000001
00000010
00000100
00001000
00000100
00000010
00000001
,  // measure 18
00001000
00000100
00010000
00000100
00010000
00001000
00010000
00000100
00001000
00000100
00010000
00000100
00010000
00001000
01000000
00010000
,  // measure 19
01000000
00100000
10000000
00010000
10000000
00100000
01000000
00010000
01000000
00100000
10000000
00010000
01000000
00001000
01000000
00010000
,  // measure 20
01000000
00001000
00010000
00001000
01000000
00001000
00010000
00000100
00010000
00001000
00010000
00000100
00001000
00000100
00010000
00000100
,  // measure 21
00001000
00000001
00001000
00000100
00000010
00000001
00001000
00000100
00001000
00000001
00000010
00000100
00001000
00000100
00010000
00000100
,  // measure 22
00010000
00001000
01000000
00001000
00010000
00001000
01000000
00010000
01000000
00001000
01000000
00001000
00010000
00001000
01000000
00010000
,  // measure 23
10000000
00100000
01000000
00010000
10000000
00100000
01000000
00010000
10000000
00100000
10000000
00010000
01000000
00010000
01000000
00001000
,  // measure 24
01000000
00001000
00010000
00001000
01000000
00010000
01000000
00001000
00010000
00001000
00010000
00000100
00010000
00000100
00001000
00000100
,  // measure 25
00000010
00000001
00001000
00000100
00000010
00000001
00001000
00000100
00000010
00000001
00001000
00000100
00001000
00000100
00010000
00001000
,  // measure 26
01000000
00010000
01000000
00100000
10000000
00010000
10000000
00100000
01000000
00010000
10000000
00100000
01000000
00100000
10000000
00010000
,  // measure 27
02000000
00000000
03020000
00000000
,  // measure 28
00000000
00000000
00130000
00000000
00001000
00000000
00010000
00000010
,  // measure 29
00010000
00000010
00020000
00000000
00030100
00000010
00000200
00000000
,  // measure 30
00010300
00001000
00020000
00000000
00030020
00000000
00000230
00000000
,  // measure 31
00000302
00000000
00000023
00000000
,  // measure 32
00000000
00000130
00010000
00001000
,  // measure 33
01000000
00010000
02000000
00000000
03010000
10000000
00020000
00000000
,  // measure 34
00130000
01000000
00200000
00000000
00302000
00000000
00023000
00000000
,  // measure 35
00030200
00000000
00000320
00000000
,  // measure 36
00000000
00000000
00000031
00000000
00001000
00000000
00000010
00010000
,  // measure 37
00000010
00010000
00000020
00000000
00010030
00001000
00020000
00000000
,  // measure 38
00031000
00100000
00002000
00000000
02003000
00000000
03200000
00000000
,  // measure 39
20300000
00000000
30020000
00000000
,  // measure 40
00000000
00000000
00130000
00000000
00001000
00000000
00010000
00000100
,  // measure 41
00000020
00000000
00000000
00000000
,  // measure 42
00000031
00001000
00000100
00000000
00000010
00000000
00000001
00000000
00000000
00000000
00001000
00000000
00000000
00000000
00000010
00001000
,  // measure 43
00000001
00000100
00000010
00001000
00000001
00000100
00000010
00001000
00000010
00000100
00000001
00001000
00000010
00000100
00000001
00001000
,  // measure 44
00000010
00010000
00001000
00010000
00000010
00001000
00000010
00010000
00001000
00100000
00001000
00010000
00001000
00100000
00010000
00100000
,  // measure 45
01000000
10000000
00010000
00100000
01000000
10000000
00010000
00100000
00010000
10000000
01000000
00100000
00010000
00100000
01000000
00100000
,  // measure 46
00001000
00010000
00001000
00100000
00001000
00010000
00000010
00010000
00001000
00010000
00000010
00001000
00000010
00010000
00000010
00001000
,  // measure 47
00000001
00000100
00000010
00001000
00000001
00001000
00000010
00000100
00000001
00001000
00000001
00000100
00000010
00001000
00000001
00001000
,  // measure 48
00000010
00010000
00000010
00010000
00001000
00010000
00001000
00100000
00001000
00010000
00000010
00010000
00001000
00010000
00001000
00100000
,  // measure 49
01000000
10000000
00010000
00100000
01000000
10000000
00010000
00100000
00010000
10000000
01000000
00100000
00010000
00100000
01000000
10000000
,  // measure 50
00010000
00100000
00001000
00100000
00001000
00010000
00001000
00100000
00010000
00100000
00001000
00100000
00001000
00010000
00000010
00001000
,  // measure 51
00000010
00000100
00000001
00001000
00000001
00000100
00000010
00001000
00000010
00000100
00000001
00001000
00000010
00010000
00000010
00001000
,  // measure 52
00000010
00010000
00001000
00010000
00000010
00010000
00001000
00100000
00001000
00010000
00001000
00100000
00010000
00100000
00001000
00100000
,  // measure 53
00010000
10000000
00010000
00100000
01000000
10000000
00010000
00100000
00010000
10000000
01000000
00100000
00010000
00100000
00001000
00100000
,  // measure 54
00001000
00010000
00000010
00010000
00001000
00010000
00000010
00001000
00000010
00010000
00000010
00010000
00001000
00010000
00000010
00001000
,  // measure 55
00000001
00000100
00000010
00001000
00000001
00000100
00000010
00001000
00000001
00000100
00000001
00001000
00000010
00001000
00000010
00010000
,  // measure 56
00000010
00010000
00001000
00010000
00000010
00001000
00000010
00010000
00001000
00010000
00001000
00100000
00001000
00100000
00010000
00100000
,  // measure 57
01000000
10000000
00010000
00100000
01000000
10000000
00010000
00100000
01000000
10000000
00010000
00100000
00010000
00100000
00001000
00010000
,  // measure 58
00000010
00001000
00000010
00000100
00000001
00001000
00000001
00000100
00000010
00001000
00000001
00000100
00000010
00000100
00000001
00001000
,  // measure 59
00000010
00000000
00000000
00000000
;
