#TITLE:ORDINARY WORLD;
#SUBTITLE:;
#ARTIST:AURORA featuring NAIMEE COLEMAN;
#TITLETRANSLIT:;
#SUBTITLETRANSLIT:;
#ARTISTTRANSLIT:;
#CREDIT:;
#BANNER:../ddrstream fallback-bn.png;
#BACKGROUND:../ddrstream fallback-bg.png;
#LYRICSPATH:;
#CDTITLE:;
#MUSIC:ORDINARY WORLD.ogg;
#OFFSET:-0.002;
#SAMPLESTART:58.950;
#SAMPLELENGTH:13.770;
#SELECTABLE:YES;
#DISPLAYBPM:139.000;
#BPMS:0.000=138.491;
#STOPS:;
#BGCHANGES:;

//---------------dance-single - ----------------
#NOTES:
     dance-single:
     Dossar:
     Hard:
     11:
     0.815,0.911,0.000,0.234,1.000:
0000
0000
0000
0000
,
0000
0000
0000
0000
,
0000
0000
0000
0000
,
0000
0000
0000
0000
,
0000
0000
0000
0000
,
0000
0000
0000
0000
,
0001
0000
0000
0100
0010
0000
0100
0001
,
1000
0000
0000
0000
0000
0000
0001
0010
,
0100
1000
0000
0100
0000
0000
0100
0000
1000
0000
0000
1000
0000
0000
1000
0000
,
0001
0000
0000
0001
0000
0000
0001
0000
0010
0000
0000
0010
0000
0000
0010
0000
,
0001
1000
0000
0001
1000
0000
0010
0000
0100
0000
0000
0100
0001
0000
1000
0000
,
0100
0000
0000
0100
0010
0000
0001
0000
1000
0000
0000
1000
0100
0000
0010
0000
,
0001
0100
0000
0001
0100
0000
0010
0000
1000
0000
0000
1000
0001
0000
0010
0000
,
0100
0000
0000
0100
1000
0000
0001
0000
0010
0000
0000
0010
0100
0000
1000
0000
,
0001
1000
0000
0001
1000
0000
0010
0000
0100
0000
0000
0100
0001
0000
1000
0000
,
0100
0000
0000
0100
1000
0000
0001
0000
0010
0000
0000
0010
0001
0000
1000
0000
,
0010
0100
0000
0010
0100
0000
0001
0000
1000
0000
0000
1000
0010
0000
0100
0000
,
0001
0000
0000
0001
1000
0000
0100
0000
0010
0000
0001
0010
0001
0000
1000
0010
,
1000
0001
0100
0010
1000
0001
0100
0010
1000
0001
0100
0001
1000
0010
0100
0001
,
1000
0100
0010
0001
1000
0100
0010
0001
0010
0100
1000
0001
0010
0100
1000
0001
,
0100
0010
1000
0001
0100
0010
1000
0010
0100
0001
1000
0010
1000
0001
0100
0010
,
1000
0001
0010
0100
1000
0001
0010
0001
1000
0100
0010
0001
1000
0100
0010
0100
,
1000
0001
1000
0010
0100
0001
1000
0010
0100
0010
1000
0001
0100
0010
1000
0001
,
0010
0100
1000
0001
0010
0100
1000
0100
0010
0001
1000
0100
0010
0001
0010
0100
,
1000
0001
0100
0010
0100
0001
1000
0010
0100
0001
1000
0010
1000
0001
0100
0001
,
1000
0100
1000
0001
0010
0001
1000
0100
0010
0001
1000
0100
0010
0001
0010
0100
,
2000
0000
3002
0000
0203
0000
0320
2030
,
0000
3002
0000
0000
0000
0003
0000
0000
,
2000
3200
0320
0032
,
0000
0003
0000
0000
,
2000
3002
0203
0320
,
0030
0000
2000
0000
3002
0000
0003
0020
,
0230
0000
0000
2300
0000
0000
0000
0000
0000
0000
0000
0000
3000
0000
0000
0000
,
0000
0000
0000
0000
0020
0230
0320
0000
,
1030
0001
0100
0010
1000
0001
0100
0010
1000
0001
0100
0001
1000
0010
0100
0001
,
1000
0100
0010
0001
1000
0100
0010
0001
0010
0100
1000
0001
0010
0100
1000
0001
,
0100
0010
1000
0001
0100
0010
1000
0010
0100
0001
1000
0010
1000
0001
0100
0010
,
1000
0001
0010
0100
1000
0001
0010
0001
1000
0100
0010
0001
1000
0100
0010
0100
,
1000
0001
1000
0010
0100
0001
1000
0010
0100
0010
1000
0001
0100
0010
1000
0001
,
0010
0100
1000
0001
0010
0100
1000
0100
0010
0001
1000
0100
0010
0001
0010
0100
,
1000
0001
0100
0010
0100
0001
1000
0010
0100
0001
1000
0010
1000
0001
0100
0001
,
1000
0100
1000
0001
0010
0001
1000
0100
0010
0001
1000
0100
0010
0001
0010
0100
,
1000
0001
1000
0010
0100
0001
1000
0010
0100
0001
1000
0010
1000
0001
0100
0010
,
1000
0001
0010
0001
1000
0100
0010
0001
1000
0100
1000
0001
0010
0100
1000
0001
,
0100
0010
0100
0001
1000
0010
0100
0001
1000
0010
0100
0010
1000
0001
0100
0010
,
1000
0001
0010
0100
1000
0100
0010
0001
1000
0100
0010
0001
0010
0100
1000
0001
,
0100
0010
1000
0010
0100
0001
1000
0010
0100
0001
1000
0010
0100
0001
1000
0001
,
0010
0100
1000
0001
0010
0100
1000
0100
0010
0001
1000
0100
1000
0001
0010
0100
,
1000
0001
0100
0010
1000
0010
0100
0001
1000
0010
0100
0001
0100
0010
1000
0001
,
0010
0100
1000
0001
0010
0100
0010
0001
1000
0100
0010
0001
1000
0100
0010
0001
,
1000
0010
0000
1000
0010
0000
0100
0000
0001
0000
0000
0001
1000
0000
0100
0000
,
0010
0000
0000
0010
0001
0000
1000
0000
0100
0000
0000
0100
0010
0000
0001
0000
;

//---------------dance-single - ----------------
#NOTES:
     dance-single:
     Dossar:
     Challenge:
     12:
     0.942,0.911,0.000,0.000,1.000:
0000
0000
0000
0000
,
0000
0000
0000
0000
,
0000
0000
0000
0000
,
0000
0000
0000
0000
,
0000
0000
0000
0000
,
0000
0000
0000
0000
,
0001
0000
0000
0100
0010
0000
0100
0001
,
1000
0000
0000
0000
0000
0000
0001
0010
,
0100
1000
0000
0100
0000
0000
0100
0000
1000
0000
0000
1000
0000
0000
1000
0000
,
0001
0000
0000
0001
0000
0000
0001
0000
0010
0000
0000
0010
0000
0000
0010
0000
,
0001
1000
0000
0001
1000
0000
0010
0000
0100
0000
0000
0100
0001
0000
1000
0000
,
0100
0000
0000
0100
0010
0000
0001
0000
1000
0000
0000
1000
0100
0000
0010
0000
,
0001
0100
0000
0001
0100
0000
0010
0000
1000
0000
0000
1000
0001
0000
0010
0000
,
0100
0000
0000
0100
1000
0000
0001
0000
0010
0000
0000
0010
0100
0000
1000
0000
,
0001
1000
0000
0001
1000
0000
0010
0000
0100
0000
0000
0100
0001
0000
1000
0000
,
0100
0000
0000
0100
1000
0000
0001
0000
0010
0000
0000
0010
0001
0000
1000
0000
,
0010
0100
0000
0010
0100
0000
0001
0000
1000
0000
0000
1000
0010
0000
0100
0000
,
0001
0000
0000
0001
1000
0000
0100
0000
0010
0000
0001
0010
0001
0000
1000
0010
,
1000
0001
0100
0010
1000
0001
0100
0010
1000
0001
0100
0001
1000
0010
0100
0001
,
1000
0100
0010
0001
1000
0100
0010
0001
0010
0100
1000
0001
0010
0100
1000
0001
,
0100
0010
1000
0001
0100
0010
1000
0010
0100
0001
1000
0010
1000
0001
0100
0010
,
1000
0001
0010
0100
1000
0001
0010
0001
1000
0100
0010
0001
1000
0100
0010
0100
,
1000
0001
1000
0010
0100
0001
1000
0010
0100
0010
1000
0001
0100
0010
1000
0001
,
0010
0100
1000
0001
0010
0100
1000
0100
0010
0001
1000
0100
0010
0001
0010
0100
,
1000
0001
0100
0010
0100
0001
1000
0010
0100
0001
1000
0010
1000
0001
0100
0001
,
1000
0100
1000
0001
0010
0001
1000
0100
0010
0001
1000
0100
0010
0001
0010
0100
,
1000
0001
1000
0010
0100
0001
1000
0010
0100
0001
1000
0010
1000
0001
0100
0010
,
1000
0001
0010
0001
1000
0100
0010
0001
1000
0100
1000
0001
0010
0100
1000
0001
,
0100
0010
0100
0001
1000
0010
0100
0001
1000
0010
0100
0010
1000
0001
0100
0010
,
1000
0001
0010
0100
1000
0100
0010
0001
1000
0100
0010
0001
0010
0100
1000
0001
,
0100
0010
1000
0010
0100
0001
1000
0010
0100
0001
1000
0010
0100
0001
1000
0001
,
0010
0100
1000
0001
0010
0100
1000
0100
0010
0001
1000
0100
1000
0001
0010
0100
,
1000
0001
0100
0010
1000
0010
0100
0001
1000
0010
0100
0001
0100
0010
1000
0001
,
0010
0100
1000
0001
0010
0100
0010
0001
1000
0100
0010
0001
1000
0100
0010
0001
,
1000
0001
0100
0010
1000
0001
0100
0010
1000
0001
0100
0001
1000
0010
0100
0001
,
1000
0100
0010
0001
1000
0100
0010
0001
0010
0100
1000
0001
0010
0100
1000
0001
,
0100
0010
1000
0001
0100
0010
1000
0010
0100
0001
1000
0010
1000
0001
0100
0010
,
1000
0001
0010
0100
1000
0001
0010
0001
1000
0100
0010
0001
1000
0100
0010
0100
,
1000
0001
1000
0010
0100
0001
1000
0010
0100
0010
1000
0001
0100
0010
1000
0001
,
0010
0100
1000
0001
0010
0100
1000
0100
0010
0001
1000
0100
0010
0001
0010
0100
,
1000
0001
0100
0010
0100
0001
1000
0010
0100
0001
1000
0010
1000
0001
0100
0001
,
1000
0100
1000
0001
0010
0001
1000
0100
0010
0001
1000
0100
0010
0001
0010
0100
,
1000
0001
1000
0010
0100
0001
1000
0010
0100
0001
1000
0010
1000
0001
0100
0010
,
1000
0001
0010
0001
1000
0100
0010
0001
1000
0100
1000
0001
0010
0100
1000
0001
,
0100
0010
0100
0001
1000
0010
0100
0001
1000
0010
0100
0010
1000
0001
0100
0010
,
1000
0001
0010
0100
1000
0100
0010
0001
1000
0100
0010
0001
0010
0100
1000
0001
,
0100
0010
1000
0010
0100
0001
1000
0010
0100
0001
1000
0010
0100
0001
1000
0001
,
0010
0100
1000
0001
0010
0100
1000
0100
0010
0001
1000
0100
1000
0001
0010
0100
,
1000
0001
0100
0010
1000
0010
0100
0001
1000
0010
0100
0001
0100
0010
1000
0001
,
0010
0100
1000
0001
0010
0100
0010
0001
1000
0100
0010
0001
1000
0100
0010
0001
,
1000
0010
0000
1000
0010
0000
0100
0000
0001
0000
0000
0001
1000
0000
0100
0000
,
0010
0000
0000
0010
0001
0000
1000
0000
0100
0000
0000
0100
0010
0000
0001
0000
;

//---------------dance-single - ----------------
#NOTES:
     dance-single:
     Dossar:
     Medium:
     10:
     0.682,0.911,0.000,0.287,0.851:
0000
0000
0000
0000
,
0000
0000
0000
0000
,
0000
0000
0000
0000
,
0000
0000
0000
0000
,
0000
0000
0000
0000
,
0000
0000
0000
0000
,
0001
0000
0000
0100
0010
0000
0100
0001
,
1000
0000
0000
0000
0000
0000
0001
0010
,
0100
1000
0000
0100
0000
0000
0100
0000
1000
0000
0000
1000
0000
0000
1000
0000
,
0001
0000
0000
0001
0000
0000
0001
0000
0010
0000
0000
0010
0000
0000
0010
0000
,
0001
1000
0000
0001
1000
0000
0010
0000
0100
0000
0000
0100
0001
0000
1000
0000
,
0100
0000
0000
0100
0010
0000
0001
0000
1000
0000
0000
1000
0100
0000
0010
0000
,
0001
0100
0000
0001
0100
0000
0010
0000
1000
0000
0000
1000
0001
0000
0010
0000
,
0100
0000
0000
0100
1000
0000
0001
0000
0010
0000
0000
0010
0100
0000
1000
0000
,
0001
1000
0000
0001
1000
0000
0010
0000
0100
0000
0000
0100
0001
0000
1000
0000
,
0100
0000
0000
0100
1000
0000
0001
0000
0010
0000
0000
0010
0001
0000
1000
0000
,
0010
0100
0000
0010
0100
0000
0001
0000
1000
0000
0000
1000
0010
0000
0100
0000
,
0001
0000
0000
0001
1000
0000
0100
0000
0010
0000
0001
0010
0001
0000
1000
0010
,
1000
0001
0100
0010
1000
0001
0100
0010
1000
0001
0100
0001
1000
0010
0100
0001
,
1000
0100
0010
0001
1000
0100
0010
0001
0010
0100
1000
0001
0010
0100
1000
0001
,
0100
0010
1000
0001
0100
0010
1000
0010
0100
0001
1000
0010
1000
0001
0100
0010
,
1000
0001
0010
0100
1000
0001
0010
0001
1000
0100
0010
0001
1000
0100
0010
0100
,
1000
0001
1000
0010
0100
0001
1000
0010
0100
0010
1000
0001
0100
0010
1000
0001
,
0010
0100
1000
0001
0010
0100
1000
0100
0010
0001
1000
0100
0010
0001
0010
0100
,
1000
0001
0100
0010
0100
0001
1000
0010
0100
0001
1000
0010
1000
0001
0100
0001
,
1000
0100
1000
0001
0010
0001
1000
0100
0010
0001
1000
0100
0010
0001
0010
0100
,
2000
0000
3002
0000
0203
0000
0320
2030
,
0000
3002
0000
0000
0000
0003
0000
0000
,
2000
3200
0320
0032
,
0000
0003
0000
0000
,
2000
3002
0203
0320
,
0030
0000
2000
0000
3002
0000
0003
0020
,
0230
0000
0000
2300
0000
0000
0000
0000
0000
0000
0000
0000
3000
0000
0000
0000
,
0000
0000
0000
0000
0020
0230
0320
0000
,
1030
0001
0100
0010
1000
0001
0100
0010
1000
0001
0100
0001
1000
0010
0100
0001
,
1000
0100
0010
0001
1000
0100
0010
0001
0010
0100
1000
0001
0010
0100
1000
0001
,
0100
0010
1000
0001
0100
0010
1000
0010
0100
0001
1000
0010
1000
0001
0100
0010
,
1000
0001
0010
0100
1000
0001
0010
0001
1000
0100
0010
0001
1000
0100
0010
0100
,
1000
0000
0001
0000
0100
0010
0000
2000
,
0001
0000
3001
0000
0020
0000
0130
2000
,
0001
0001
0001
3001
,
1000
0001
0100
0010
,
1000
0001
1000
0010
0100
0001
1000
0010
0100
0001
1000
0010
1000
0001
0100
0010
,
1000
0001
0010
0001
1000
0100
0010
0001
1000
0100
1000
0001
0010
0100
1000
0001
,
0100
0010
0100
0001
1000
0010
0100
0001
1000
0010
0100
0010
1000
0001
0100
0010
,
1000
0001
0010
0100
1000
0100
0010
0001
1000
0100
0010
0001
0010
0100
1000
0001
,
0100
0000
0010
0000
1000
0001
0000
0020
,
0100
0000
0130
0000
1000
0000
0001
0200
,
0010
0010
0010
0310
,
1000
0010
0100
0001
,
1000
0010
0000
1000
0010
0000
0100
0000
0001
0000
0000
0001
1000
0000
0100
0000
,
0010
0000
0000
0010
0001
0000
1000
0000
0100
0000
0000
0100
0010
0000
0001
0000
;

//---------------dance-double - ----------------
#NOTES:
     dance-double:
     Dossar:
     Challenge:
     11:
     0.801,0.908,0.000,0.245,1.000: // measure 1
00000000
00000000
00000000
00000000
,  // measure 2
00000000
00000000
00000000
00000000
,  // measure 3
00000000
00000000
00000000
00000000
,  // measure 4
00000000
00000000
00000000
00000000
,  // measure 5
00000000
00000000
00000000
00000000
,  // measure 6
00000000
00000000
00000000
00000000
,  // measure 7
10000000
00000000
00000000
00010000
01000000
00000000
00010000
01000000
,  // measure 8
00001000
00000000
00000000
00010000
00000100
00000000
00010000
00000100
,  // measure 9
00001000
00000001
00000000
00001000
00000000
00000000
00001000
00000000
00000100
00000000
00000000
00000100
00000000
00000000
00000100
00000000
,  // measure 10
00010000
00000000
00000000
00010000
00000000
00000000
00010000
00000000
00001000
00000000
00000000
00001000
00000000
00000000
00001000
00000000
,  // measure 11
00100000
00010000
00000000
00100000
01000000
00000000
10000000
00000000
00010000
00000000
00000000
00010000
01000000
00000000
00001000
00000000
,  // measure 12
00010000
00000000
00000000
00010000
00000100
00000000
00001000
00000000
00000010
00000000
00000000
00000010
00001000
00000000
00000001
00000000
,  // measure 13
00001000
00000100
00000000
00001000
00000010
00000000
00010000
00000000
00001000
00000000
00000000
00001000
00100000
00000000
00010000
00000000
,  // measure 14
01000000
00000000
00000000
01000000
00100000
00000000
10000000
00000000
00010000
00000000
00000000
00010000
00100000
00000000
00001000
00000000
,  // measure 15
00010000
00001000
00000000
00010000
00000100
00000000
00000010
00000000
00000001
00000000
00000000
00000001
00000100
00000000
00000010
00000000
,  // measure 16
00010000
00000000
00000000
00010000
00001000
00000000
00100000
00000000
01000000
00000000
00000000
01000000
10000000
00000000
00010000
00000000
,  // measure 17
01000000
00010000
00000000
01000000
00001000
00000000
00010000
00000000
00000100
00000000
00000000
00000100
00000010
00000000
00000001
00000000
,  // measure 18
00001000
00000000
00000000
00001000
00000010
00000000
00010000
00000000
00001000
00000000
00100000
00010000
00100000
00000000
00010000
10000000
,  // measure 19
00010000
01000000
00100000
10000000
00010000
01000000
00010000
10000000
00100000
01000000
00010000
00100000
00001000
00010000
00001000
00100000
,  // measure 20
00001000
00010000
00000100
00001000
00000100
00000010
00000100
00001000
00000001
00000010
00000100
00001000
00000001
00000010
00000100
00010000
,  // measure 21
00000100
00010000
00001000
00100000
00010000
00100000
01000000
10000000
00010000
00100000
00010000
10000000
01000000
00100000
00010000
00100000
,  // measure 22
00001000
00010000
00001000
00100000
00001000
00010000
00000010
00001000
00000010
00000100
00000001
00001000
00000010
00010000
00000010
00010000
,  // measure 23
00001000
01000000
00001000
00010000
00001000
01000000
00010000
01000000
00100000
10000000
00010000
01000000
00010000
10000000
01000000
00100000
,  // measure 24
00010000
00100000
00001000
00010000
00001000
00010000
00000100
00001000
00000100
00000010
00000001
00001000
00000100
00000010
00000100
00001000
,  // measure 25
00000100
00010000
00001000
00010000
00000100
00010000
00001000
00100000
00010000
00100000
01000000
10000000
00010000
01000000
00001000
00010000
,  // measure 26
00001000
00010000
00000010
00000100
00000001
00000100
00000010
00001000
00000001
00000100
00000010
00001000
00000010
00000100
00000001
00001000
,  // measure 27
00000002
00000000
00000203
00000000
00000320
00000000
00020030
00032000
,  // measure 28
00000000
00023000
00000000
00000000
00000000
00030000
00000000
00000000
,  // measure 29
00002000
00203000
02300000
23000000
,  // measure 30
00000000
30000000
00000000
00000000
,  // measure 31
00020000
02030000
03002000
00023000
,  // measure 32
00030000
00000000
00000200
00000000
00002300
00000000
00003000
00000200
,  // measure 33
00000320
00000000
00000000
00000032
00000000
00000000
00000000
00000000
00000000
00000000
00000000
00000000
00000003
00000000
00000000
00000000
,  // measure 34
00000000
00000000
00000000
00000000
00000002
00002003
00003002
00000000
,  // measure 35
00001003
00000010
00000100
00000001
00001000
00000010
00001000
00000001
00000100
00000010
00001000
00000100
00010000
00001000
00010000
00000100
,  // measure 36
00010000
00001000
00100000
00010000
00100000
01000000
00100000
00010000
10000000
01000000
00100000
00010000
10000000
01000000
00100000
00001000
,  // measure 37
00100000
00001000
00010000
00000100
00001000
00000100
00000010
00000001
00001000
00000100
00001000
00000001
00000010
00000100
00001000
00000100
,  // measure 38
00010000
00001000
00010000
00000100
00010000
00001000
01000000
00010000
01000000
00100000
10000000
00010000
01000000
00001000
01000000
00001000
,  // measure 39
00010000
00000010
00010000
00001000
00010000
00000010
00001000
00000010
00000100
00000001
00001000
00000010
00001000
00000001
00000010
00000100
,  // measure 40
00001000
00000100
00010000
00001000
00010000
00001000
00100000
00010000
00100000
01000000
10000000
00010000
00100000
01000000
00100000
00010000
,  // measure 41
00100000
00001000
00010000
00001000
00100000
00001000
00010000
00000100
00001000
00000100
00000010
00000001
00001000
00000010
00010000
00001000
,  // measure 42
00010000
00001000
01000000
00100000
10000000
00100000
01000000
00010000
10000000
00100000
01000000
00010000
01000000
00010000
00100000
00001000
,  // measure 43
00010000
00000010
00010000
00001000
00010000
00000010
00000100
00000010
00001000
00000001
00000100
00000010
00001000
00000010
00010000
00001000
,  // measure 44
00010000
00001000
00100000
00010000
00100000
01000000
10000000
00010000
00100000
01000000
10000000
00010000
00100000
00001000
00100000
00001000
,  // measure 45
00010000
00000100
00010000
00001000
00010000
00000100
00000010
00000001
00001000
00000100
00000010
00000001
00001000
00000100
00010000
00001000
,  // measure 46
00010000
00001000
00100000
00010000
10000000
00010000
01000000
00100000
10000000
00010000
01000000
00100000
01000000
00001000
00010000
00001000
,  // measure 47
01000000
00001000
00010000
00000010
00010000
00001000
00010000
00000010
00001000
00000010
00000100
00000001
00001000
00000010
00010000
00001000
,  // measure 48
00100000
00001000
00010000
00001000
00100000
00010000
00100000
01000000
10000000
00010000
00100000
00010000
10000000
01000000
00100000
00010000
,  // measure 49
00100000
00001000
00010000
00000100
00010000
00001000
00010000
00000010
00001000
00000010
00010000
00001000
00010000
00000010
00010000
00001000
,  // measure 50
00100000
00010000
00100000
01000000
10000000
00010000
00100000
01000000
10000000
01000000
00100000
00010000
00100000
00001000
00010000
00001000
,  // measure 51
00200000
00010000
00000000
00001000
,  // measure 52
00000000
00010000
00000000
00301000
;
