#TITLE:MAGIC DOOR(Theme of SPACE MACO);
#SUBTITLE:;
#ARTIST:a.s.a.;
#SUBTITLETRANSLIT:;
#ARTISTTRANSLIT:;
#CREDIT:;
#BANNER:../ddrstream fallback-bn.png;
#BACKGROUND:../ddrstream fallback-bg.png;
#LYRICSPATH:;
#CDTITLE:;
#MUSIC:MAGIC DOOR(Theme of SPACE MACO).ogg;
#OFFSET:-0.003;
#SAMPLESTART:13.050;
#SAMPLELENGTH:22.100;
#SELECTABLE:YES;
#DISPLAYBPM:184.000;
#BPMS:0.000=184.000;
#STOPS:;
#BGCHANGES:;

//---------------dance-single - ----------------
#NOTES:
     dance-single:
     Dossar:
     Challenge:
     13:
     1.000,1.000,0.000,0.241,1.000:
0000
0000
0000
0000
,
0000
0000
0000
0000
,
0000
0000
0000
0000
,
0000
0000
0000
0000
,
0000
0000
0000
0000
,
0000
0001
1000
0010
,
0100
0000
0000
0000
0001
1000
0000
0001
,
0000
1000
0100
0000
0010
0000
0001
0000
,
0100
0000
0000
0010
1000
0001
0000
1000
,
0000
0000
0001
1000
0010
0100
0001
1000
0010
0100
0001
1000
0010
0100
0001
1000
,
0001
0100
0010
1000
0010
0100
0001
1000
0010
1000
0001
0100
0010
1000
0001
0100
,
0001
1000
0100
1000
0001
0010
0100
1000
0001
0010
0001
1000
0100
0010
0001
1000
,
0100
1000
0001
0100
0001
1000
0100
0010
0001
1000
0100
1000
0001
0010
0001
1000
,
0100
0010
0001
1000
0010
1000
0001
0100
0001
1000
0010
0100
0001
0100
0010
1000
,
0001
0100
0010
1000
0001
0100
0001
1000
0001
0010
0100
1000
0001
1000
0100
0010
,
0001
1000
0001
0010
0100
1000
0001
1000
0010
0100
0001
1000
0010
0100
0001
0100
,
0010
1000
0001
0100
0010
1000
0001
0100
0001
1000
0100
1000
0001
0010
0001
1000
,
0100
1000
0001
0010
0100
1000
0001
1000
0001
0010
0100
1000
0001
0010
0100
1000
,
0001
0100
0010
1000
0001
0100
0001
1000
0010
1000
0001
0100
0010
1000
0001
0100
,
0010
1000
0001
1000
0001
0010
0100
1000
0001
1000
0100
0010
0001
0010
0100
1000
,
0001
1000
0010
0100
0001
0100
0010
1000
0001
1000
0001
0100
0010
1000
0001
1000
,
0001
0010
0100
1000
0100
0010
0001
1000
0001
0010
0100
1000
0001
1000
0001
0100
,
0010
1000
0001
1000
0001
0100
0010
1000
0010
0100
0001
1000
0001
1000
0010
0100
,
0001
1000
0010
1000
0001
0010
0100
1000
0001
0010
0001
1000
0100
0010
0001
1000
,
0010
0100
0001
1000
0010
0100
0001
0100
0010
1000
0001
0100
0010
1000
0001
1000
,
0100
0010
0001
1000
0100
0010
0001
1000
0100
1000
0001
0010
0100
1000
0001
1000
,
0010
0100
0001
1000
0010
0100
0001
1000
0010
0100
0001
1000
0010
0100
0001
1000
,
0010
0100
0001
1000
0000
0200
0320
0032
,
0003
0000
1000
0010
,
0100
0001
0000
1000
0000
0002
0203
0320
,
0030
0000
2000
0000
3000
0000
0002
0000
0003
0000
0010
0100
0010
0000
0002
0000
,
0003
1000
0010
0100
,
0001
0000
0000
0000
0000
0000
1000
0000
0000
0000
0000
0000
0100
0000
0010
0001
,
0020
0030
0000
0000
0000
0001
1000
0010
,
0000
0000
0200
0000
0300
0000
0000
0000
0002
0000
1003
0100
1000
0000
0000
0000
,
0001
0100
0010
1000
0000
0020
0230
0302
,
0003
0000
0000
1000
0100
0000
0010
0000
,
0001
0010
0100
1000
0000
0002
2003
3020
,
0030
0000
0200
0000
0300
0000
0002
0000
0003
0000
0100
0010
0100
0000
0002
0000
,
0003
1000
0100
0010
,
0001
0000
0000
0000
0000
0000
1000
0000
0000
0000
0000
0000
0010
0000
0100
0001
,
0200
0310
1000
0001
0010
0100
0010
0001
,
1000
0000
0001
0100
0001
0000
1000
0010
0100
0001
1000
0010
0100
0001
0100
0010
,
1000
0000
0001
0010
0001
0000
1000
0100
0010
0001
1000
0100
0010
0001
0010
0100
,
1000
0000
0001
0100
0010
1000
0001
0100
0010
1000
0001
0100
0010
1000
0001
0010
,
0100
0000
1000
0100
0010
0001
1000
0100
0010
0001
1000
0100
0010
0001
1000
0001
,
0100
0010
0100
0001
1000
0010
0100
0001
1000
0010
1000
0001
0100
0010
1000
0001
,
0010
0000
0100
0000
0010
0000
0001
1000
0001
0000
0100
0000
0010
0000
0100
0000
,
0001
1000
0100
1000
0001
0010
0100
1000
0001
0100
0001
1000
0010
1000
0001
0100
,
0010
1000
0001
0100
0010
1000
0001
0010
0001
1000
0100
0010
0001
1000
0100
0010
,
0100
1000
0001
0010
0100
1000
0001
0010
0001
1000
0010
1000
0001
0100
0001
1000
,
0100
1000
0001
0010
0001
1000
0010
0100
0001
1000
0010
0100
0001
1000
0010
0100
,
0001
1000
0100
0010
0001
1000
0100
0010
0001
1000
0010
0100
0001
1000
0010
0100
,
0010
1000
0001
0100
0010
1000
0001
0010
0001
1000
0100
0010
0001
1000
0100
0010
,
0001
0010
0100
1000
0001
0010
0100
1000
0001
0010
0001
1000
0100
0010
0001
1000
,
0001
0100
0010
1000
0001
0100
0010
1000
0001
0100
0001
1000
0010
1000
0001
0100
,
0010
1000
0001
0010
0100
1000
0001
0010
0100
0010
0001
1000
0100
0010
0001
1000
,
0100
1000
0001
0100
0001
1000
0010
1000
0001
0010
0001
1000
0100
1000
0001
0010
,
0100
1000
0001
0010
0100
1000
0001
0100
0010
1000
0001
0100
0010
1000
0001
0100
,
0001
1000
0010
1000
0001
0010
0001
1000
0100
0010
0001
1000
0100
0010
0001
1000
,
0100
1000
0001
0010
0100
1000
0001
0100
0010
1000
0001
0100
0010
1000
0001
0100
,
0001
1000
0100
0010
0001
1000
0100
0010
0001
1000
0100
1000
0001
0010
0100
1000
,
0001
0100
0010
1000
0001
0100
0010
1000
0001
0100
0001
1000
0010
1000
0001
0100
,
0010
1000
0001
0010
0100
1000
0001
0010
0100
0010
0001
1000
0100
0010
0001
1000
,
0010
0100
0001
1000
0001
0100
0010
1000
0001
0100
0001
1000
0010
0100
0001
1000
,
0001
0000
0000
0000
;

//---------------dance-single - ----------------
#NOTES:
     dance-single:
     Dossar:
     Hard:
     13:
     0.950,1.000,0.000,0.241,1.000:
0000
0000
0000
0000
,
0000
0000
0000
0000
,
0000
0000
0000
0000
,
0000
0000
0000
0000
,
0000
0000
0000
0000
,
0000
0001
1000
0010
,
0100
0000
0000
0000
0001
1000
0000
0001
,
0000
1000
0100
0000
0010
0000
0001
0000
,
0100
0000
0000
0010
1000
0001
0000
1000
,
0000
0000
0001
1000
0010
0100
0001
1000
0010
0100
0001
1000
0010
0100
0001
1000
,
0001
0100
0010
1000
,
0001
0000
1000
0001
0100
0000
0010
0000
,
1000
0000
0100
0010
0001
0000
0010
0000
,
0100
1000
0100
0010
0001
1000
0100
0010
,
0001
0000
1000
0001
0100
0000
0001
1000
,
0010
0100
0001
1000
,
0001
0000
0010
0100
1000
0100
0010
0001
,
1000
0000
0001
0100
0001
0000
1000
0010
1000
0001
0100
0010
1000
0001
0100
0001
,
1000
0010
0100
0001
1000
0010
1000
0001
0100
0001
1000
0010
0100
0001
1000
0010
,
0100
0001
1000
0001
1000
0100
0010
0001
1000
0001
0010
0100
1000
0100
0010
0001
,
1000
0001
0100
0010
1000
0010
0100
0001
1000
0001
1000
0010
0100
0001
1000
0001
,
1000
0100
0010
0001
0010
0100
1000
0001
1000
0100
0010
0001
1000
0001
1000
0010
,
0100
0001
1000
0001
1000
0010
0100
0001
0100
0010
1000
0001
1000
0001
0100
0010
,
1000
0001
0100
0001
1000
0100
0010
0001
1000
0100
1000
0001
0010
0100
1000
0001
,
0100
0010
1000
0001
0100
0010
1000
0010
0100
0001
1000
0010
0100
0001
1000
0001
,
0010
0100
1000
0001
0010
0100
1000
0001
0010
0001
1000
0100
0010
0001
1000
0001
,
0100
0010
1000
0001
0100
0010
1000
0001
0100
0010
1000
0001
0100
0010
1000
0001
,
0100
0010
1000
0001
0000
0020
0230
2300
,
3000
0000
0001
0100
,
0010
1000
0000
0001
0000
2000
3020
0230
,
0300
0000
0002
0000
0003
0000
2000
0000
3000
0000
0100
0010
0100
0000
2000
0000
,
3000
0001
0100
0010
,
1000
0000
0000
0000
0000
0000
0001
0000
0000
0000
0000
0000
0010
0000
0100
1000
,
0200
0300
0000
0000
0000
1000
0001
0100
,
0000
0000
0020
0000
0030
0000
0000
0000
2000
0000
3001
0010
0001
0000
0000
0000
,
1000
0010
0100
0001
0000
0200
0320
2030
,
3000
0000
0000
0001
0010
0000
0100
0000
,
1000
0100
0010
0001
0000
2000
3002
0203
,
0300
0000
0020
0000
0030
0000
2000
0000
3000
0000
0010
0100
0010
0000
2000
0000
,
3000
0001
0010
0100
,
1000
0000
0000
0000
0000
0000
0001
0000
0000
0000
0000
0000
0100
0000
0010
1000
,
0020
0130
0001
1000
0100
0010
0100
1000
,
0001
0000
1000
0010
1000
0000
0001
0100
0010
1000
0001
0100
0010
1000
0010
0100
,
0001
0000
1000
0100
1000
0000
0001
0010
0100
1000
0001
0010
0100
1000
0100
0010
,
0001
0000
1000
0010
0100
0001
1000
0010
0100
0001
1000
0010
0100
0001
1000
0100
,
0010
0000
0001
0010
0100
1000
0001
0010
0100
1000
0001
0010
0100
1000
0001
1000
,
0010
0100
0010
1000
0001
0100
0010
1000
0001
0100
0001
1000
0010
0100
0001
1000
,
0100
0000
0010
0000
0100
0000
1000
0001
1000
0000
0010
0000
0100
0000
0010
0000
,
1000
0010
0100
0001
,
1000
0000
0001
1000
0010
0000
0100
0000
,
0001
0000
0010
0100
1000
0000
0100
0000
,
0010
0001
0010
0100
1000
0001
0010
0100
,
1000
0000
0001
1000
0010
0000
1000
0001
,
0100
0010
1000
0001
,
1000
0000
0100
0010
0001
0010
0100
1000
,
0001
0000
1000
0010
1000
0000
0001
0100
0001
1000
0010
0100
0001
1000
0010
1000
,
0001
0100
0010
1000
0001
0100
0001
1000
0010
1000
0001
0100
0010
1000
0001
0100
,
0010
1000
0001
1000
0001
0010
0100
1000
0001
1000
0100
0010
0001
0010
0100
1000
,
0001
1000
0010
0100
0001
0100
0010
1000
0001
1000
0001
0100
0010
1000
0001
1000
,
0001
0010
0100
1000
0100
0010
0001
1000
0001
0010
0100
1000
0001
1000
0001
0100
,
0010
1000
0001
1000
0001
0100
0010
1000
0010
0100
0001
1000
0001
1000
0010
0100
,
0001
1000
0010
1000
0001
0010
0100
1000
0001
0010
0001
1000
0100
0010
0001
1000
,
0010
0100
0001
1000
0010
0100
0001
0100
0010
1000
0001
0100
0010
1000
0001
1000
,
0100
0010
0001
1000
0100
0010
0001
1000
0100
1000
0001
0010
0100
1000
0001
1000
,
0010
0100
0001
1000
0010
0100
0001
1000
0010
0100
0001
1000
0010
0100
0001
1000
,
0010
0000
0000
0000
;

//---------------dance-single - ----------------
#NOTES:
     dance-single:
     Dossar:
     Medium:
     12:
     0.819,1.000,0.000,0.241,0.762:
0000
0000
0000
0000
,
0000
0000
0000
0000
,
0000
0000
0000
0000
,
0000
0000
0000
0000
,
0000
0000
0000
0000
,
0000
0001
1000
0010
,
0100
0000
0000
0000
0001
1000
0000
0001
,
0000
1000
0100
0000
0010
0000
0001
0000
,
0100
0000
0000
0010
1000
0001
0000
1000
,
0000
0000
0001
1000
0010
0100
0001
1000
0010
0100
0001
1000
0010
0100
0001
1000
,
0001
0100
0010
1000
,
0001
0000
1000
0001
0100
0000
0010
0000
,
1000
0000
0100
0010
0001
0000
0010
0000
,
0100
1000
0100
0010
0001
1000
0100
0010
,
0001
0000
1000
0001
0100
0000
0001
1000
,
0010
0100
0001
1000
,
0001
0000
0010
0100
1000
0100
0010
0001
,
1000
0000
0001
0100
0001
0000
1000
0010
1000
0001
0100
0010
1000
0001
0100
0001
,
1000
0010
0100
0001
,
1000
0000
0100
0010
0001
0000
0010
0000
,
0100
0000
1000
0001
0100
0000
0010
0000
,
1000
0010
0100
0001
1000
0001
0100
0010
,
0100
0001
1000
0001
1000
0010
0100
0001
0100
0010
1000
0001
1000
0001
0100
0010
,
1000
0001
0100
0001
1000
0100
0010
0001
1000
0100
1000
0001
0010
0100
1000
0001
,
0100
0010
1000
0001
0100
0010
1000
0010
0100
0001
1000
0010
0100
0001
1000
0001
,
0010
0100
1000
0001
0010
0100
1000
0001
0010
0001
1000
0100
0010
0001
1000
0001
,
0100
0010
1000
0001
0100
0010
1000
0001
0100
0010
1000
0001
0100
0010
1000
0001
,
0100
0010
1000
0001
0000
0020
0230
2300
,
3000
0000
0001
0100
,
0010
1000
0000
0001
0000
2000
3020
0230
,
0300
0000
0002
0000
0003
0000
2000
0000
3000
0000
0100
0010
0100
0000
2000
0000
,
3000
0001
0100
0010
,
1000
0000
0000
0000
0000
0000
0001
0000
0000
0000
0000
0000
0010
0000
0100
1000
,
0200
0300
0000
0000
0000
1000
0001
0100
,
0000
0000
0020
0000
0030
0000
0000
0000
2000
0000
3001
0010
0001
0000
0000
0000
,
1000
0010
0100
0001
0000
0200
0320
2030
,
3000
0000
0000
0001
0010
0000
0100
0000
,
1000
0100
0010
0001
0000
2000
3002
0203
,
0300
0000
0020
0000
0030
0000
2000
0000
3000
0000
0010
0100
0010
0000
2000
0000
,
3000
0001
0010
0100
,
1000
0000
0000
0000
0000
0000
0001
0000
0000
0000
0000
0000
0100
0000
0010
1000
,
0020
0130
0001
1000
0100
0010
0100
1000
,
0001
0000
1000
0010
1000
0000
0001
0100
0010
1000
0001
0100
0010
1000
0010
0100
,
0001
0000
1000
0100
1000
0000
0001
0010
0100
1000
0001
0010
0100
1000
0100
0010
,
0001
0000
1000
0010
0100
0001
1000
0010
0100
0001
1000
0010
0100
0001
1000
0100
,
0010
0000
0001
0010
0100
1000
0001
0010
0100
1000
0001
0010
0100
1000
0001
1000
,
0010
0100
0010
1000
0001
0100
0010
1000
0001
0100
0001
1000
0010
0100
0001
1000
,
0100
0000
0010
0000
0100
0000
1000
0001
1000
0000
0010
0000
0100
0000
0010
0000
,
1000
0010
0100
0001
,
1000
0000
0001
1000
0010
0000
0100
0000
,
0001
0000
0010
0100
1000
0000
0100
0000
,
0010
0001
0010
0100
1000
0001
0010
0100
,
1000
0000
0001
1000
0010
0000
1000
0001
,
0100
0010
1000
0001
,
1000
0000
0100
0010
0001
0010
0100
1000
,
0001
0000
1000
0010
1000
0000
0001
0100
0001
1000
0010
0100
0001
1000
0010
1000
,
0001
0100
0010
1000
,
0001
0000
1000
0100
0010
0000
0001
0000
,
0010
0000
0100
1000
0001
0000
0100
0000
,
0010
1000
0001
0100
0010
0100
0001
1000
,
0010
0100
0001
1000
0001
0100
0010
1000
0010
0100
0001
1000
0001
0100
0010
0100
,
0001
1000
0100
0010
0001
0010
0100
1000
0001
0010
0001
1000
0100
0010
0001
1000
,
0010
0100
0001
1000
0010
0100
0001
0100
0010
1000
0001
0100
0010
1000
0001
1000
,
0100
0010
0001
1000
0100
0010
0001
1000
0100
1000
0001
0010
0100
1000
0001
1000
,
0010
0100
0001
1000
0010
0100
0001
1000
0010
0100
0001
1000
0010
0100
0001
1000
,
0010
0000
0000
0000
;

//---------------dance-single - ----------------
#NOTES:
     dance-single:
     Dossar:
     Easy:
     11:
     0.681,1.000,0.000,0.252,0.416:
0000
0000
0000
0000
,
0000
0000
0000
0000
,
0000
0000
0000
0000
,
0000
0000
0000
0000
,
0000
0000
0000
0000
,
0000
0001
1000
0010
,
0100
0000
0000
0000
0001
1000
0000
0001
,
0000
1000
0100
0000
0010
0000
0001
0000
,
0100
0000
0000
0010
1000
0001
0000
1000
,
0000
0000
0001
1000
0010
0100
0001
1000
0010
0100
0001
1000
0010
0100
0001
1000
,
0001
0100
0010
1000
,
0001
0000
1000
0001
0100
0000
0010
0000
,
1000
0000
0100
0010
0001
0000
0010
0000
,
0100
1000
0100
0010
0001
1000
0100
0010
,
0001
0000
1000
0001
0100
0000
0001
1000
,
0010
0100
0001
1000
,
0001
0000
0010
0100
1000
0100
0010
0001
,
1000
0000
0001
0100
0001
0000
1000
0010
1000
0001
0100
0010
1000
0001
0100
0001
,
1000
0010
0100
0001
,
1000
0000
0100
0010
0001
0000
0010
0000
,
0100
0000
1000
0001
0100
0000
0010
0000
,
1000
0010
0100
0001
1000
0001
0100
0010
,
0100
0000
0001
0000
1000
0000
0010
1000
,
0001
0100
0010
1000
,
0001
0000
0100
0001
1000
0000
1000
0001
,
1000
0100
0010
0001
1000
0100
0010
0001
1000
0100
0010
0001
1000
0100
1000
0001
,
0100
0010
1000
0001
0100
0010
1000
0001
0100
0010
1000
0001
0100
0010
1000
0001
,
0100
0010
1000
0001
0000
0020
0230
2300
,
3000
0000
0001
0100
,
0010
1000
0000
0001
0000
2000
3020
0230
,
0300
0000
0002
0000
0003
0000
2000
0000
3000
0000
0100
0010
0100
0000
2000
0000
,
3000
0001
0100
0010
,
1000
0000
0000
0000
0000
0000
0001
0000
0000
0000
0000
0000
0010
0000
0100
1000
,
0200
0300
0000
0000
0000
1000
0001
0100
,
0000
0000
0020
0000
0030
0000
0000
0000
2000
0000
3001
0010
0001
0000
0000
0000
,
1000
0010
0100
0001
0000
0200
0320
2030
,
3000
0000
0000
0001
0010
0000
0100
0000
,
1000
0100
0010
0001
0000
2000
3002
0203
,
0300
0000
0020
0000
0030
0000
2000
0000
3000
0000
0010
0100
0010
0000
2000
0000
,
3000
0001
0010
0100
,
1000
0000
0000
0000
0000
0000
0001
0000
0000
0000
0000
0000
0100
0000
0010
1000
,
0020
0130
0001
1000
0100
0010
0100
1000
,
0001
0000
1000
0010
1000
0000
0001
0100
0010
1000
0001
0100
0010
1000
0010
0100
,
0001
0000
1000
0100
1000
0000
0001
0010
0100
1000
0001
0010
0100
1000
0100
0010
,
0001
0000
1000
0010
0100
0001
1000
0010
0100
0001
1000
0010
0100
0001
1000
0010
,
0100
0001
0100
0000
0010
0000
1000
0001
,
0000
0001
2000
0000
0000
0000
0000
0000
,
3100
0000
0010
0000
0100
0000
1000
0001
1000
0000
0010
0000
0100
0000
0010
0000
,
1000
0010
0100
0001
,
1000
0000
0001
1000
0010
0000
0100
0000
,
0001
0000
0010
0100
1000
0000
0100
0000
,
0010
0001
0010
0100
1000
0001
0010
0100
,
1000
0000
0001
1000
0010
0000
1000
0001
,
0100
0010
1000
0001
,
1000
0000
0100
0010
0001
0010
0100
1000
,
0001
0000
1000
0010
1000
0000
0001
0100
0001
1000
0010
0100
0001
1000
0010
1000
,
0001
0100
0010
1000
,
0001
0000
1000
0100
0010
0000
0001
0000
,
0010
0000
0100
1000
0001
0000
0100
0000
,
0010
1000
0001
0100
0010
0100
0001
1000
,
0010
0000
0100
0000
0001
0000
1000
0001
,
0010
0100
1000
0001
,
0100
0000
0010
1000
0001
0000
0001
1000
,
0001
0010
0001
1000
0100
0010
0001
1000
0100
0010
0001
1000
0100
1000
0001
0100
,
0010
1000
0001
1000
0010
0100
0001
1000
0010
0100
0001
1000
0010
0100
0001
1000
,
0010
0000
0000
0000
;

//---------------dance-double - ----------------
#NOTES:
     dance-double:
     Dossar:
     Challenge:
     13:
     1.000,1.000,0.000,0.241,1.000: // measure 1
00000000
00000000
00000000
00000000
,  // measure 2
00000000
00000000
00000000
00000000
,  // measure 3
00000000
00000000
00000000
00000000
,  // measure 4
00000000
00000000
00000000
00000000
,  // measure 5
00000000
00000000
00000000
00000000
,  // measure 6
00000000
10000000
01000000
00100000
,  // measure 7
00010000
00000000
00000000
00000000
01000000
00001000
00000000
00010000
,  // measure 8
00000000
00000100
00001000
00000000
00000001
00000000
00000100
00000000
,  // measure 9
00000010
00000000
00000000
00001000
00000100
00010000
00000000
00001000
,  // measure 10
00000000
00000000
01000000
00010000
01000000
00100000
10000000
00010000
01000000
00100000
10000000
00010000
01000000
00010000
10000000
01000000
,  // measure 11
00100000
00010000
10000000
01000000
00100000
00010000
00100000
01000000
10000000
00010000
00100000
00010000
10000000
01000000
00100000
00001000
,  // measure 12
00100000
00010000
00100000
00001000
00010000
00001000
00100000
00001000
00010000
00000100
00010000
00001000
00010000
00000100
00000010
00000001
,  // measure 13
00001000
00000010
00000100
00000001
00001000
00000010
00000100
00000001
00001000
00000010
00001000
00000001
00000100
00000010
00001000
00000010
,  // measure 14
00010000
00001000
00010000
00000010
00010000
00001000
00100000
00010000
00100000
00001000
00010000
00001000
00100000
00010000
00100000
01000000
,  // measure 15
10000000
00010000
00100000
01000000
10000000
00010000
00100000
00010000
10000000
01000000
00100000
00010000
00100000
01000000
00100000
00001000
,  // measure 16
00010000
00001000
00100000
00001000
00010000
00000010
00010000
00001000
00010000
00000010
00001000
00000010
00000100
00000001
00001000
00000010
,  // measure 17
00001000
00000001
00000100
00000010
00001000
00000001
00000100
00000001
00001000
00000010
00000100
00000001
00001000
00000001
00001000
00000010
,  // measure 18
00010000
00001000
00010000
00000010
00010000
00001000
00100000
00001000
00010000
00001000
00100000
00010000
00100000
01000000
10000000
00010000
,  // measure 19
00100000
00010000
10000000
01000000
00100000
00010000
00100000
01000000
10000000
00010000
00100000
00010000
10000000
01000000
00100000
00001000
,  // measure 20
00100000
00010000
00100000
00001000
00010000
00001000
00100000
00001000
00010000
00000100
00010000
00001000
00010000
00000100
00000010
00000001
,  // measure 21
00001000
00000010
00000100
00000001
00001000
00000010
00000100
00000001
00001000
00000010
00001000
00000001
00000100
00000010
00001000
00000010
,  // measure 22
00010000
00001000
00010000
00000010
00010000
00001000
00100000
00010000
00100000
00001000
00010000
00001000
00100000
00010000
00100000
01000000
,  // measure 23
10000000
00010000
00100000
01000000
10000000
00010000
00100000
00010000
10000000
01000000
00100000
00010000
00100000
01000000
00100000
00001000
,  // measure 24
00010000
00001000
00100000
00001000
00010000
00000010
00010000
00001000
00010000
00000010
00001000
00000010
00000100
00000001
00001000
00000010
,  // measure 25
00001000
00000001
00000100
00000010
00001000
00000001
00000100
00000001
00001000
00000010
00000100
00000001
00001000
00000001
00001000
00000010
,  // measure 26
00010000
00001000
00010000
00000010
00010000
00001000
00100000
00001000
00010000
00001000
00100000
00010000
00100000
01000000
10000000
00010000
,  // measure 27
00100000
00010000
10000000
01000000
00100000
00010000
10000000
01000000
10000000
00010000
00100000
01000000
10000000
00010000
00100000
00010000
,  // measure 28
10000000
01000000
00100000
00010000
00000000
00200000
00302000
00023000
,  // measure 29
00030000
00000000
00000010
00001000
,  // measure 30
00000001
00000010
00000000
00000100
00000000
00002000
00003200
00020300
,  // measure 31
00030000
00000000
00002000
00000000
00003000
00000000
00200000
00000000
00300000
00000000
00010000
10000000
00010000
00000000
02000000
00000000
,  // measure 32
03000000
00010000
00100000
00001000
,  // measure 33
00010000
00000000
00000000
00000000
00000000
00000000
00000010
00000000
00000000
00000000
00000000
00000000
00000100
00000000
00000001
00001000
,  // measure 34
00000002
00000003
00000000
00000000
00000000
00001000
00000010
00010000
,  // measure 35
00000000
00000000
00002000
00000000
00003000
00000000
00000000
00000000
00020000
00000000
00031000
00100000
00001000
00000000
00000000
00000000
,  // measure 36
00010000
00000100
00001000
00000001
00000000
00000200
00000320
00020030
,  // measure 37
00030000
00000000
00000000
00001000
01000000
00000000
00010000
00000000
,  // measure 38
10000000
00100000
01000000
00001000
00000000
00020000
00030200
00000320
,  // measure 39
00000030
00000000
00000002
00000000
00000003
00000000
00002000
00000000
00003000
00000000
00000010
00000100
00000010
00000000
00020000
00000000
,  // measure 40
00030000
00001000
00100000
01000000
,  // measure 41
10000000
00000000
00000000
00000000
00000000
00000000
00010000
00000000
00000000
00000000
00000000
00000000
00100000
00000000
00001000
00010000
,  // measure 42
00002000
01003000
00010000
10000000
00100000
01000000
00100000
10000000
,  // measure 43
00010000
00000000
10000000
01000000
10000000
00000000
00010000
00100000
01000000
10000000
01000000
00100000
00010000
00100000
00001000
00010000
,  // measure 44
00001000
00000000
00010000
00000100
00010000
00000000
00000100
00001000
00000100
00000010
00000001
00001000
00000100
00010000
00001000
00100000
,  // measure 45
00001000
00000000
10000000
00010000
01000000
00100000
10000000
00010000
10000000
00100000
01000000
00010000
10000000
00010000
00100000
00001000
,  // measure 46
00100000
00000000
00001000
00010000
00001000
00010000
00000100
00000010
00000001
00001000
00000100
00000010
00000001
00000010
00000100
00001000
,  // measure 47
00000100
00010000
00001000
01000000
00001000
01000000
00010000
10000000
00100000
01000000
00010000
10000000
00100000
10000000
00010000
01000000
,  // measure 48
00100000
00000000
10000000
00000000
00010000
00000000
01000000
00100000
01000000
00000000
00001000
00000000
00001000
00000000
00010000
00000000
,  // measure 49
00000100
00001000
00000100
00000010
00000001
00001000
00000100
00000010
00000001
00001000
00000100
00001000
00000001
00000010
00000100
00010000
,  // measure 50
00000100
00001000
00000100
00010000
00001000
00010000
00000100
00010000
00001000
00100000
00001000
00010000
00001000
00100000
01000000
10000000
,  // measure 51
00010000
01000000
00100000
10000000
00010000
01000000
00100000
10000000
00010000
01000000
00010000
10000000
00100000
01000000
00010000
01000000
,  // measure 52
00001000
00010000
00001000
01000000
00001000
00010000
00000100
00001000
00000100
00010000
00001000
00010000
00000100
00001000
00000100
00000010
,  // measure 53
00000001
00001000
00000100
00000010
00000001
00001000
00000100
00001000
00000001
00000010
00000100
00001000
00000100
00000010
00000100
00010000
,  // measure 54
00001000
00010000
00000100
00010000
00001000
01000000
00001000
00010000
00001000
01000000
00010000
01000000
00100000
10000000
00010000
01000000
,  // measure 55
00010000
10000000
00100000
01000000
00010000
10000000
00100000
10000000
00010000
01000000
00100000
10000000
00010000
10000000
00010000
01000000
,  // measure 56
00001000
00010000
00001000
01000000
00001000
00010000
00000100
00010000
00001000
00010000
00000100
00001000
00000100
00000010
00000001
00001000
,  // measure 57
00000100
00001000
00000001
00000010
00000100
00001000
00000100
00000010
00000001
00001000
00000100
00001000
00000001
00000010
00000100
00010000
,  // measure 58
00000100
00001000
00000100
00010000
00001000
00010000
00000100
00010000
00001000
00100000
00001000
00010000
00001000
00100000
01000000
10000000
,  // measure 59
00010000
01000000
00100000
10000000
00010000
01000000
00100000
10000000
00010000
01000000
00010000
10000000
00100000
01000000
00010000
01000000
,  // measure 60
00001000
00010000
00001000
01000000
00001000
00010000
00000100
00001000
00000100
00010000
00001000
00010000
00000100
00001000
00000100
00000010
,  // measure 61
00000001
00001000
00000100
00000010
00000001
00001000
00000100
00001000
00000001
00000010
00000100
00001000
00000100
00000010
00000100
00010000
,  // measure 62
00001000
00010000
00000100
00010000
00001000
01000000
00001000
00010000
00001000
01000000
00010000
01000000
00100000
10000000
00010000
01000000
,  // measure 63
00010000
10000000
00100000
01000000
00010000
10000000
00100000
10000000
00010000
01000000
00100000
10000000
00010000
10000000
00010000
01000000
,  // measure 64
00001000
00010000
00001000
01000000
00001000
00010000
00000100
00010000
00001000
00010000
00000100
00001000
00000100
00000010
00000001
00001000
,  // measure 65
00000100
00001000
00000001
00000010
00000100
00001000
00000001
00000010
00000001
00001000
00000100
00000010
00000001
00001000
00000100
00001000
,  // measure 66
00000001
00000000
00000000
00000000
;
