#TITLE:Last Message;
#SUBTITLE:;
#ARTIST:good-cool feat. Meg;
#TITLETRANSLIT:;
#SUBTITLETRANSLIT:;
#ARTISTTRANSLIT:;
#CREDIT:;
#BANNER:../ddrstream fallback-bn.png;
#BACKGROUND:../ddrstream fallback-bg.png;
#LYRICSPATH:;
#CDTITLE:;
#MUSIC:Last Message.ogg;
#OFFSET:-0.001;
#SAMPLESTART:40.260;
#SAMPLELENGTH:15.410;
#SELECTABLE:YES;
#DISPLAYBPM:155.000;
#BPMS:0.000=155.000;
#STOPS:;
#BGCHANGES:;

//---------------dance-single - ----------------
#NOTES:
     dance-single:
     Dossar:
     Challenge:
     13:
     1.000,1.000,0.113,0.379,1.000:
0000
0000
0000
0000
,
0000
0000
0000
0000
,
1000
0000
1000
0001
0000
0100
0002
0000
0000
0000
0000
0000
0000
0000
0000
0000
,
1003
0100
0010
0001
1000
0100
0010
0001
1000
0010
0100
0001
1000
0010
0100
0001
,
1000
0000
1000
0010
0000
0000
0010
0000
0000
0010
0000
0000
0010
0000
0020
0000
,
1030
0001
0010
0100
1000
0100
0010
0001
1000
0010
0100
0001
1000
0001
0100
0010
,
1000
0000
1000
0001
0000
0100
0002
0000
0000
0000
0000
0000
0000
0000
0000
0000
,
1003
0100
0010
0001
0010
0100
1000
0001
0100
0010
1000
0001
0100
0010
0100
0001
,
1000
0000
1000
0010
0000
0100
0010
0000
0000
0010
0000
0000
0010
0000
0020
0000
,
1030
0001
0010
0100
1000
0100
0010
0001
0000
0000
2002
3003
0000
0000
0220
0330
,
1000
0001
0100
0010
1000
0010
0100
0001
1000
0010
0100
0001
1000
0010
0100
0001
,
1000
0100
0010
0001
1000
0100
0010
0001
0010
0100
1000
0001
0010
0001
1000
0100
,
1000
0001
0100
0010
1000
0010
0100
0001
1000
0010
1000
0001
0100
0010
1000
0001
,
0010
0100
1000
0001
0010
0100
1000
0100
0010
0001
1000
0100
0010
0001
0010
0100
,
1000
0001
0100
0001
1000
0010
0100
0001
1000
0010
1000
0001
0100
0010
1000
0001
,
1000
0100
0010
0001
1000
0100
1000
0001
0010
0100
1000
0001
0010
0100
1000
0001
,
0100
0010
1000
0010
0100
0001
1000
0010
0100
0001
0100
0010
1000
0001
0100
0001
,
1000
0100
0010
0100
1000
0001
0010
0001
1000
0100
0010
0001
1000
0100
0010
0001
,
1000
0010
0100
0001
0100
0010
1000
0001
0100
0010
1000
0010
0100
0001
1000
0100
,
0010
0001
1000
0100
0010
0001
0010
0100
1000
0001
0010
0100
1000
0100
0010
0001
,
1000
0001
0100
0010
1000
0010
0100
0001
1000
0010
0100
0001
1000
0010
0100
0001
,
1000
0100
0010
0001
1000
0100
0010
0001
0010
0100
1000
0001
0010
0001
1000
0100
,
1000
0001
0100
0010
1000
0010
0100
0001
1000
0010
1000
0001
0100
0010
1000
0001
,
0010
0100
1000
0001
0010
0100
1000
0100
0010
0001
1000
0100
0010
0001
0010
0100
,
1000
0001
0100
0001
1000
0010
0100
0001
1000
0010
1000
0001
0100
0010
1000
0001
,
0100
0000
0100
0000
0000
0000
0220
0330
0000
0000
2002
0000
0000
0000
3003
0000
,
0001
1000
0010
0100
0001
0100
0010
1000
0001
0100
0010
1000
0001
0100
0010
1000
,
0001
0010
0100
1000
0001
0010
0100
1000
0100
0010
0001
1000
0100
1000
0001
0010
,
0001
1000
0010
0100
0001
0100
0010
1000
0001
0100
0001
1000
0010
0100
0001
1000
,
0100
0010
0001
1000
0100
0010
0001
0010
0100
1000
0001
0010
0100
1000
0100
0010
,
0001
1000
0010
1000
0001
0100
0010
1000
0001
0100
0001
1000
0010
0100
0001
1000
,
0001
0010
0100
1000
0001
0010
0001
1000
0100
0010
0001
1000
0100
0010
0001
1000
,
0010
0100
0001
0100
0010
1000
0001
0100
0010
1000
0010
0100
0001
1000
0010
1000
,
0001
0010
0100
0010
0001
1000
0100
1000
0001
0010
0002
0003
1000
0100
2000
3000
,
0001
0100
0020
0030
1000
0001
0020
0000
0030
0000
0220
0330
0000
0000
2002
3003
,
1000
0001
0010
0001
0200
0300
0200
0300
0010
1000
0002
0003
0000
0000
2002
3003
,
1000
0001
0100
0010
1000
0010
0100
0001
1000
0010
0100
0001
1000
0010
0100
0001
,
1000
0100
0010
0001
1000
0100
0010
0001
0010
0100
1000
0001
0010
0001
1000
0100
,
1000
0001
0100
0010
1000
0010
0100
0001
1000
0010
1000
0001
0100
0010
1000
0001
,
0010
0100
1000
0001
0010
0100
1000
0100
0010
0001
1000
0100
0010
0001
0010
0100
,
1000
0001
0100
0001
1000
0010
0100
0001
1000
0010
1000
0001
0100
0010
1000
0001
,
1000
0100
0010
0001
1000
0100
1000
0001
0010
0100
1000
0001
0010
0100
1000
0001
,
0100
0010
1000
0010
0100
0001
1000
0010
0100
0001
0100
0010
1000
0001
0100
0001
,
1000
0100
0010
0100
1000
0001
0010
0001
1000
0100
0010
0001
1000
0100
0010
0001
,
1000
0010
0100
0001
0100
0010
1000
0001
0100
0010
1000
0010
0100
0001
1000
0100
,
0010
0001
1000
0100
0010
0001
0010
0100
1000
0001
0010
0100
1000
0100
0010
0001
,
1000
0001
0100
0010
1000
0010
0100
0001
1000
0010
0100
0001
1000
0010
0100
0001
,
1000
0100
0010
0001
1000
0100
0010
0001
0010
0100
1000
0001
0010
0001
1000
0100
,
1000
0001
0100
0010
1000
0010
0100
0001
1000
0010
1000
0001
0100
0010
1000
0001
,
0010
0100
1000
0001
0010
0100
1000
0100
0010
0001
1000
0100
0010
0001
0010
0100
,
1000
0001
0100
0001
1000
0010
0100
0001
1000
0010
1000
0001
0100
0010
1000
0001
,
0010
0100
1000
0001
0010
0100
1000
0001
0010
0001
1000
0100
0010
0001
0010
0100
,
1000
0000
1000
0001
0000
0100
0002
0000
0000
0000
0000
0000
0000
0000
0000
0000
,
1003
0100
0010
0001
1000
0100
0010
0001
1000
0010
0100
0001
1000
0010
0100
0001
,
1000
0000
1000
0010
0000
0000
0010
0000
0000
0010
0000
0000
0010
0000
0020
0000
,
1030
0001
0010
0100
1000
0100
0010
0001
1000
0010
0100
0001
1000
0001
0100
0010
,
1000
0000
1000
0001
0000
0100
0002
0000
0000
0000
0000
0000
0000
0000
0000
0000
,
1003
0100
0010
0001
0010
0100
1000
0001
0100
0010
1000
0001
0100
0010
0100
0001
,
1000
0000
1000
0010
0000
0100
0010
0000
0000
0010
0000
0000
0010
0000
0020
0000
,
1030
0001
0010
0100
1000
0100
0010
0001
0000
0000
2002
3003
0000
0000
0220
0330
,
1000
0001
0010
0100
0010
0001
1000
0100
0010
0000
0220
0330
0000
0000
2002
3003
;

//---------------dance-single - ----------------
#NOTES:
     dance-single:
     Dossar:
     Hard:
     12:
     1.000,1.000,0.185,0.779,1.000:
0000
0000
0000
0000
,
0000
0000
0000
0000
,
1000
0000
1000
0001
0000
0100
0002
0000
0000
0000
0000
0000
0000
0000
0000
0000
,
1003
0100
0010
0001
1000
0100
0010
0001
1000
0010
0100
0001
1000
0010
0100
0001
,
1000
0000
1000
0010
0000
0000
0010
0000
0000
0010
0000
0000
0010
0000
0020
0000
,
1030
0001
0010
0100
1000
0100
0010
0001
1000
0010
0100
0001
1000
0001
0100
0010
,
1000
0000
1000
0001
0000
0100
0002
0000
0000
0000
0000
0000
0000
0000
0000
0000
,
1003
0100
0010
0001
0010
0100
1000
0001
0100
0010
1000
0001
0100
0010
0100
0001
,
1000
0000
1000
0010
0000
0100
0010
0000
0000
0010
0000
0000
0010
0000
0020
0000
,
1030
0001
0010
0100
1000
0100
0010
0001
0000
0000
2002
3003
0000
0000
0220
0330
,
1000
0001
0100
0010
1000
0010
0100
0001
1000
0010
0100
0001
1000
0010
0100
0001
,
1000
0100
0010
0001
1000
0100
0010
0001
0010
0100
1000
0001
0010
0001
1000
0100
,
1000
0001
0100
0010
1000
0010
0100
0001
1000
0010
1000
0001
0100
0010
1000
0001
,
0010
0100
1000
0001
0010
0100
1000
0100
0010
0001
1000
0100
0010
0001
0010
0100
,
1000
0001
0100
0001
1000
0010
0100
0001
1000
0010
1000
0001
0100
0010
1000
0001
,
1000
0100
0010
0001
1000
0100
1000
0001
0010
0100
1000
0001
0010
0100
1000
0001
,
0100
0010
1000
0010
0100
0001
1000
0010
0100
0001
0100
0010
1000
0001
0100
0001
,
1000
0100
0010
0100
1000
0001
0010
0001
1000
0100
0010
0001
1000
0100
0010
0001
,
1000
0000
0010
0000
0100
0001
0000
1000
,
0100
0010
0001
0000
0010
0100
1000
0001
,
0100
0010
1000
0001
,
1000
0000
0100
0010
0001
1000
0100
0010
,
0001
0000
1000
0000
0010
0100
0001
1000
,
0010
1000
0001
0100
0010
1000
0001
0100
,
0001
0000
1000
0000
0100
0000
0010
0000
0001
0000
1000
0000
0010
0100
0010
0000
,
0100
0000
0100
0000
0000
0000
0220
0330
0000
0000
2002
0000
0000
0000
3003
0000
,
0001
1000
0010
0100
0001
0100
0010
1000
0001
0100
0010
1000
0001
0100
0010
1000
,
0001
0010
0100
1000
0001
0010
0100
1000
0100
0010
0001
1000
0100
1000
0001
0010
,
0001
1000
0010
0100
0001
0100
0010
1000
0001
0100
0001
1000
0010
0100
0001
1000
,
0100
0010
0001
1000
0100
0010
0001
0010
0100
1000
0001
0010
0100
1000
0100
0010
,
0001
1000
0010
1000
0001
0100
0010
1000
0001
0100
0001
1000
0010
0100
0001
1000
,
0001
0010
0100
1000
0001
0010
0001
1000
0100
0010
0001
1000
0100
0010
0001
1000
,
0010
0100
0001
0100
0010
1000
0001
0100
0010
1000
0010
0100
0001
1000
0010
1000
,
0001
0010
0100
0010
0001
1000
0100
1000
0001
0010
0002
0003
1000
0100
2000
3000
,
0001
0100
0020
0030
1000
0001
0020
0000
0030
0000
0220
0330
0000
0000
2002
3003
,
1000
0001
0010
0001
0200
0300
0200
0300
0010
1000
0002
0003
0000
0000
2002
3003
,
1000
0000
0020
0030
0000
0000
0200
0300
0000
0000
0020
0030
0000
0000
0202
0303
,
0000
0000
0002
0003
0000
0000
2000
3000
0000
0000
0002
0003
0000
0000
2200
3300
,
0000
0000
0002
0003
0000
0000
0020
0030
0000
0000
0002
0003
0000
0000
0220
0330
,
0000
0000
2000
3000
0000
0000
0020
0030
0000
0000
2000
3000
0000
0000
0202
0303
,
0000
0000
0002
0003
0000
0000
0020
0030
0000
0000
0002
0003
0000
0000
2200
3300
,
0000
0000
2000
3000
0000
0000
0020
0030
0000
0000
2000
3000
0000
0000
0220
0330
,
0000
0000
2000
3000
0000
0000
0200
0300
0000
0000
2000
3000
0000
0000
0022
0033
,
0000
0000
0020
0030
0000
0000
0200
0300
0000
0000
0020
0030
0002
0000
0000
0000
,
1003
0010
0100
0001
0100
0010
1000
0001
0100
0010
1000
0010
0100
0001
1000
0100
,
0010
0001
1000
0100
0010
0001
0010
0100
1000
0001
0010
0100
1000
0100
0010
0001
,
1000
0001
0100
0010
1000
0010
0100
0001
1000
0010
0100
0001
1000
0010
0100
0001
,
1000
0100
0010
0001
1000
0100
0010
0001
0010
0100
1000
0001
0010
0001
1000
0100
,
1000
0001
0100
0010
1000
0010
0100
0001
1000
0010
1000
0001
0100
0010
1000
0001
,
0010
0100
1000
0001
0010
0100
1000
0100
0010
0001
1000
0100
0010
0001
0010
0100
,
1000
0001
0100
0001
1000
0010
0100
0001
1000
0010
1000
0001
0100
0010
1000
0001
,
0010
0100
1000
0001
0010
0100
1000
0001
0010
0001
1000
0100
0010
0001
0010
0100
,
1000
0000
1000
0001
0000
0100
0002
0000
0000
0000
0000
0000
0000
0000
0000
0000
,
1003
0100
0010
0001
1000
0100
0010
0001
1000
0010
0100
0001
1000
0010
0100
0001
,
1000
0000
1000
0010
0000
0000
0010
0000
0000
0010
0000
0000
0010
0000
0020
0000
,
1030
0001
0010
0100
1000
0100
0010
0001
1000
0010
0100
0001
1000
0001
0100
0010
,
1000
0000
1000
0001
0000
0100
0002
0000
0000
0000
0000
0000
0000
0000
0000
0000
,
1003
0100
0010
0001
0010
0100
1000
0001
0100
0010
1000
0001
0100
0010
0100
0001
,
1000
0000
1000
0010
0000
0100
0010
0000
0000
0010
0000
0000
0010
0000
0020
0000
,
1030
0001
0010
0100
1000
0100
0010
0001
0000
0000
2002
3003
0000
0000
0220
0330
,
1000
0001
0010
0100
0010
0001
1000
0100
0010
0000
0220
0330
0000
0000
2002
3003
;

//---------------dance-single - ----------------
#NOTES:
     dance-single:
     Dossar:
     Medium:
     11:
     0.993,1.000,0.185,0.892,1.000:
0000
0000
0000
0000
,
0000
0000
0000
0000
,
1000
0000
1000
0001
0000
0100
0002
0000
0000
0000
0000
0000
0000
0000
0000
0000
,
1003
0100
0010
0001
1000
0100
0010
0001
1000
0010
0100
0001
1000
0010
0100
0001
,
1000
0000
1000
0010
0000
0000
0010
0000
0000
0010
0000
0000
0010
0000
0020
0000
,
1030
0001
0010
0100
1000
0100
0010
0001
1000
0010
0100
0001
1000
0001
0100
0010
,
1000
0000
1000
0001
0000
0100
0002
0000
0000
0000
0000
0000
0000
0000
0000
0000
,
1003
0100
0010
0001
0010
0100
1000
0001
0100
0010
1000
0001
0100
0010
0100
0001
,
1000
0000
1000
0010
0000
0100
0010
0000
0000
0010
0000
0000
0010
0000
0020
0000
,
1030
0001
0010
0100
1000
0100
0010
0001
0000
0000
2002
3003
0000
0000
0220
0330
,
0001
0000
1000
0000
0001
1000
0001
0100
0010
1000
0001
0100
0001
1000
0010
0000
,
1000
0000
0001
1000
0001
0010
0100
0000
1000
0100
0010
0001
0010
0100
1000
0001
,
0100
0000
0010
0000
1000
0001
1000
0010
0100
0001
1000
0010
1000
0001
0100
0000
,
0010
0000
1000
0000
0001
0010
0000
0100
0000
0010
0001
0000
1000
0100
0010
0001
,
1000
0000
0010
0000
0100
0001
0100
0010
1000
0001
0100
0010
0100
0001
1000
0000
,
0100
0000
0010
0001
0010
0100
1000
0000
0001
0010
0100
1000
0100
0010
0001
1000
,
0010
0000
0100
0001
1000
0010
1000
0001
0100
0010
1000
0001
1000
0010
0100
0000
,
0001
1000
0100
1000
0000
0001
0010
0000
0100
1000
0100
0010
0001
1000
0100
1000
,
0001
0000
0100
0000
0010
1000
0000
0001
,
0010
0100
1000
0000
0100
0010
0001
1000
,
0010
0100
0001
1000
,
0001
0000
0010
0100
1000
0001
0010
0100
,
1000
0000
0001
0000
0100
0010
1000
0001
,
0100
0001
1000
0010
0100
0001
1000
0010
,
1000
0000
0001
0000
0010
0000
0100
0000
1000
0000
0001
0000
0100
0010
0100
0000
,
0010
0000
0010
0000
0000
0000
0220
0330
0000
0000
2002
0000
0000
0000
3003
0000
,
1000
0001
0100
0010
1000
0010
0100
0001
1000
0010
0100
0001
1000
0010
0100
0001
,
1000
0100
0010
0001
1000
0100
0010
0001
0010
0100
1000
0001
0010
0001
1000
0100
,
1000
0001
0100
0010
1000
0010
0100
0001
1000
0010
1000
0001
0100
0010
1000
0001
,
0010
0100
1000
0001
0010
0100
1000
0100
0010
0001
1000
0100
0010
0001
0010
0100
,
1000
0001
0100
0001
1000
0010
0100
0001
1000
0010
1000
0001
0100
0010
1000
0001
,
1000
0100
0010
0001
1000
0100
1000
0001
0010
0100
1000
0001
0010
0100
1000
0001
,
0100
0010
1000
0010
0100
0001
1000
0010
0100
0001
0100
0010
1000
0001
0100
0001
,
1000
0100
0010
0100
1000
0001
0010
0001
1000
0100
2000
3000
0001
0010
0002
0003
,
1000
0010
0200
0300
0001
1000
0200
0000
0300
0000
0220
0330
0000
0000
2002
3003
,
0001
1000
0100
1000
0020
0030
0020
0030
0100
0001
2000
3000
0000
0000
2002
3003
,
0001
0000
0200
0300
0000
0000
0020
0030
0000
0000
0200
0300
0000
0000
2020
3030
,
0000
0000
2000
3000
0000
0000
0002
0003
0000
0000
2000
3000
0000
0000
0022
0033
,
0000
0000
2000
3000
0000
0000
0200
0300
0000
0000
2000
3000
0000
0000
0220
0330
,
0000
0000
0002
0003
0000
0000
0200
0300
0000
0000
0002
0003
0000
0000
2020
3030
,
0000
0000
2000
3000
0000
0000
0200
0300
0000
0000
2000
3000
0000
0000
0022
0033
,
0000
0000
0002
0003
0000
0000
0200
0300
0000
0000
0002
0003
0000
0000
0220
0330
,
0000
0000
0002
0003
0000
0000
0020
0030
0000
0000
0002
0003
0000
0000
2200
3300
,
0000
0000
0200
0300
0000
0000
0020
0030
0000
0000
0200
0300
2000
0000
0000
0000
,
3001
0100
0001
0100
0010
1000
0010
2000
,
0000
0000
3001
0000
0010
0000
0001
0000
1000
0000
0100
0000
1000
0000
0001
0010
,
0002
0000
0103
0020
0000
1030
0002
0000
,
1003
0000
0200
0000
0000
0000
0310
0000
0002
0000
1003
0100
0010
0001
0010
0100
,
1000
0001
1000
0001
0100
0010
0100
0020
,
0000
0000
1030
0000
0100
0000
1000
0000
0001
0000
0010
0000
0001
0000
1000
0100
,
2000
0000
3001
0200
0000
0310
2000
0000
,
3001
0000
0020
0000
0000
0000
0130
0000
1000
0001
0010
0100
1000
0100
0010
0001
,
1000
0000
1000
0001
0000
0100
0002
0000
0000
0000
0000
0000
0000
0000
0000
0000
,
1003
0100
0010
0001
1000
0100
0010
0001
1000
0010
0100
0001
1000
0010
0100
0001
,
1000
0000
1000
0010
0000
0000
0010
0000
0000
0010
0000
0000
0010
0000
0020
0000
,
1030
0001
0010
0100
1000
0100
0010
0001
1000
0010
0100
0001
1000
0001
0100
0010
,
1000
0000
1000
0001
0000
0100
0002
0000
0000
0000
0000
0000
0000
0000
0000
0000
,
1003
0100
0010
0001
0010
0100
1000
0001
0100
0010
1000
0001
0100
0010
0100
0001
,
1000
0000
1000
0010
0000
0100
0010
0000
0000
0010
0000
0000
0010
0000
0020
0000
,
1030
0001
0010
0100
1000
0100
0010
0001
0000
0000
2002
3003
0000
0000
0220
0330
,
1000
0001
0010
0100
0010
0001
1000
0100
0010
0000
0220
0330
0000
0000
2002
3003
;

//---------------dance-single - ----------------
#NOTES:
     dance-single:
     Dossar:
     Easy:
     10:
     0.857,1.000,0.185,0.974,0.564:
0000
0000
0000
0000
,
0000
0000
0000
0000
,
1000
0000
1000
0001
0000
0100
0002
0000
0000
0000
0000
0000
0000
0000
0000
0000
,
1003
0100
1000
0100
0010
0001
0010
0001
,
1000
0000
1000
0010
0000
0000
0010
0000
0000
0010
0000
0000
0010
0000
0020
0000
,
1030
0001
1000
0001
0010
0100
0010
0100
,
1000
0000
1000
0001
0000
0100
0002
0000
0000
0000
0000
0000
0000
0000
0000
0000
,
1003
0100
1000
0100
0010
0001
0010
0001
,
1000
0000
1000
0010
0000
0100
0010
0000
0000
0010
0000
0000
0010
0000
0020
0000
,
1030
0000
0001
0000
1000
0000
0001
0000
0000
0000
2002
3003
0000
0000
0220
0330
,
0001
0000
1000
0000
0001
1000
0001
0100
0010
1000
0001
0100
0001
1000
0010
0000
,
1000
0000
0001
1000
0001
0010
0100
0000
1000
0100
0010
0001
0010
0100
1000
0001
,
0100
0000
0010
0000
1000
0001
1000
0010
0100
0001
1000
0010
1000
0001
0100
0000
,
0010
0000
1000
0000
0001
0010
0000
0100
0000
0010
0001
0000
1000
0100
0010
0001
,
1000
0000
0010
0000
0100
0001
0100
0010
1000
0001
0100
0010
0100
0001
1000
0000
,
0100
0000
0010
0001
0010
0100
1000
0000
0001
0010
0100
1000
0100
0010
0001
1000
,
0010
0000
0100
0001
1000
0010
1000
0001
0100
0010
1000
0001
1000
0010
0100
0000
,
0001
1000
0100
1000
0000
0001
0010
0000
0100
1000
0100
0010
0001
1000
0100
1000
,
0001
0000
0100
0000
0010
1000
0000
0001
,
0010
0100
1000
0000
0100
0010
0001
1000
,
0010
0100
0001
1000
,
0001
0000
0010
0100
1000
0001
0010
0100
,
1000
0000
0001
0000
0100
0010
1000
0001
,
0100
0001
1000
0010
0100
0001
1000
0010
,
1000
0000
0001
0000
0010
0000
0100
0000
1000
0000
0001
0000
0100
0010
0100
0000
,
0010
0000
0010
0000
0000
0000
0220
0330
0000
0000
2002
0000
0000
0000
3003
0000
,
1000
0001
0100
0010
1000
0010
0100
0001
1000
0010
0100
0001
1000
0010
0100
0001
,
1000
0100
0010
0001
1000
0100
0010
0001
0010
0100
1000
0001
0010
0001
2000
0000
,
0000
3001
0100
0010
1000
0002
0000
2003
,
0000
3001
0010
0100
1000
0001
0200
0000
,
0301
1000
0010
1000
0001
0100
0010
1000
0001
0100
0001
1000
0010
0100
0001
1000
,
0001
0010
0100
1000
0001
0010
0001
1000
0100
0010
0001
1000
0100
0010
0002
0000
,
0000
1003
0010
0100
0001
2000
0000
3002
,
0000
0000
0013
0000
0100
0000
0010
0000
0001
0010
0002
0003
1000
0100
2000
3000
,
0001
0100
0020
0030
1000
0001
0020
0000
0030
0000
0220
0330
0000
0000
2002
3003
,
1000
0001
0010
0001
0200
0300
0200
0300
0010
1000
0002
0003
0000
0000
2002
3003
,
1000
0000
0020
0030
0000
0000
0200
0300
0000
0000
0020
0030
0000
0000
0202
0303
,
0000
0000
0002
0003
0000
0000
2000
3000
0000
0000
0002
0003
0000
0000
2200
3300
,
0000
0000
0002
0003
0000
0000
0020
0030
0000
0000
0002
0003
0000
0000
0220
0330
,
0000
0000
2000
3000
0000
0000
0020
0030
0000
0000
2000
3000
0000
0000
0202
0303
,
0000
0000
0002
0003
0000
0000
0020
0030
0000
0000
0002
0003
0000
0000
2200
3300
,
0000
0000
2000
3000
0000
0000
0020
0030
0000
0000
2000
3000
0000
0000
0220
0330
,
0000
0000
2000
3000
0000
0000
0200
0300
0000
0000
2000
3000
0000
0000
0022
0033
,
0000
0000
0020
0030
0000
0000
0200
0300
0000
0000
0020
0030
0002
0000
0000
0000
,
1003
0010
1000
0010
0100
0001
0100
0002
,
0000
0000
1003
0000
0100
0000
1000
0000
0001
0000
0010
0000
0001
0000
1000
0100
,
2000
0000
3010
0200
0000
0301
2000
0000
,
3001
0000
0020
0000
0000
0000
0130
0000
2000
0000
3001
0010
0100
1000
0100
0010
,
0001
1000
0001
1000
0010
0100
0010
0200
,
0000
0000
0301
0000
0010
0000
0001
0000
1000
0000
0100
0000
1000
0000
0001
0010
,
0002
0000
1003
0020
0000
0130
0002
0000
,
1003
0000
0200
0000
0000
0000
0310
0000
0001
1000
0100
0010
0001
0010
0100
1000
,
0001
0000
0001
1000
0000
0010
2000
0000
0000
0000
0000
0000
0000
0000
0000
0000
,
3001
0010
0001
0010
0100
1000
0100
1000
,
0001
0000
0001
0100
0000
0000
0100
0000
0000
0100
0000
0000
0100
0000
0200
0000
,
0301
1000
0001
1000
0100
0010
0100
0010
,
0001
0000
0001
1000
0000
0010
2000
0000
0000
0000
0000
0000
0000
0000
0000
0000
,
3001
0010
0001
0010
0100
1000
0100
1000
,
0001
0000
0001
0100
0000
0010
0100
0000
0000
0100
0000
0000
0100
0000
0200
0000
,
0301
0000
1000
0000
0001
0000
1000
0000
0000
0000
2002
3003
0000
0000
0220
0330
,
0002
0000
0000
0000
0000
0000
0000
0000
0003
0000
0220
0330
0000
0000
2002
3003
;

//---------------dance-double - ----------------
#NOTES:
     dance-double:
     Dossar:
     Challenge:
     11:
     0.991,1.000,0.185,0.892,1.000: // measure 1
00000000
00000000
00000000
00000000
,  // measure 2
00000000
00000000
00000000
00000000
,  // measure 3
10000000
00000000
10000000
00010000
00000000
01000000
00020000
00000000
00000000
00000000
00000000
00000000
00000000
00000000
00000000
00000000
,  // measure 4
10030000
01000000
00100000
00010000
10000000
01000000
00100000
00010000
00100000
00001000
00010000
00001000
00100000
00010000
00100000
01000000
,  // measure 5
10000000
00000000
01000000
00100000
00000000
00000000
00001000
00000000
00000000
00010000
00000000
00000000
00001000
00000000
00020000
00000000
,  // measure 6
00030100
00001000
00000100
00000010
00000001
00001000
00000100
00000010
00000001
00001000
00000100
00001000
00000001
00000010
00000100
00001000
,  // measure 7
00000001
00000000
00000001
00001000
00000000
00000010
00002000
00000000
00000000
00000000
00000000
00000000
00000000
00000000
00000000
00000000
,  // measure 8
00003001
00000100
00000010
00001000
00000001
00000100
00000010
00001000
00000010
00010000
00001000
00010000
00000010
00001000
00000010
00000100
,  // measure 9
00000001
00000000
00000100
00000010
00000000
00000000
00010000
00000000
00000000
00001000
00000000
00000000
00010000
00000000
00002000
00000000
,  // measure 10
00103000
00010000
00100000
01000000
10000000
00010000
00100000
00010000
00000000
00000000
20020000
30030000
00000000
00000000
02200000
03300000
,  // measure 11
00010000
00000000
10000000
00000000
00010000
10000000
00010000
01000000
00100000
10000000
00010000
01000000
00010000
10000000
00100000
00000000
,  // measure 12
01000000
00000000
00010000
01000000
00001000
00010000
00001000
00000000
00010000
00000100
00001000
00000100
00000010
00000001
00001000
00000100
,  // measure 13
00001000
00000000
00000100
00000000
00010000
00001000
01000000
00010000
01000000
00100000
10000000
00010000
10000000
00100000
01000000
00000000
,  // measure 14
00010000
00000000
10000000
00000000
00010000
00100000
00000000
01000000
00000000
00100000
00010000
00000000
00100000
00010000
00100000
00001000
,  // measure 15
00010000
00000000
00000010
00000000
00001000
00000001
00001000
00000010
00000100
00000001
00001000
00000010
00001000
00000001
00000100
00000000
,  // measure 16
00000010
00000000
00001000
00000010
00010000
00001000
00010000
00000000
00001000
00100000
00010000
00100000
01000000
10000000
00010000
00100000
,  // measure 17
00010000
00000000
10000000
01000000
00100000
00010000
00100000
01000000
10000000
00010000
00100000
01000000
00100000
00010000
10000000
00000000
,  // measure 18
00010000
01000000
00001000
00010000
00001000
01000000
00010000
00000000
10000000
00010000
01000000
00100000
10000000
00010000
01000000
00100000
,  // measure 19
10000000
00000000
01000000
00000000
00100000
00001000
00000000
00010000
,  // measure 20
00001000
00010000
00000100
00000000
00000010
00000001
00001000
00000100
,  // measure 21
00010000
00001000
01000000
00010000
,  // measure 22
10000000
00000000
00100000
01000000
00010000
00100000
00001000
00010000
,  // measure 23
00000010
00000000
00001000
00000000
00000001
00000010
00000100
00010000
,  // measure 24
00001000
00010000
00000010
00001000
00000001
00000100
00000010
00010000
,  // measure 25
00000010
00000000
00001000
00000000
00000100
00000000
00010000
00000000
00001000
00000000
01000000
00000000
00010000
10000000
00010000
00000000
,  // measure 26
01000000
00000000
01000000
00000000
00000000
00000000
02200000
03300000
00000000
00000000
20020000
00000000
00000000
00000000
30030000
00000000
,  // measure 27
10000000
00010000
01000000
00100000
10000000
00100000
01000000
00010000
10000000
00100000
01000000
00010000
10000000
00100000
01000000
00001000
,  // measure 28
00010000
00001000
01000000
00001000
00010000
00000100
00010000
00001000
00010000
00000100
00001000
00000100
00010000
00000100
00000010
00000001
,  // measure 29
00001000
00000010
00000100
00000001
00001000
00000010
00000100
00000010
00001000
00000001
00000100
00000010
00001000
00000010
00010000
00001000
,  // measure 30
00010000
00000010
00010000
00001000
00100000
00001000
00010000
00001000
00100000
00010000
00100000
01000000
00100000
00010000
10000000
01000000
,  // measure 31
10000000
00010000
00100000
01000000
10000000
00010000
00100000
01000000
10000000
01000000
00100000
00010000
00100000
00001000
00010000
00001000
,  // measure 32
00100000
00001000
00010000
00000010
00010000
00001000
00010000
00000100
00001000
00000100
00000010
00000001
00001000
00000100
00001000
00000001
,  // measure 33
00000100
00000010
00001000
00000001
00000100
00000010
00001000
00000001
00000100
00000010
00000100
00000001
00001000
00000010
00010000
00001000
,  // measure 34
00010000
00000100
00010000
00001000
01000000
00010000
01000000
00100000
10000000
00010000
20000000
30000000
00010000
01000000
00020000
00030000
,  // measure 35
10000000
01000000
00200000
00300000
00010000
00100000
00002000
00000000
00003000
00000000
00022000
00033000
00000000
00000000
00020200
00030300
,  // measure 36
00000100
00010000
00001000
00010000
00000200
00000300
00000200
00000300
00010000
00000100
00000020
00000030
00000000
00000000
00002002
00003003
,  // measure 37
00000001
00000000
00002000
00003000
00000000
00000000
00000020
00000030
00000000
00000000
00020000
00030000
00000000
00000000
00022000
00033000
,  // measure 38
00000000
00000000
00002000
00003000
00000000
00000000
00200000
00300000
00000000
00000000
02000000
03000000
00000000
00000000
20020000
30030000
,  // measure 39
00000000
00000000
20000000
30000000
00000000
00000000
00020000
00030000
00000000
00000000
02000000
03000000
00000000
00000000
02002000
03003000
,  // measure 40
00000000
00000000
00002000
00003000
00000000
00000000
00020000
00030000
00000000
00000000
00000020
00000030
00000000
00000000
00000220
00000330
,  // measure 41
00000000
00000000
00002000
00003000
00000000
00000000
00000020
00000030
00000000
00000000
00020000
00030000
00000000
00000000
00020020
00030030
,  // measure 42
00000000
00000000
00000020
00000030
00000000
00000000
00020000
00030000
00000000
00000000
00002000
00003000
00000000
00000000
00202000
00303000
,  // measure 43
00000000
00000000
00200000
00300000
00000000
00000000
02000000
03000000
00000000
00000000
20000000
30000000
00000000
00000000
20200000
30300000
,  // measure 44
00000000
00000000
00200000
00300000
00000000
00000000
02000000
03000000
00000000
00000000
00020000
00030000
20000000
00000000
00000000
00000000
,  // measure 45
31000000
00100000
01000000
00100000
00001000
00010000
00001000
00020000
,  // measure 46
00000000
00000000
00030100
00000000
00001000
00000000
00000100
00000000
00000010
00000000
00000001
00000000
00000010
00000000
00000100
00001000
,  // measure 47
00000200
00000000
00010300
00002000
00000000
00103000
00020000
00000000
,  // measure 48
10030000
00000000
02000000
00000000
00000000
00000000
03100000
00000000
00020000
00000000
10030000
01000000
00100000
00010000
00100000
01000000
,  // measure 49
10000000
00010000
10000000
00010000
01000000
00001000
01000000
00002000
,  // measure 50
00000000
00000000
00013000
00000000
00000010
00000000
00010000
00000000
00000001
00000000
00001000
00000000
00000001
00000000
00000100
00000010
,  // measure 51
00000200
00000000
00000310
00020000
00000000
00031000
00200000
00000000
,  // measure 52
01300000
00000000
20000000
00000000
00000000
00000000
31000000
00000000
10000000
00010000
00100000
01000000
10000000
01000000
00100000
00010000
,  // measure 53
10000000
00000000
10000000
00010000
00000000
01000000
00020000
00000000
00000000
00000000
00000000
00000000
00000000
00000000
00000000
00000000
,  // measure 54
10030000
01000000
00100000
00010000
10000000
01000000
00100000
00010000
00100000
00001000
00010000
00001000
00100000
00010000
00100000
01000000
,  // measure 55
10000000
00000000
01000000
00100000
00000000
00000000
00001000
00000000
00000000
00010000
00000000
00000000
00001000
00000000
00020000
00000000
,  // measure 56
00030100
00001000
00000100
00000010
00000001
00001000
00000100
00000010
00000001
00001000
00000100
00001000
00000001
00000010
00000100
00001000
,  // measure 57
00000001
00000000
00000001
00001000
00000000
00000010
00002000
00000000
00000000
00000000
00000000
00000000
00000000
00000000
00000000
00000000
,  // measure 58
00003001
00000100
00000010
00001000
00000001
00000100
00000010
00001000
00000010
00010000
00001000
00010000
00000010
00001000
00000010
00000100
,  // measure 59
00000001
00000000
00000100
00000010
00000000
00000000
00010000
00000000
00000000
00001000
00000000
00000000
00010000
00000000
00002000
00000000
,  // measure 60
00103000
01000000
10000000
00010000
00100000
01000000
10000000
00010000
00000000
00000000
20020000
30030000
00000000
00000000
02200000
03300000
,  // measure 61
10000000
00010000
01000000
00100000
01000000
00010000
10000000
01000000
00100000
00000000
00220000
00330000
00000000
00000000
00002200
00003300
;
