#TITLE:IT'S RAINING MEN;
#SUBTITLE:(Almighty Mix);
#ARTIST:GERI HALLIWELL;
#TITLETRANSLIT:;
#SUBTITLETRANSLIT:;
#ARTISTTRANSLIT:;
#CREDIT:;
#BANNER:../ddrstream fallback-bn.png;
#BACKGROUND:../ddrstream fallback-bg.png;
#LYRICSPATH:;
#CDTITLE:;
#MUSIC:IT'S RAINING MEN (Almighty Mix).ogg;
#OFFSET:0.000;
#SAMPLESTART:46.240;
#SAMPLELENGTH:14.020;
#SELECTABLE:YES;
#DISPLAYBPM:136.000;
#BPMS:0.000=136.250;
#STOPS:;
#BGCHANGES:;

//---------------dance-single - ----------------
#NOTES:
     dance-single:
     Dossar:
     Challenge:
     11:
     0.978,0.901,0.000,0.060,1.000:
0000
0000
0000
0000
,
0000
0000
0000
0000
,
0000
0000
0000
0000
,
0000
0000
0000
0000
,
0000
0000
0000
0000
,
0000
0000
0000
0000
,
1000
0010
0000
0100
0001
0000
1000
0010
0000
0100
0001
0000
1000
0000
0001
0000
,
1000
0100
0000
0010
0001
0000
1000
0100
0000
0010
0001
0000
1000
0000
0001
0000
,
0100
0010
0000
1000
0001
0000
0100
0010
0000
1000
0001
0000
1000
0000
0001
0000
,
0010
0100
0000
1000
0001
0000
0010
0100
0000
1000
0001
0000
1000
0000
0001
0000
,
1000
0010
0100
0001
1000
0010
0100
0001
1000
0010
0100
0001
1000
0010
0100
0001
,
1000
0010
0100
0001
1000
0010
0100
0001
1000
0010
0100
0001
1000
0010
0100
0001
,
1000
0100
0010
0001
1000
0100
0010
0001
1000
0100
0010
0001
1000
0100
0010
0001
,
1000
0100
0010
0001
1000
0100
0010
0001
1000
0100
0010
0001
1000
0100
0010
0001
,
1000
0010
0100
0001
1000
0010
0100
0001
1000
0010
0100
0001
1000
0010
0100
0001
,
1000
0010
0100
0001
1000
0010
0100
0001
1000
0010
0100
0001
1000
0010
0100
0001
,
1000
0100
0010
0001
1000
0100
0010
0001
1000
0100
0010
0001
1000
0100
0010
0001
,
1000
0100
0010
0001
1000
0100
0010
0001
1000
0100
0010
0001
1000
0100
0010
0001
,
1000
0010
0100
0001
1000
0010
0100
0001
1000
0010
0100
0001
1000
0010
0100
0001
,
1000
0010
0100
0001
1000
0010
0100
0001
1000
0010
0100
0001
1000
0010
0100
0001
,
1000
0100
0010
0001
1000
0100
0010
0001
1000
0100
0010
0001
1000
0100
0010
0001
,
1000
0100
0010
0001
1000
0100
0010
0001
1000
0100
0010
0001
1000
0100
0010
0001
,
1000
0010
0100
0001
1000
0010
0100
0001
1000
0010
0100
0001
1000
0010
0100
0001
,
1000
0010
0100
0001
1000
0010
0100
0001
1000
0010
0100
0001
1000
0010
0100
0001
,
1000
0100
0010
0001
1000
0100
0010
0001
1000
0100
0010
0001
1000
0100
0010
0001
,
1000
0100
0010
0001
1000
0100
0010
0001
1000
0100
0010
0001
1000
0100
0010
0001
,
1000
0000
0002
0000
2003
0000
3002
2003
,
3010
0100
0001
1000
0010
0100
0001
1000
0010
0100
0001
1000
0010
0100
0001
1000
,
0100
0010
0001
1000
0100
0010
0001
1000
0100
0010
0001
1000
0100
0010
0001
1000
,
0010
0100
0001
1000
0010
0100
0001
1000
0010
0100
0001
1000
0010
0100
0001
1000
,
0100
0010
0001
1000
0100
0010
0001
1000
0100
0010
0001
1000
0100
0010
0001
1000
,
0010
0100
0001
1000
0010
1000
0001
0100
0010
1000
0001
0100
0001
1000
0010
0100
,
0001
1000
0100
0010
0001
1000
0100
1000
0001
0010
0100
1000
0001
0010
0001
1000
,
0010
0100
0001
1000
0010
1000
0001
0100
0010
1000
0001
0010
0001
1000
0010
0100
,
0001
1000
0100
0010
0001
0010
0100
1000
0001
0010
0100
1000
0100
0010
0001
1000
,
0010
0100
0001
0100
0010
1000
0001
0100
0001
1000
0010
0100
0001
1000
0010
1000
,
0001
0010
0100
1000
0001
0010
0001
1000
0100
0010
0001
1000
0100
1000
0001
0010
,
0001
1000
0010
0100
0001
0100
0010
1000
0001
0100
0001
1000
0010
0100
0001
1000
,
0100
0010
0001
1000
0100
0010
0001
0010
0100
1000
0001
0010
0001
1000
0100
0010
,
0001
1000
0010
0100
0001
1000
0010
1000
0001
0100
0010
1000
0001
0100
0010
0100
,
0001
1000
0100
0010
0001
1000
0100
0010
0001
1000
0100
1000
0001
0010
0100
1000
,
0001
0100
0010
1000
0001
0100
0001
1000
0010
0100
0001
1000
0010
0100
0001
1000
,
0100
0010
0001
1000
0100
0010
0001
1000
0100
1000
0001
0010
0001
1000
0100
0010
,
0001
0000
1000
0000
0010
0100
0000
0002
,
0000
0003
1000
0000
0010
0100
0000
0001
,
0000
0000
1000
0000
0100
0010
0000
0001
;

//---------------dance-single - ----------------
#NOTES:
     dance-single:
     Dossar:
     Hard:
     10:
     0.873,0.901,0.000,0.155,1.000:
0000
0000
0000
0000
,
0000
0000
0000
0000
,
0000
0000
0000
0000
,
0000
0000
0000
0000
,
0000
0000
0000
0000
,
0000
0000
0000
0000
,
1000
0010
0000
0100
0001
0000
1000
0010
0000
0100
0001
0000
1000
0000
0001
0000
,
1000
0100
0000
0010
0001
0000
1000
0100
0000
0010
0001
0000
1000
0000
0001
0000
,
0100
0010
0000
1000
0001
0000
0100
0010
0000
1000
0001
0000
1000
0000
0001
0000
,
0010
0100
0000
1000
0001
0000
0010
0100
0000
1000
0001
0000
1000
0000
0001
0000
,
1000
0010
0100
0001
1000
0010
0100
0001
1000
0010
0100
0001
1000
0010
0100
0001
,
1000
0010
0100
0001
1000
0010
0100
0001
,
1000
0100
0010
0001
1000
0100
0010
0001
1000
0100
0010
0001
1000
0100
0010
0001
,
1000
0100
0010
0001
1000
0100
0010
0001
,
1000
0010
0100
0001
1000
0010
0100
0001
1000
0010
0100
0001
1000
0010
0100
0001
,
1000
0010
0100
0001
1000
0010
0100
0001
,
1000
0100
0010
0001
1000
0100
0010
0001
1000
0100
0010
0001
1000
0100
0010
0001
,
1000
0100
0010
0001
1000
0100
0010
0001
,
1000
0010
0100
0001
1000
0010
0100
0001
1000
0010
0100
0001
1000
0010
0100
0001
,
1000
0010
0100
0001
1000
0010
0100
0001
,
1000
0100
0010
0001
1000
0100
0010
0001
1000
0100
0010
0001
1000
0100
0010
0001
,
1000
0100
0010
0001
1000
0100
0020
0032
,
2003
0000
3020
0000
0000
0230
0000
0302
,
0000
0000
2003
0000
0000
0000
3002
0000
0000
0000
1003
0100
1000
0000
0001
0000
,
1000
0100
0010
0001
1000
0100
0010
0001
1000
0100
0010
0001
1000
0100
0010
0001
,
1000
0100
0010
0001
1000
0100
0010
0001
1000
0100
0010
0001
1000
0100
0010
0001
,
1000
0000
0002
0000
2003
0000
3002
2003
,
3010
0100
0001
1000
0010
0100
0001
1000
0010
0100
0001
1000
0010
0100
0001
1000
,
0100
0010
0001
1000
0100
0010
0001
1000
0100
0010
0001
1000
0100
0010
0001
1000
,
0010
0100
0001
1000
0010
0100
0001
1000
0010
0100
0001
1000
0010
0100
0001
1000
,
0100
0010
0001
1000
0100
0010
0001
1000
0100
0010
0001
1000
0100
0010
0001
1000
,
0010
0100
0001
1000
0010
1000
0001
0100
0010
1000
0001
0100
0001
1000
0010
0100
,
0001
1000
0100
0010
0001
1000
0100
1000
0001
0010
0100
1000
0001
0010
0001
1000
,
0010
0100
0001
1000
0010
1000
0001
0100
0010
1000
0001
0010
0001
1000
0010
0100
,
0001
1000
0100
0010
0001
0010
0100
1000
0001
0010
0100
1000
0100
0010
0001
1000
,
0010
0100
0001
0100
0010
1000
0001
0100
0001
1000
0010
0100
0001
1000
0010
1000
,
0001
0010
0100
1000
0001
0010
0001
1000
0100
0010
0001
1000
0100
1000
0001
0010
,
0001
1000
0010
0100
0001
0100
0010
1000
0001
0100
0001
1000
0010
0100
0001
1000
,
0100
0010
0001
1000
0100
0010
0001
0010
0100
1000
0001
0010
0001
1000
0100
0010
,
0001
1000
0010
0100
0001
1000
0010
1000
0001
0100
0010
1000
0001
0100
0010
0100
,
0001
1000
0100
0010
0001
1000
0100
0010
0001
1000
0100
1000
0001
0010
0100
1000
,
0001
0100
0010
1000
0001
0100
0001
1000
0010
0100
0001
1000
0010
0100
0001
1000
,
0100
0010
0001
1000
0100
0010
0001
1000
0100
1000
0001
0010
0001
1000
0100
0010
,
0001
0000
1000
0000
0010
0100
0000
0002
,
0000
0003
1000
0000
0010
0100
0000
0001
,
0000
0000
1000
0000
0100
0010
0000
0001
;

//---------------dance-single - ----------------
#NOTES:
     dance-single:
     Dossar:
     Medium:
     9:
     0.747,0.737,0.012,0.179,0.816:
0000
0000
0000
0000
,
0000
0000
0000
0000
,
0000
0000
0000
0000
,
0000
0000
0000
0000
,
0000
0000
0000
0000
,
0000
0000
0000
0000
,
1000
0010
0000
0100
0001
0000
1000
0010
0000
0100
0001
0000
1000
0000
0001
0000
,
1000
0100
0000
0010
0001
0000
1000
0100
0000
0010
0001
0000
1000
0000
0001
0000
,
0100
0010
0000
1000
0001
0000
0100
0010
0000
1000
0001
0000
1000
0000
0001
0000
,
0010
0100
0000
1000
0001
0000
0010
0100
0000
1000
0001
0000
1000
0000
0001
0000
,
1000
0010
0100
0001
1000
0010
0100
0001
1000
0010
0100
0001
1000
0010
0100
0001
,
1000
0010
0100
0001
1000
0010
0100
0001
,
1000
0100
0010
0001
1000
0100
0010
0001
1000
0100
0010
0001
1000
0100
0010
0001
,
1000
0100
0010
0001
1000
0100
0010
0001
,
1000
0010
0100
0001
1000
0010
0100
0001
1000
0010
0100
0001
1000
0010
0100
0001
,
1000
0010
0100
0001
1000
0010
0100
0001
,
1000
0100
0010
0001
1000
0100
0010
0001
1000
0100
0010
0001
1000
0100
0010
0001
,
1000
0100
0010
0001
1000
0100
0010
0001
,
1000
0010
0100
0001
1000
0010
0100
0001
1000
0010
0100
0001
1000
0010
0100
0001
,
1000
0010
0100
0001
1000
0010
0100
0001
,
1000
0100
0010
0001
1000
0100
0010
0001
1000
0100
0010
0001
1000
0100
0010
0001
,
1000
0100
0000
0022
0000
0033
0020
0032
,
2003
0000
3020
0000
0000
0230
0000
0302
,
0000
0000
2003
0000
0000
0000
3002
0000
0000
0000
1003
0100
1000
0000
0001
0000
,
0001
1000
0001
0000
1000
0000
0001
0001
,
1000
0100
0010
0001
1000
0100
0010
0001
1000
0100
0010
0001
1000
0100
0010
0001
,
1000
0000
0002
0000
2003
0000
3002
2003
,
3010
0100
0001
1000
0010
0100
0001
1000
0010
0100
0001
1000
0010
0100
0001
1000
,
0010
0100
0001
1000
0010
0100
0001
1000
,
0100
0010
0001
1000
0100
0010
0001
1000
0100
0010
0001
1000
0100
0010
0001
1000
,
0100
0010
0001
1000
0100
0010
0001
1000
,
0010
0100
0001
1000
0010
1000
0001
0100
0010
1000
0001
0100
0001
1000
0010
0100
,
0001
1000
0010
1000
0001
0100
0001
1000
,
0001
0010
0100
1000
0001
0010
0100
1000
0001
0010
0100
1000
0001
0010
0100
1000
,
0001
0010
0100
1000
0001
0010
0100
1000
,
0001
0100
0010
1000
0001
0100
0010
1000
0001
0100
0010
1000
0001
0100
0010
1000
,
0001
0100
0010
1000
0001
0100
0010
1000
,
0001
0010
0100
1000
0001
0010
0001
1000
0100
0010
0001
1000
0100
1000
0001
0010
,
0001
1000
0100
0010
0001
0010
0100
1000
,
0001
0100
0010
1000
0001
0100
0010
1000
0001
0100
0010
1000
0001
0100
0010
0100
,
0001
1000
0010
0100
0001
1000
0010
0100
,
0001
1000
0100
0010
0001
1000
0100
1000
0001
0010
0100
1000
0001
0010
0100
1000
,
0001
0010
0100
1000
0100
0010
0001
1000
,
0001
0000
1000
0000
0010
0100
0000
0002
,
0000
0003
1000
0000
0010
0100
0000
0001
,
0000
0000
1000
0000
0100
0010
0000
0001
;

//---------------dance-double - ----------------
#NOTES:
     dance-double:
     Dossar:
     Challenge:
     12:
     0.799,0.901,0.024,0.179,1.000: // measure 1
00000000
00000000
00000000
00000000
,  // measure 2
00000000
00000000
00000000
00000000
,  // measure 3
00000000
00000000
00000000
00000000
,  // measure 4
00000000
00000000
00000000
00000000
,  // measure 5
00000000
00000000
00000000
00000000
,  // measure 6
00000000
00000000
00000000
00000000
,  // measure 7
10000000
00100000
00000000
01000000
00010000
00000000
10000000
00100000
00000000
01000000
00010000
00000000
00100000
00000000
00001000
00000000
,  // measure 8
00010000
00000100
00000000
00001000
00000001
00000000
00010000
00000100
00000000
00001000
00000001
00000000
00000100
00000000
00000010
00000000
,  // measure 9
00010000
00000100
00000000
00001000
00000010
00000000
00010000
00000100
00000000
00001000
00000010
00000000
00010000
00000000
00001000
00000000
,  // measure 10
00100000
00010000
00000000
10000000
01000000
00000000
00100000
00010000
00000000
10000000
01000000
00000000
00100000
00000000
00000000
00000000
,  // measure 11
00010000
10000000
00010000
01000000
00001000
00010000
00001000
00100000
00010000
01000000
00010000
01000000
00001000
00000000
00000000
00000000
,  // measure 12
00010000
00000000
00000000
00000000
00000100
00000000
00000000
00000000
00000010
00000000
00000000
00000000
00000001
00000000
00001000
00000001
,  // measure 13
00001000
00000010
00000100
00000001
00001000
00000100
00010000
00001000
00100000
00010000
00100000
01000000
10000000
00000000
00000000
00000000
,  // measure 14
00010000
00000000
00000000
00000000
01000000
00000000
00000000
00000000
00001000
00000000
00000000
00000000
00010000
00000000
00000100
00001000
,  // measure 15
00000100
00010000
00001000
00100000
00001000
00100000
00010000
10000000
00010000
01000000
00100000
10000000
00010000
01000000
00001000
00010000
,  // measure 16
00001000
00000000
00000000
00000000
00010000
00000000
00000000
00000000
00000100
00000000
00000000
00000000
00000010
00000000
00000001
00001000
,  // measure 17
00000001
00000100
00000010
00001000
00000100
00010000
00000100
00010000
00001000
00100000
00001000
00010000
00001000
01000000
00010000
10000000
,  // measure 18
01000000
00000000
00100000
00000000
00001000
00010000
00000100
00001000
,  // measure 19
00000001
00000100
00000001
00001000
00000100
00010000
00000100
00010000
00001000
00000000
01000000
00000000
00010000
00000000
10000000
00000000
,  // measure 20
00010000
01000000
00001000
01000000
00010000
10000000
00010000
10000000
01000000
00000000
00100000
00000000
00001000
00000000
00010000
00000000
,  // measure 21
00000100
00001000
00000100
00000010
00000001
00001000
00000100
00010000
00000100
00010000
00001000
00100000
00010000
00100000
01000000
10000000
,  // measure 22
00010000
01000000
00000000
02020000
00000000
03030000
01000000
00001000
,  // measure 23
00020000
00000000
00030200
00000000
00000000
00000320
00000000
00000032
,  // measure 24
00000000
00002003
00000000
00003020
00000000
00000030
00000000
00010000
,  // measure 25
00001000
00100000
00010000
00000000
10000000
00000000
00020000
20000000
,  // measure 26
00000000
00000000
00000000
30030000
,  // measure 27
10010000
00000000
20000000
00000000
30002000
00000000
20003000
30002000
,  // measure 28
10003000
00001000
01000000
00000100
10000000
00001000
01000000
00000100
10000000
00001000
01000000
00000100
10000000
00001000
01000000
00000100
,  // measure 29
10000000
00001000
00100000
00000010
10000000
00001000
00100000
00000010
10000000
00001000
00100000
00000010
10000000
00001000
00100000
00000010
,  // measure 30
00010000
00000001
00100000
00000010
00010000
00000001
00100000
00000010
00010000
00000001
00100000
00000010
00010000
00000001
00100000
00000010
,  // measure 31
10000000
00001000
01000000
00000100
10000000
00001000
01000000
00000100
10000000
00001000
01000000
00000100
10000000
00001000
01000000
00000100
,  // measure 32
10000000
00001000
10000000
00001000
01000000
00000100
01000000
00000100
10000000
00001000
10000000
00001000
01000000
00000100
01000000
00000100
,  // measure 33
00100000
00000010
00100000
00000010
00010000
00000001
00010000
00000001
00100000
00000010
00100000
00000010
00010000
00000001
00010000
00000001
,  // measure 34
01000000
00000100
01000000
00000100
10000000
00001000
10000000
00001000
01000000
00000100
01000000
00000100
10000000
00001000
10000000
00001000
,  // measure 35
00100000
00000010
00100000
00000010
10000000
00001000
10000000
00001000
00100000
00000010
00100000
00000010
10000000
00001000
10000000
00001000
,  // measure 36
01000000
00000100
00010000
00001000
01000000
00000100
00010000
00001000
01000000
00000100
00010000
00001000
01000000
00000100
00010000
00001000
,  // measure 37
00100000
00000010
00010000
00001000
00100000
00000010
00010000
00001000
00100000
00000010
00010000
00001000
00100000
00000010
00010000
00001000
,  // measure 38
00100000
00001000
00010000
00000100
00100000
00001000
00010000
00000100
00100000
00001000
00010000
00000100
00100000
00001000
00010000
00000100
,  // measure 39
01000000
00001000
00010000
00000100
01000000
00001000
00010000
00000100
01000000
00001000
00010000
00000100
01000000
00001000
00010000
00000100
,  // measure 40
10000000
00001000
00100000
00000010
10000000
00001000
00100000
00000010
10000000
00001000
00100000
00000010
10000000
00001000
00100000
00000010
,  // measure 41
01000000
00000100
00010000
00000001
01000000
00000100
00010000
00000001
01000000
00000100
00010000
00000001
01000000
00000100
00010000
00000001
,  // measure 42
10000000
00001000
01000000
00000100
10000000
00001000
01000000
00000100
10000000
00001000
01000000
00000100
10000000
00001000
01000000
00000100
,  // measure 43
10000000
00001000
01000000
00000100
00100000
00000010
00010000
00000001
10000000
00001000
01000000
00000100
00100000
00000010
00010000
00000001
,  // measure 44
00001000
00000000
00000001
00000000
00000100
00000010
00000000
00020000
,  // measure 45
00000000
00030000
00001000
00000000
00100000
00010000
00000000
10000000
,  // measure 46
00000000
00000000
00010000
00000000
00100000
00001000
00000000
00010000
;
