#TITLE:IT'S A SMALL WORLD;
#SUBTITLE:;
#ARTIST:AbeatC All Stars;
#TITLETRANSLIT:;
#SUBTITLETRANSLIT:;
#ARTISTTRANSLIT:;
#CREDIT:;
#BANNER:../ddrstream fallback-bn.png;
#BACKGROUND:../ddrstream fallback-bg.png;
#LYRICSPATH:;
#CDTITLE:;
#MUSIC:IT'S A SMALL WORLD.ogg;
#OFFSET:-1.007;
#SAMPLESTART:36.670;
#SAMPLELENGTH:12.900;
#SELECTABLE:YES;
#DISPLAYBPM:148.000;
#BPMS:0.000=148.060;
#STOPS:;
#BGCHANGES:;

//---------------dance-single - ----------------
#NOTES:
     dance-single:
     Dossar:
     Challenge:
     12:
     1.000,0.966,0.011,0.055,1.000:
0000
0000
0000
0000
,
0000
0000
0000
0000
,
1000
0000
0200
0000
0000
0320
0000
0000
,
0032
0000
0000
0000
,
0003
0000
0100
0010
0000
1000
0000
0001
,
0000
0000
0010
0000
0000
0000
0100
0000
0000
0000
1000
0000
0000
0000
0001
0100
,
0001
0000
1000
0010
1000
0000
0001
0000
0100
0000
0010
0100
0010
0000
1000
0001
,
1000
0000
0100
0010
0100
0000
0010
0001
0010
0000
0001
0000
1000
0000
0100
0000
,
1000
0000
0001
0100
0001
1000
0010
1000
0001
0000
0100
0010
0100
0000
0001
0000
,
0101
0000
1000
0100
1000
0000
0000
0000
0001
0010
0000
0000
0010
0000
0001
1000
,
0001
0100
0010
1000
0001
0000
1000
0010
0000
0100
0001
0000
1000
0010
0100
0000
,
0001
0000
1000
0100
0000
0010
0001
0010
0100
1000
0100
0010
0001
1000
0100
1000
,
0001
0100
0010
1000
0001
1000
0010
0100
0000
0001
0000
1000
0000
0001
0010
0000
,
0100
1000
0100
0010
0001
1000
0100
1000
0001
0000
0000
0000
0100
0010
0100
0001
,
1000
0010
0100
0001
1000
0010
0100
0001
1000
0010
0100
0010
1000
0001
0100
0001
,
1000
0100
0010
0001
0010
0100
1000
0001
0010
0100
1000
0001
0010
0100
0010
0001
,
1000
0010
0100
0001
1000
0010
1000
0001
0100
0010
1000
0001
0100
0010
0100
0001
,
1000
0100
0010
0001
1000
0100
1000
0001
0010
0100
1000
0001
0010
0100
0010
0001
,
1000
0010
0100
0001
1000
0010
1000
0001
0100
0010
1000
0001
0100
0010
0100
0001
,
1000
0100
0010
0001
1000
0100
1000
0001
0010
0100
1000
0001
0010
0100
0010
0001
,
1000
0010
0100
0001
1000
0001
0100
0010
1000
0010
0100
0001
1000
0010
1000
0001
,
0010
0100
1000
0100
0010
0001
0010
0100
1000
0001
1000
0000
0001
0000
1000
0000
,
0001
0100
0010
1000
0001
0100
0010
1000
0001
0100
0010
0100
0001
1000
0010
1000
,
0001
0010
0100
1000
0100
0010
0001
1000
0100
0010
0001
1000
0100
0010
0100
1000
,
0001
0100
0010
1000
0001
0100
0001
1000
0010
0100
0001
1000
0010
0100
0010
1000
,
0001
0010
0100
1000
0001
0010
0001
1000
0100
0010
0001
1000
0100
0010
0100
1000
,
0001
0100
0010
1000
0001
0100
0001
1000
0010
0100
0001
1000
0010
0100
0010
1000
,
0001
0010
0100
1000
0001
0010
0001
1000
0100
0010
0001
1000
0100
0010
0100
1000
,
0001
0100
0010
1000
0001
1000
0010
0100
0001
0100
0010
1000
0001
0100
0001
1000
,
0100
0010
0001
0010
0100
1000
0100
0010
0002
0000
0003
0000
0100
0001
0100
0001
,
1000
0010
0100
0001
1000
0000
0001
0100
0000
0010
1000
0000
0001
0100
0010
0000
,
1000
0000
0001
0010
0000
0100
1000
0100
0010
0001
0010
0100
1000
0001
0010
0001
,
1000
0010
0100
0001
1000
0001
0100
0010
0000
1000
0000
0001
0000
1000
0100
0000
,
0010
0001
0010
0100
1000
0001
0010
0001
1000
0000
0000
0000
0010
0100
0010
1000
,
0001
0100
0010
1000
0001
0100
0010
1000
0001
0100
0010
0100
0001
1000
0010
1000
,
0001
0010
0100
1000
0100
0010
0001
1000
0100
0010
0001
1000
0100
0010
0100
1000
,
0001
0100
0010
1000
0001
0100
0001
1000
0010
0100
0001
1000
0010
0100
0010
1000
,
0001
0010
0100
1000
0001
0010
0001
1000
0100
0010
0001
1000
0100
0010
0100
1000
,
0001
0100
0010
1000
0001
0100
0001
1000
0010
0100
0001
1000
0010
0100
0010
1000
,
0001
0010
0100
1000
0001
0010
0001
1000
0100
0010
0001
1000
0100
0010
0100
1000
,
0001
0100
0010
1000
0001
1000
0010
0100
0001
0100
0010
1000
0001
0100
0001
1000
,
0100
0010
0001
0010
0100
1000
0100
0010
0001
1000
0001
0000
1000
0000
0001
0000
,
1000
0010
0100
0001
1000
0010
0100
0001
1000
0010
0100
0010
1000
0001
0100
0001
,
1000
0100
0010
0001
0010
0100
1000
0001
0010
0100
1000
0001
0010
0100
0010
0001
,
1000
0010
0100
0001
1000
0010
1000
0001
0100
0010
1000
0001
0100
0010
0100
0001
,
1000
0100
0010
0001
1000
0100
1000
0001
0010
0100
1000
0001
0010
0100
0010
0001
,
1000
0010
0100
0001
1000
0010
1000
0001
0100
0010
1000
0001
0100
0010
0100
0001
,
1000
0100
0010
0001
1000
0100
1000
0001
0010
0100
1000
0001
0010
0100
0010
0001
,
1000
0010
0100
0001
1000
0001
0100
0010
1000
0010
0100
0001
1000
0010
1000
0001
,
0010
0100
1000
0100
0010
0001
0010
0100
2000
0000
3000
0000
0010
1000
0010
1000
,
0001
0100
0010
1000
0001
0000
1000
0010
0000
0100
0001
0000
1000
0010
0100
0000
,
0001
0000
1000
0100
0000
0010
0001
0010
0100
1000
0100
0010
0001
1000
0100
1000
,
0001
0100
0010
1000
0001
1000
0010
0100
0000
0001
0000
1000
0000
0001
0010
0000
,
0100
1000
0100
0010
0001
1000
0100
1000
0001
0000
0000
0000
0000
0000
0000
0000
;

//---------------dance-single - ----------------
#NOTES:
     dance-single:
     Dossar:
     Hard:
     11:
     0.854,0.966,0.011,0.055,1.000:
0000
0000
0000
0000
,
0000
0000
0000
0000
,
1000
0000
0200
0000
0000
0320
0000
0000
,
0032
0000
0000
0000
,
0003
0000
0100
0010
0000
1000
0000
0001
,
0000
0000
0010
0000
0000
0000
0100
0000
0000
0000
1000
0000
0000
0000
0001
0100
,
0001
0000
1000
0010
1000
0000
0001
0000
0100
0000
0010
0100
0010
0000
1000
0001
,
1000
0000
0100
0010
0100
0000
0010
0001
0010
0000
0001
0000
1000
0000
0100
0000
,
1000
0000
0001
0100
0001
1000
0010
1000
0001
0000
0100
0010
0100
0000
0001
0000
,
0101
0000
1000
0100
1000
0000
0000
0000
0001
0010
0000
0000
0010
0000
0001
1000
,
0001
0100
0010
1000
0001
0000
1000
0010
0000
0100
0001
0000
1000
0010
0100
0000
,
0001
0000
1000
0100
0000
0010
0001
0010
0100
1000
0100
0010
0001
1000
0100
1000
,
0001
0100
0010
1000
0001
1000
0010
0100
0000
0001
0000
1000
0000
0001
0010
0000
,
0100
1000
0100
0010
0001
1000
0100
1000
0001
0000
0000
0000
0100
0000
0001
0000
,
1000
0000
0010
0000
1000
0000
0001
1000
,
0100
0000
0010
0000
0001
0000
0010
0100
,
1000
0000
0001
0000
0100
0000
0010
1000
,
0001
0000
1000
0000
0100
0000
0010
0100
,
1000
0000
0100
0010
0001
0000
1000
0010
,
0100
0000
0001
0100
0010
0000
1000
0001
,
0010
0100
0010
0001
,
1000
0000
0000
0000
0001
0000
0100
0010
1000
0001
1000
0000
0001
0000
1000
0000
,
0001
0100
0010
1000
0001
0100
0010
1000
0001
0100
0010
0100
0001
1000
0010
1000
,
0001
0010
0100
1000
0100
0010
0001
1000
0100
0010
0001
1000
0100
0010
0100
1000
,
0001
0100
0010
1000
0001
0100
0001
1000
0010
0100
0001
1000
0010
0100
0010
1000
,
0001
0010
0100
1000
0001
0010
0001
1000
0100
0010
0001
1000
0100
0010
0100
1000
,
0001
0100
0010
1000
0001
0100
0001
1000
0010
0100
0001
1000
0010
0100
0010
1000
,
0001
0010
0100
1000
0001
0010
0001
1000
0100
0010
0001
1000
0100
0010
0100
1000
,
0001
0100
0010
1000
0001
1000
0010
0100
0001
0100
0010
1000
0001
0100
0001
1000
,
0100
0010
0001
0010
0100
1000
0100
0010
0002
0000
0003
0000
0100
0001
0100
0001
,
1000
0010
0100
0001
1000
0000
0001
0100
0000
0010
1000
0000
0001
0100
0010
0000
,
1000
0000
0001
0010
0000
0100
1000
0100
0010
0001
0010
0100
1000
0001
0010
0001
,
1000
0010
0100
0001
1000
0001
0100
0010
0000
1000
0000
0001
0000
1000
0100
0000
,
0010
0001
0010
0100
1000
0001
0010
0001
1000
0000
0000
0000
0010
0000
1000
0000
,
0001
0000
0100
0000
0010
0000
1000
0001
,
0010
0000
0100
0000
0010
0000
0001
1000
,
0100
0000
1000
0000
0001
0000
0100
0010
,
1000
0000
0001
0000
0010
0000
0100
0010
,
0001
0000
1000
0100
0010
0000
0001
1000
,
0010
0000
0100
0001
1000
0000
0001
0010
,
0100
1000
0100
0010
,
0001
0000
0000
0000
1000
0000
0010
0100
0001
1000
0001
0000
1000
0000
0001
0000
,
1000
0010
0100
0001
1000
0010
0100
0001
1000
0010
0100
0010
1000
0001
0100
0001
,
1000
0100
0010
0001
0010
0100
1000
0001
0010
0100
1000
0001
0010
0100
0010
0001
,
1000
0010
0100
0001
1000
0010
1000
0001
0100
0010
1000
0001
0100
0010
0100
0001
,
1000
0100
0010
0001
1000
0100
1000
0001
0010
0100
1000
0001
0010
0100
0010
0001
,
1000
0010
0100
0001
1000
0010
1000
0001
0100
0010
1000
0001
0100
0010
0100
0001
,
1000
0100
0010
0001
1000
0100
1000
0001
0010
0100
1000
0001
0010
0100
0010
0001
,
1000
0010
0100
0001
1000
0001
0100
0010
1000
0010
0100
0001
1000
0010
1000
0001
,
0010
0100
1000
0100
0010
0001
0010
0100
2000
0000
3000
0000
0010
1000
0010
1000
,
0001
0100
0010
1000
0001
0000
1000
0010
0000
0100
0001
0000
1000
0010
0100
0000
,
0001
0000
1000
0100
0000
0010
0001
0010
0100
1000
0100
0010
0001
1000
0100
1000
,
0001
0100
0010
1000
0001
1000
0010
0100
0000
0001
0000
1000
0000
0001
0010
0000
,
0100
1000
0100
0010
0001
1000
0100
1000
0001
0000
0000
0000
0000
0000
0000
0000
;

//---------------dance-single - ----------------
#NOTES:
     dance-single:
     Dossar:
     Medium:
     10:
     0.804,0.849,0.033,0.164,0.974:
0000
0000
0000
0000
,
0000
0000
0000
0000
,
1000
0000
0200
0000
0000
0320
0000
0000
,
0032
0000
0000
0000
,
0003
0000
0100
0010
0000
1000
0000
0001
,
0000
0000
0010
0000
0000
0000
0100
0000
0000
0000
1000
0000
0000
0000
0001
0100
,
0001
0000
1000
0010
1000
0000
0001
0000
0100
0000
0010
0100
0010
0000
1000
0001
,
1000
0000
0100
0010
0100
0000
0010
0001
0010
0000
0001
0000
1000
0000
0100
0000
,
1000
0000
0001
0100
0001
1000
0010
1000
0001
0000
0100
0010
0100
0000
0001
0000
,
0101
0000
1000
0100
1000
0000
0000
0000
0001
0010
0000
0000
0010
0000
0001
1000
,
0001
0100
0010
1000
0001
0000
1000
0010
0000
0100
0001
0000
1000
0010
0100
0000
,
0001
0000
1000
0100
0000
0010
0001
0010
0100
1000
0100
0010
0001
1000
0100
1000
,
0001
0100
0010
1000
0001
1000
0010
0100
0000
0001
0000
1000
0000
0001
0010
0000
,
0100
1000
0100
0010
0001
1000
0100
1000
0001
0000
0000
0000
0100
0000
0001
0000
,
1000
0000
0010
0000
1000
0000
0001
1000
,
0100
0000
0010
0000
0001
0000
0010
0100
,
1000
0000
0001
0000
0100
0000
0010
1000
,
0001
0000
1000
0000
0100
0000
0010
0100
,
1000
0000
0100
0010
0001
0000
1000
0010
,
0100
0000
0001
0100
0010
0000
1000
0001
,
0010
0100
0010
0001
,
1000
0000
0000
0000
0001
0000
0100
0010
1000
0001
1000
0000
0001
0000
1000
0000
,
0001
0100
0010
1000
0001
0100
0010
1000
0001
0100
0010
0100
0001
1000
0010
1000
,
0001
0010
0100
1000
0100
0010
0001
1000
0200
0000
0000
0000
1300
0000
1000
0000
,
0001
0100
0010
1000
0001
0100
0001
1000
0010
0100
0001
1000
0010
0100
0010
1000
,
0001
0010
0100
1000
0001
0010
0001
1000
0200
0000
0000
0000
1300
0000
1000
0000
,
0001
0100
0010
1000
0001
0100
0001
1000
0010
0100
0001
1000
0010
0100
0010
1000
,
0001
0010
0100
1000
0001
0010
0001
1000
0200
0000
0000
0000
1300
0000
1000
0000
,
0001
0100
0010
1000
0001
1000
0010
0100
0001
0100
0010
1000
0001
0100
0001
1000
,
0020
0000
0000
0000
0000
0000
0030
0000
0202
0000
0303
0000
0100
0001
0100
0001
,
1000
0010
0100
0001
1000
0000
0001
0100
0000
0010
1000
0000
0001
0100
0010
0000
,
1000
0000
0001
0010
0000
0100
1000
0100
0010
0001
0010
0100
1000
0001
0010
0001
,
1000
0010
0100
0001
1000
0001
0100
0010
0000
1000
0000
0001
0000
1000
0100
0000
,
0010
0001
0010
0100
1000
0001
0010
0001
1000
0000
0000
0000
0010
0000
1000
0000
,
0001
0000
0100
0000
0010
0000
1000
0001
,
0010
0000
0100
0000
0010
0000
0001
1000
,
0100
0000
1000
0000
0001
0000
0100
0010
,
1000
0000
0001
0000
0010
0000
0100
0010
,
0001
0000
1000
0100
0010
0000
0001
1000
,
0010
0000
0100
0001
1000
0000
0001
0010
,
0100
1000
0100
0010
,
0001
0000
0000
0000
1000
0000
0010
0100
0001
1000
0001
0000
1000
0000
0001
0000
,
1000
0010
0100
0001
1000
0010
0100
0001
1000
0010
0100
0010
1000
0001
0100
0001
,
1000
0100
0010
0001
0010
0100
1000
0001
0020
0000
0000
0000
0031
0000
0001
0000
,
1000
0010
0100
0001
1000
0010
1000
0001
0100
0010
1000
0001
0100
0010
0100
0001
,
1000
0100
0010
0001
1000
0100
1000
0001
0020
0000
0000
0000
0031
0000
0001
0000
,
1000
0010
0100
0001
1000
0010
1000
0001
0100
0010
1000
0001
0100
0010
0100
0001
,
1000
0100
0010
0001
1000
0100
1000
0001
0020
0000
0000
0000
0031
0000
0001
0000
,
1000
0010
0100
0001
1000
0001
0100
0010
1000
0010
0100
0001
1000
0010
1000
0001
,
0200
0000
0000
0000
0000
0000
0300
0000
2020
0000
3030
0000
0010
1000
0010
1000
,
0001
0100
0010
1000
0001
0000
1000
0010
0000
0100
0001
0000
1000
0010
0100
0000
,
0001
0000
1000
0100
0000
0010
0001
0010
0100
1000
0100
0010
0001
1000
0100
1000
,
0001
0100
0010
1000
0001
1000
0010
0100
0000
0001
0000
1000
0000
0001
0010
0000
,
0100
1000
0100
0010
0001
1000
0100
1000
0001
0000
0000
0000
0000
0000
0000
0000
;

//---------------dance-double - ----------------
#NOTES:
     dance-double:
     Dossar:
     Challenge:
     11:
     0.854,0.966,0.011,0.055,1.000:
00000000
00000000
00000000
00000000
,
00000000
00000000
00000000
00000000
,
10000000
00000000
02000000
00000000
00000000
03200000
00000000
00000000
,
00320000
00000000
00000000
00000000
,
00030000
00000000
00100000
00001000
00000000
00010000
00000000
00000100
,
00000000
00000000
00001000
00000000
00000000
00000000
00000010
00000000
00000000
00000000
00010000
00000000
00000000
00000000
00001000
00100000
,
00001000
00000000
00010000
00000010
00010000
00000000
00000100
00000000
00000010
00000000
00000001
00001000
00000001
00000000
00001000
00000100
,
00001000
00000000
00000100
00010000
00000100
00000000
00010000
00001000
00010000
00000000
00000100
00000000
00000010
00000000
00000001
00000000
,
00000010
00000000
00000100
00001000
00000100
00000010
00000001
00000010
00000100
00000000
00001000
00000001
00001000
00000000
00000010
00000000
,
00001010
00000000
00010000
00001000
00010000
00000000
00000000
00000000
00001000
00100000
00000000
00000000
01000000
00000000
10000000
00010000
,
10000000
00100000
01000000
00010000
10000000
00000000
00010000
00100000
00000000
00001000
00010000
00000000
00000100
00000010
00000001
00000000
,
00001000
00000000
00000001
00000010
00000000
00000100
00001000
00000100
00000010
00000001
00000010
00000100
00001000
00000001
00000010
00000001
,
00001000
00000010
00001000
00000010
00010000
00001000
00010000
00001000
00000000
00100000
00000000
01000000
00000000
00100000
00010000
00000000
,
10000000
00100000
10000000
00010000
01000000
00100000
10000000
00100000
01000000
00000000
00000000
00000000
00010000
00000000
01000000
00000000
,
00001000
00000000
00010000
00000000
00000100
00000000
00000010
00000001
,
00001000
00000000
00000010
00000000
00010000
00000000
00001000
00100000
,
01000000
00000000
10000000
00000000
00010000
00000000
00100000
00001000
,
00010000
00000000
00000010
00000000
00001000
00000000
00000001
00000010
,
00000100
00000000
00000010
00000100
00001000
00000000
00000100
00010000
,
00001000
00000000
00010000
00001000
00100000
00000000
00010000
10000000
,
00100000
01000000
00010000
00100000
,
00001000
00000000
00000000
00000000
00010000
00000000
00000010
00001000
00000001
00000100
00000001
00000000
00001000
00000000
00000001
00000000
,
00001000
00000010
00000100
00000001
00001000
00000010
00000100
00000001
00001000
00000010
00000100
00000010
00001000
00000001
00000100
00000001
,
00001000
00000010
00010000
00001000
00010000
00001000
00100000
00010000
00100000
01000000
10000000
00010000
00100000
01000000
00100000
00010000
,
10000000
00100000
01000000
00010000
10000000
00100000
01000000
00100000
10000000
00010000
01000000
00100000
10000000
00010000
01000000
00001000
,
01000000
00001000
00010000
00000100
00010000
00001000
00010000
00000100
00001000
00000100
00000010
00000001
00001000
00000100
00001000
00000001
,
00000100
00000010
00001000
00000001
00000100
00000010
00001000
00000001
00000100
00000010
00001000
00000001
00000100
00000010
00001000
00000010
,
00010000
00001000
00010000
00000100
00010000
00001000
00100000
00010000
00100000
01000000
10000000
00010000
00100000
01000000
00100000
00010000
,
10000000
00100000
01000000
00100000
10000000
00010000
01000000
00100000
10000000
00100000
01000000
00010000
10000000
00100000
10000000
00010000
,
00100000
01000000
10000000
01000000
00100000
00010000
00100000
01000000
20000000
00000000
30000000
00000000
00010000
00100000
00010000
00100000
,
00001000
00010000
00000100
00001000
00000100
00000000
00001000
00000001
00000000
00000010
00000100
00000000
00010000
00000100
00001000
00000000
,
00000001
00000000
00001000
00000010
00000000
00000100
00000001
00000100
00000010
00001000
00000010
00000100
00000001
00001000
00000100
00001000
,
00000001
00000010
00000100
00001000
00000100
00010000
00001000
00010000
00000000
00001000
00000000
00100000
00000000
01000000
10000000
00000000
,
00010000
01000000
00010000
10000000
00100000
01000000
00010000
10000000
00010000
00000000
00000000
00000000
00100000
00000000
00010000
00000000
,
10000000
00000000
01000000
00000000
00100000
00000000
01000000
10000000
,
00010000
00000000
01000000
00000000
00001000
00000000
00010000
00000100
,
00000010
00000000
00000001
00000000
00001000
00000000
00000100
00010000
,
00001000
00000000
01000000
00000000
00010000
00000000
10000000
01000000
,
00100000
00000000
01000000
00100000
00010000
00000000
00100000
00001000
,
00010000
00000000
00001000
00010000
00000100
00000000
00001000
00000001
,
00000100
00000010
00001000
00000100
,
00010000
00000000
00000000
00000000
00001000
00000000
01000000
00010000
10000000
00100000
10000000
00000000
00010000
00000000
10000000
00000000
,
00010000
01000000
00100000
10000000
00010000
01000000
00100000
10000000
00010000
01000000
00100000
01000000
00010000
10000000
00100000
10000000
,
00010000
01000000
00001000
00010000
00001000
00010000
00000100
00001000
00000100
00000010
00000001
00001000
00000100
00000010
00000100
00001000
,
00000001
00000100
00000010
00001000
00000001
00000100
00000010
00000100
00000001
00001000
00000010
00000100
00000001
00001000
00000010
00010000
,
00000010
00010000
00001000
00100000
00001000
00010000
00001000
00100000
00010000
00100000
01000000
10000000
00010000
00100000
00010000
10000000
,
00100000
01000000
00010000
10000000
00100000
01000000
00010000
10000000
00100000
01000000
00010000
10000000
00100000
01000000
00010000
01000000
,
00001000
00010000
00001000
00100000
00001000
00010000
00000100
00001000
00000100
00000010
00000001
00001000
00000100
00000010
00000100
00001000
,
00000001
00000100
00000010
00000100
00000001
00001000
00000010
00000100
00000001
00000100
00000010
00001000
00000001
00000100
00000001
00001000
,
00000100
00000010
00000001
00000010
00000100
00001000
00000100
00000010
00000002
00000000
00000003
00000000
00001000
00000100
00001000
00000100
,
00010000
00001000
00100000
00010000
00100000
00000000
00010000
10000000
00000000
01000000
00100000
00000000
00001000
00100000
00010000
00000000
,
10000000
00000000
00010000
01000000
00000000
00100000
10000000
00100000
01000000
00010000
01000000
00100000
10000000
00010000
00100000
00010000
,
10000000
01000000
00100000
00010000
00100000
00001000
00010000
00001000
00000000
00010000
00000000
00000100
00000000
00000010
00000001
00000000
,
00001000
00000100
00001000
00000001
00000010
00000100
00001000
00000100
00010000
00000000
00000000
00000000
00000000
00000000
00000000
00000000
;
