#TITLE:Healing Vision;
#SUBTITLE:;
#ARTIST:DE-SIRE;
#TITLETRANSLIT:;
#SUBTITLETRANSLIT:;
#ARTISTTRANSLIT:;
#CREDIT:;
#BANNER:../ddrstream fallback-bn.png;
#BACKGROUND:../ddrstream fallback-bg.png;
#LYRICSPATH:;
#CDTITLE:;
#MUSIC:Healing Vision.ogg;
#OFFSET:-0.014;
#SAMPLESTART:79.590;
#SAMPLELENGTH:9.730;
#SELECTABLE:YES;
#DISPLAYBPM:49.000:196.000;
#BPMS:0.000=98.010,36.000=196.020,204.000=49.005,209.000=196.020,275.000=96.000;
#STOPS:;
#BGCHANGES:;

//---------------dance-single - ----------------
#NOTES:
     dance-single:
     Dossar:
     Challenge:
     15:
     1.000,1.000,0.009,0.298,1.000:
0000
0000
0000
0000
,
0000
0000
0000
0000
,
0000
0000
0000
0000
0000
0000
0000
0000
0000
0000
0000
1000
0001
0000
0001
0000
,
1000
0000
0100
0000
0010
0001
0010
0000
0100
0000
1000
0100
1000
0000
0001
1000
,
1000
0000
0001
1000
1000
0010
0100
0001
0001
0100
0010
1000
1000
0001
0001
0000
,
1000
0000
0100
0000
0010
0100
0010
0001
1000
0001
0001
0010
0100
1000
0100
0000
,
1000
0000
0001
0000
0100
0010
0100
0001
1000
0001
0001
0100
0010
1000
0010
0100
,
0001
0000
1000
0000
0100
0010
0100
1000
0001
1000
1000
0100
0010
0001
0010
0100
,
1000
0000
0001
0000
0100
0010
0100
0001
1000
0001
0200
0020
0000
0000
0000
0330
,
1000
0010
0100
0001
1000
0010
0100
0001
1000
0010
1000
0001
0100
0001
1000
0100
,
0010
0001
1000
0100
0010
0001
1000
0100
1000
0001
0010
0100
1000
0001
0010
0100
,
1000
0001
0100
0010
1000
0001
0100
0010
0100
0001
1000
0010
0100
0001
1000
0001
,
0010
0100
1000
0001
0010
0100
1000
0001
0010
0001
1000
0100
0010
0001
1000
0010
,
1000
0001
0100
0010
1000
0001
1000
0010
0100
0001
1000
0010
0100
0010
1000
0001
,
0010
0100
1000
0001
0010
0001
1000
0100
0010
0001
0010
0100
1000
0001
0010
0100
,
1000
0001
0100
0010
0100
0001
1000
0010
0100
0001
1000
0010
1000
0001
0100
0001
,
1000
0100
0010
0001
1000
0100
0010
0001
1000
0100
0010
0001
0010
0100
1000
0001
,
0100
0010
1000
0001
0100
0010
1000
0001
0100
0010
0100
0001
1000
0010
0100
0001
,
1000
0100
0010
0001
1000
0100
0010
0001
0010
0100
1000
0001
0010
0100
1000
0001
,
0100
0010
1000
0001
0100
0010
1000
0001
0100
0010
0100
0001
1000
0010
0100
0001
,
1000
0100
0010
0001
1000
0100
1000
0001
0010
0100
1000
0001
0010
0100
1000
0001
,
1000
0010
0100
0001
0100
0010
1000
0001
0100
0010
1000
0010
0100
0001
1000
0100
,
0010
0001
1000
0100
0010
0001
0010
0100
1000
0001
0010
0100
1000
0100
0010
0001
,
1000
0010
0100
0001
1000
0010
0100
0001
1000
0010
0100
0010
1000
0001
0100
0010
,
2000
3000
0002
0003
0020
0030
0200
0300
2000
3000
0200
0300
0020
0030
0002
0003
2000
3000
0200
0300
0020
0030
0002
0003
0010
0000
0100
0000
1000
0000
0001
0000
,
1000
0010
0100
0001
1000
0010
0100
0001
1000
0010
1000
0001
0100
0001
1000
0100
,
0010
0001
1000
0100
0010
0001
1000
0100
1000
0001
0010
0100
1000
0001
0010
0100
,
1000
0001
0100
0010
1000
0001
0100
0010
0100
0001
1000
0010
0100
0001
1000
0001
,
0010
0100
1000
0001
0010
0100
1000
0001
0010
0001
1000
0100
0010
0001
1000
0010
,
1000
0001
0100
0010
1000
0001
1000
0010
0100
0001
1000
0010
0100
0010
1000
0001
,
0010
0100
1000
0001
0010
0001
1000
0100
0010
0001
0010
0100
1000
0001
0010
0100
,
1000
0001
0100
0010
0100
0001
1000
0010
0100
0001
1000
0010
1000
0001
0100
0001
,
1000
0100
0010
0001
1000
0100
0010
0001
1000
0100
0010
0001
0010
0100
1000
0001
,
0100
0010
1000
0001
0100
0010
1000
0001
0100
0010
0100
0001
1000
0010
0100
0001
,
1000
0100
0010
0001
1000
0100
0010
0001
0010
0100
1000
0001
0010
0100
1000
0001
,
0100
0010
1000
0001
0100
0010
1000
0001
0100
0010
0100
0001
1000
0010
0100
0001
,
1000
0100
0010
0001
1000
0100
1000
0001
0010
0100
1000
0001
0010
0100
1000
0001
,
1000
0010
0100
0001
0100
0010
1000
0001
0100
0010
1000
0010
0100
0001
1000
0100
,
0010
0001
1000
0100
0010
0001
0010
0100
1000
0001
0010
0100
1000
0100
0010
0001
,
1000
0010
0100
0001
1000
0010
0100
0001
1000
0010
0100
0010
1000
0001
0100
0010
,
1000
0001
0010
0100
1000
0100
0010
0001
1000
0100
0010
0001
0010
0100
1000
0001
,
0200
0000
0000
0020
0000
0000
0000
0000
,
0000
0000
0330
0000
1000
0001
0100
0001
1000
0000
0001
0100
0001
1000
0000
0000
,
0001
0100
0010
1000
0001
0100
0010
1000
0001
0100
0001
1000
0010
1000
0001
0010
,
0100
1000
0001
0010
0100
1000
0001
0010
0001
1000
0100
0010
0001
1000
0100
0010
,
0001
1000
0010
0100
0001
1000
0010
0100
0010
1000
0001
0100
0010
1000
0001
1000
,
0200
0320
0032
2003
,
3001
0100
0010
0100
0001
1000
0001
0100
0010
1000
0001
0100
0010
0100
0001
1000
,
0100
0010
0001
1000
0100
1000
0001
0010
0100
1000
0100
0010
0001
1000
0100
0010
,
0001
1000
0010
0100
0010
1000
0001
0100
0010
1000
0001
0100
0001
1000
0010
1000
,
0001
0000
0100
0000
0001
0000
0200
0000
0000
0000
0000
0000
,
0302
2003
0000
0000
0000
0000
3200
0320
0000
0032
0023
0000
0000
0230
2300
0000
,
3001
0000
0100
0010
0100
0000
0001
0100
0010
1000
0010
0100
0001
1000
0010
1000
0001
0000
0000
0000
0100
0000
0000
0000
0010
0000
0000
0000
1000
0000
0000
0000
0001
0000
0000
0000
0100
0000
0000
0000
0010
0000
0000
0000
1000
0000
0000
0000
0001
0000
0000
0000
0100
0000
0000
0000
0001
0000
0000
0000
1000
0000
0000
0000
,
0010
1000
0001
0010
0100
1000
0001
0010
0100
1000
0001
0010
0001
1000
0100
0010
,
0001
1000
0100
0010
0001
1000
0010
0100
0001
1000
0010
0100
0010
1000
0001
0100
,
0010
1000
0001
1000
0100
0010
0001
1000
0100
0010
0001
1000
0100
1000
0001
0010
,
0100
1000
0001
0100
0001
1000
0010
0100
0001
1000
0001
0100
0010
1000
0001
0100
,
0010
0100
0001
1000
0100
0010
0001
1000
0100
1000
0001
0010
0100
1000
0100
0010
,
0001
1000
0100
0010
0001
1000
0010
0100
0010
1000
0001
0100
0010
1000
0001
0100
,
0001
1000
0010
1000
0001
0010
0100
1000
0001
0010
0100
1000
0001
0010
0100
1000
,
0100
0010
0001
1000
0010
0100
0001
1000
0010
0100
0001
1000
0010
0100
0010
1000
,
0001
0100
0010
1000
0001
0010
0100
1000
0001
0010
0100
1000
0100
0010
0001
1000
,
0100
0010
0001
1000
0010
0100
0001
1000
0010
0100
0001
1000
0010
0100
0010
1000
,
0001
0100
0010
1000
0001
0010
0100
1000
0001
0010
0001
1000
0100
0010
0001
1000
,
0100
0010
0001
1000
0001
0100
0010
1000
0010
0100
0001
1000
0010
0100
0001
0100
,
0010
1000
0001
0010
0100
1000
0001
0010
0100
1000
0100
0010
0001
1000
0100
0010
,
0001
0010
0100
1000
0001
0100
0010
1000
0001
0100
0010
1000
0001
0100
0010
0100
,
0001
1000
0010
0100
0001
1000
0100
0010
0001
0010
0100
1000
0001
0010
0100
1000
,
0001
0010
0002
0000
0000
0000
0000
0000
0003
0000
0000
0000
2002
0000
0000
0000
,
0000
0000
0000
0000
0000
3003
0000
0000
;

//---------------dance-single - ----------------
#NOTES:
     dance-single:
     Dossar:
     Hard:
     14:
     1.000,1.000,0.009,0.746,1.000:
0000
0000
0000
0000
,
0000
0000
0000
0000
,
0000
0000
0000
0000
0000
0000
0000
0000
0000
0000
0000
1000
0001
0000
0001
0000
,
1000
0000
0100
0000
0010
0001
0010
0000
0100
0000
1000
0100
1000
0000
0001
1000
,
1000
0000
0001
1000
1000
0010
0100
0001
0001
0100
0010
1000
1000
0001
0001
0000
,
1000
0000
0100
0000
0010
0100
0010
0001
1000
0001
0001
0010
0100
1000
0100
0000
,
1000
0000
0001
0000
0100
0010
0100
0001
1000
0001
0001
0100
0010
1000
0010
0100
,
0001
0000
1000
0000
0100
0010
0100
1000
0001
1000
1000
0100
0010
0001
0010
0100
,
1000
0000
0001
0000
0100
0010
0100
0001
1000
0001
0200
0020
0000
0000
0000
0330
,
2000
3000
0000
0000
0100
0000
0000
0000
1000
0000
0000
0000
0001
0000
0000
0000
0010
0000
0000
0000
0002
0003
0000
0000
0200
0300
0000
0000
0020
0030
0000
0000
,
1000
0100
1000
0001
0100
0001
1000
0100
,
0010
0000
0000
0000
0001
0000
0000
0000
0010
0000
0000
0000
0100
0000
0000
0000
2000
3000
0000
0000
0200
0300
0000
0000
0020
0030
0000
0000
0002
0003
0000
0000
,
1000
0000
0000
0000
0020
0030
0000
0000
2000
3000
0000
0000
0001
0000
0000
0000
0200
0300
0000
0000
0002
0003
0000
0000
0010
0000
0000
0000
0100
0000
0000
0000
,
2000
3000
0000
0000
0001
0000
0000
0000
1000
0000
0000
0000
0200
0300
0000
0000
0020
0030
0000
0000
0100
0000
0000
0000
2000
3000
0000
0000
0001
0000
0000
0000
,
0100
0000
0000
0000
0020
0030
0000
0000
0100
0000
0000
0000
0001
0000
0000
0000
1000
0000
0000
0000
0001
0000
0000
0000
0100
0000
0000
0000
0010
0000
0000
0000
,
1000
0000
0000
0000
0100
0000
0000
0000
1000
0000
0000
0000
0001
0000
0000
0000
0020
0030
0000
0000
0001
0000
0000
0000
1000
0000
0000
0000
0200
0300
0000
0000
,
0010
0000
0000
0000
0001
0000
0000
0000
0020
0030
0000
0000
0100
0000
0000
0000
1000
0000
0000
0000
0200
0300
0000
0000
0020
0030
0000
0000
0001
0000
0000
0000
,
2000
3000
0000
0000
0010
0000
0000
0000
1000
0000
0000
0000
0001
0000
0000
0000
0100
0000
0000
0000
0002
0003
0000
0000
0020
0030
0000
0000
0200
0300
0000
0000
,
1000
0000
0000
0000
0001
0000
0000
0000
1000
0000
0000
0000
0100
0000
0000
0000
0020
0030
0000
0000
0100
0000
0000
0000
2000
3000
0000
0000
0010
0000
0000
0000
,
0200
0300
0000
0000
0001
0000
0000
0000
0100
0000
0000
0000
0020
0030
0000
0000
1000
0000
0000
0000
0020
0030
0000
0000
0200
0300
0000
0000
0001
0000
0000
0000
,
2000
3000
0000
0000
0200
0300
0000
0000
2000
3000
0000
0000
0001
0000
0000
0000
0020
0030
0000
0000
0002
0003
0000
0000
0100
0000
0000
0000
0020
0030
0000
0000
,
2000
3000
0000
0000
0001
0000
0000
0000
1000
0000
0000
0000
0020
0030
0000
0000
0100
0000
0000
0000
0010
0000
0000
0000
2000
3000
0000
0000
0002
0003
0000
0000
,
0010
0000
0000
0000
0100
0000
0000
0000
0010
0000
0000
0000
0001
0000
0000
0000
1000
0000
0000
0000
0002
0003
0000
0000
0010
0000
0000
0000
0200
0300
0000
0000
,
1000
0000
0000
0000
0020
0030
0000
0000
1000
0000
0000
0000
0002
0003
0000
0000
0100
0000
0000
0000
0002
0003
0000
0000
0020
0030
0000
0000
0100
0000
0000
0000
,
2000
3000
0002
0003
0020
0030
0200
0300
2000
3000
0200
0300
0020
0030
0002
0003
2000
3000
0200
0300
0020
0030
0002
0003
0010
0000
0100
0000
1000
0000
0001
0000
,
1000
0010
0100
0001
1000
0010
0100
0001
1000
0010
1000
0001
0100
0001
1000
0100
,
0010
0001
1000
0100
0010
0001
1000
0100
1000
0001
0010
0100
1000
0001
0010
0100
,
1000
0001
0100
0010
1000
0001
0100
0010
0100
0001
1000
0010
0100
0001
1000
0001
,
0010
0100
1000
0001
0010
0100
1000
0001
0010
0001
1000
0100
0010
0001
1000
0010
,
1000
0001
0100
0010
1000
0001
1000
0010
0100
0001
1000
0010
0100
0010
1000
0001
,
0010
0100
1000
0001
0010
0001
1000
0100
0010
0001
0010
0100
1000
0001
0010
0100
,
1000
0001
0100
0010
0100
0001
1000
0010
0100
0001
1000
0010
1000
0001
0100
0001
,
1000
0100
0010
0001
1000
0100
0010
0001
1000
0100
0010
0001
0010
0100
1000
0001
,
0100
0010
1000
0001
0100
0010
1000
0001
0100
0010
0100
0001
1000
0010
0100
0001
,
1000
0100
0010
0001
1000
0100
0010
0001
0010
0100
1000
0001
0010
0100
1000
0001
,
0100
0010
1000
0001
0100
0010
1000
0001
0100
0010
0100
0001
1000
0010
0100
0001
,
1000
0100
0010
0001
1000
0100
1000
0001
0010
0100
1000
0001
0010
0100
1000
0001
,
1000
0010
0100
0001
0100
0010
1000
0001
0100
0010
1000
0010
0100
0001
1000
0100
,
0010
0001
1000
0100
0010
0001
0010
0100
1000
0001
0010
0100
1000
0100
0010
0001
,
1000
0010
0100
0001
1000
0010
0100
0001
1000
0010
0100
0010
1000
0001
0100
0010
,
1000
0001
0010
0100
1000
0100
0010
0001
1000
0100
0010
0001
0010
0100
1000
0001
,
0200
0000
0000
0020
0000
0000
0000
0000
,
0000
0000
0330
0000
1000
0001
0100
0001
1000
0000
0001
0100
0001
1000
0000
0000
,
0001
0100
0010
1000
0001
0100
0010
1000
0001
0100
0001
1000
0010
1000
0001
0010
,
0100
1000
0001
0010
0100
1000
0001
0010
0001
1000
0100
0010
0001
1000
0100
0010
,
0001
1000
0010
0100
0001
1000
0010
0100
0010
1000
0001
0100
0010
1000
0001
1000
,
0200
0320
0032
2003
,
3001
0100
0010
0100
0001
1000
0001
0100
0010
1000
0001
0100
0010
0100
0001
1000
,
0100
0010
0001
1000
0100
1000
0001
0010
0100
1000
0100
0010
0001
1000
0100
0010
,
0001
1000
0010
0100
0010
1000
0001
0100
0010
1000
0001
0100
0001
1000
0010
1000
,
0001
0000
0100
0000
0001
0000
0200
0000
0000
0000
0000
0000
,
0302
2003
0000
0000
0000
0000
3200
0320
0000
0032
0023
0000
0000
0230
2300
0000
,
3001
0000
0100
0010
0100
0000
0001
0100
0010
1000
0010
0100
0001
1000
0010
1000
0001
0000
0000
0000
0100
0000
0000
0000
0010
0000
0000
0000
1000
0000
0000
0000
0001
0000
0000
0000
0100
0000
0000
0000
0010
0000
0000
0000
1000
0000
0000
0000
0001
0000
0000
0000
0100
0000
0000
0000
0001
0000
0000
0000
1000
0000
0000
0000
,
0010
1000
0001
0010
0100
1000
0001
0010
0100
1000
0001
0010
0001
1000
0100
0010
,
0001
1000
0100
0010
0001
1000
0010
0100
0001
1000
0010
0100
0010
1000
0001
0100
,
0010
1000
0001
1000
0100
0010
0001
1000
0100
0010
0001
1000
0100
1000
0001
0010
,
0100
1000
0001
0100
0001
1000
0010
0100
0001
1000
0001
0100
0010
1000
0001
0100
,
0010
0100
0001
1000
0100
0010
0001
1000
0100
1000
0001
0010
0100
1000
0100
0010
,
0001
1000
0100
0010
0001
1000
0010
0100
0010
1000
0001
0100
0010
1000
0001
0100
,
0001
1000
0010
1000
0001
0010
0100
1000
0001
0010
0100
1000
0001
0010
0100
1000
,
0100
0010
0001
1000
0010
0100
0001
1000
0010
0100
0001
1000
0010
0100
0010
1000
,
0001
0100
0010
1000
0001
0010
0100
1000
0001
0010
0100
1000
0100
0010
0001
1000
,
0100
0010
0001
1000
0010
0100
0001
1000
0010
0100
0001
1000
0010
0100
0010
1000
,
0001
0100
0010
1000
0001
0010
0100
1000
0001
0010
0001
1000
0100
0010
0001
1000
,
0100
0010
0001
1000
0001
0100
0010
1000
0010
0100
0001
1000
0010
0100
0001
0100
,
0010
1000
0001
0010
0100
1000
0001
0010
0100
1000
0100
0010
0001
1000
0100
0010
,
0001
0010
0100
1000
0001
0100
0010
1000
0001
0100
0010
1000
0001
0100
0010
0100
,
0001
1000
0010
0100
0001
1000
0100
0010
0001
0010
0100
1000
0001
0010
0100
1000
,
0001
0010
0002
0000
0000
0000
0000
0000
0003
0000
0000
0000
2002
0000
0000
0000
,
0000
0000
0000
0000
0000
3003
0000
0000
;

//---------------dance-single - ----------------
#NOTES:
     dance-single:
     Dossar:
     Medium:
     13:
     1.000,1.000,0.019,0.932,1.000:
0000
0000
0000
0000
,
0000
0000
0000
0000
,
0000
0000
0000
0000
0000
0000
0000
0000
0000
0000
0000
1000
0001
0000
0001
0000
,
1000
0000
0100
0000
0010
0001
0010
0000
0100
0000
1000
0100
1000
0000
0001
1000
,
1000
0000
0001
1000
1000
0010
0100
0001
0001
0100
0010
1000
1000
0001
0001
0000
,
1000
0000
0100
0000
0010
0100
0010
0001
1000
0001
0001
0010
0100
1000
0100
0000
,
1000
0000
0001
0000
0100
0010
0100
0001
1000
0001
0001
0100
0010
1000
0010
0100
,
0001
0000
1000
0000
0100
0010
0100
1000
0001
1000
1000
0100
0010
0001
0010
0100
,
1000
0000
0001
0000
0100
0010
0100
0001
1000
0001
0200
0020
0000
0000
0000
0330
,
2000
3000
0000
0000
0100
0000
0000
0000
1000
0000
0000
0000
0001
0000
0000
0000
0010
0000
0000
0000
0002
0003
0000
0000
0200
0300
0000
0000
0020
0030
0000
0000
,
1000
0100
1000
0001
0100
0001
1000
0100
,
0010
0000
0000
0000
0001
0000
0000
0000
0010
0000
0000
0000
0100
0000
0000
0000
2000
3000
0000
0000
0200
0300
0000
0000
0020
0030
0000
0000
0002
0003
0000
0000
,
1000
0000
0000
0000
0020
0030
0000
0000
2000
3000
0000
0000
0001
0000
0000
0000
0200
0300
0000
0000
0002
0003
0000
0000
0010
0000
0000
0000
0100
0000
0000
0000
,
2000
3000
0000
0000
0001
0000
0000
0000
1000
0000
0000
0000
0200
0300
0000
0000
0020
0030
0000
0000
0100
0000
0000
0000
2000
3000
0000
0000
0001
0000
0000
0000
,
0100
0000
0000
0000
0020
0030
0000
0000
0100
0000
0000
0000
0001
0000
0000
0000
1000
0000
0000
0000
0001
0000
0000
0000
0100
0000
0000
0000
0010
0000
0000
0000
,
1000
0000
0000
0000
0100
0000
0000
0000
1000
0000
0000
0000
0001
0000
0000
0000
0020
0030
0000
0000
0001
0000
0000
0000
1000
0000
0000
0000
0200
0300
0000
0000
,
0010
0000
0000
0000
0001
0000
0000
0000
0020
0030
0000
0000
0100
0000
0000
0000
1000
0000
0000
0000
0200
0300
0000
0000
0020
0030
0000
0000
0001
0000
0000
0000
,
2000
3000
0000
0000
0010
0000
0000
0000
1000
0000
0000
0000
0001
0000
0000
0000
0100
0000
0000
0000
0002
0003
0000
0000
0020
0030
0000
0000
0200
0300
0000
0000
,
1000
0000
0000
0000
0001
0000
0000
0000
1000
0000
0000
0000
0100
0000
0000
0000
0020
0030
0000
0000
0100
0000
0000
0000
2000
3000
0000
0000
0010
0000
0000
0000
,
0200
0300
0000
0000
0001
0000
0000
0000
0100
0000
0000
0000
0020
0030
0000
0000
1000
0000
0000
0000
0020
0030
0000
0000
0200
0300
0000
0000
0001
0000
0000
0000
,
2000
3000
0000
0000
0200
0300
0000
0000
2000
3000
0000
0000
0001
0000
0000
0000
0020
0030
0000
0000
0002
0003
0000
0000
0100
0000
0000
0000
0020
0030
0000
0000
,
2000
3000
0000
0000
0001
0000
0000
0000
1000
0000
0000
0000
0020
0030
0000
0000
0100
0000
0000
0000
0010
0000
0000
0000
2000
3000
0000
0000
0002
0003
0000
0000
,
0010
0000
0000
0000
0100
0000
0000
0000
0010
0000
0000
0000
0001
0000
0000
0000
1000
0000
0000
0000
0002
0003
0000
0000
0010
0000
0000
0000
0200
0300
0000
0000
,
1000
0000
0000
0000
0020
0030
0000
0000
1000
0000
0000
0000
0002
0003
0000
0000
0100
0000
0000
0000
0002
0003
0000
0000
0020
0030
0000
0000
0100
0000
0000
0000
,
2000
3000
0002
0003
0020
0030
0200
0300
2000
3000
0200
0300
0020
0030
0002
0003
2000
3000
0200
0300
0020
0030
0002
0003
0010
0000
0100
0000
1000
0000
0001
0000
,
1000
0010
0100
0001
1000
0010
0100
0001
1000
0010
1000
0001
0100
0001
1000
0100
,
0010
0001
1000
0100
0010
0001
1000
0100
1000
0001
0010
0100
1000
0001
0010
0100
,
1000
0001
0100
0010
1000
0001
0100
0010
0100
0001
1000
0010
0100
0001
1000
0001
,
0010
0100
1000
0001
0010
0100
1000
0001
0010
0001
1000
0100
0010
0001
1000
0010
,
1000
0001
0100
0010
1000
0001
1000
0010
0100
0001
1000
0010
0100
0010
1000
0001
,
0010
0100
1000
0001
0010
0001
1000
0100
0010
0001
0010
0100
1000
0001
0010
0100
,
1000
0001
0100
0010
0100
0001
1000
0010
0100
0001
1000
0010
1000
0001
0100
0001
,
1000
0100
0010
0001
1000
0100
0010
0001
1000
0100
0010
0001
0010
0100
1000
0001
,
0200
0000
0000
0010
0000
0010
0000
0000
,
0320
0000
0000
1000
0000
1000
0000
0000
,
2030
0000
0000
0001
0000
0001
0000
0000
,
3002
0000
0000
0013
0020
0100
0000
0000
,
0230
0000
0000
1000
0000
1000
2300
0000
,
0001
0000
0000
0001
0000
0001
0000
0000
,
3002
0000
0000
0100
0000
0100
0000
0000
,
0203
0010
0000
0010
0000
0000
0310
0100
,
0220
0000
0000
0000
,
0000
0000
0330
0000
1000
0001
0100
0001
1000
0000
0001
0100
0001
1000
0000
0000
,
0001
0100
0010
1000
0001
0100
0010
1000
0001
0100
0001
1000
0010
1000
0001
0010
,
0100
1000
0001
0010
0100
1000
0001
0010
0001
1000
0100
0010
0001
1000
0100
0010
,
0001
1000
0010
0100
0001
1000
0010
0100
0010
1000
0001
0100
0010
1000
0001
1000
,
0200
0320
0032
2003
,
3001
0100
0010
0100
0001
1000
0001
0100
0010
1000
0001
0100
0010
0100
0001
1000
,
0100
0010
0001
1000
0100
1000
0001
0010
0100
1000
0100
0010
0001
1000
0100
0010
,
0001
1000
0010
0100
0010
1000
0001
0100
0010
1000
0001
0100
0001
1000
0010
1000
,
0001
0000
0100
0000
0001
0000
0200
0000
0000
0000
0000
0000
,
0302
2003
0000
0000
0000
0000
3200
0320
0000
0032
0023
0000
0000
0230
2300
0000
,
3001
0000
0100
0010
0100
0000
0001
0100
0010
1000
0010
0100
0001
1000
0010
1000
0002
0000
0000
0000
0000
0000
0000
0000
0000
0000
0000
0000
0000
0000
0000
0000
0103
0000
0000
0000
0000
0000
0000
0000
0000
0000
0000
0000
0000
0000
0000
0000
0010
0000
0000
0000
0000
0000
0000
0000
1000
0000
0000
0000
0000
0000
0000
0000
,
0010
0000
0200
0000
0301
0000
1000
0100
,
1000
0000
0002
0000
1003
0000
0001
0010
,
0001
0000
2000
0010
3010
0000
0200
0001
,
0301
0000
2000
0000
3100
0000
0010
0001
,
0020
0000
0032
0000
1003
0000
0010
0100
,
0010
0000
2000
0000
3001
0000
1000
0100
,
1000
0000
0002
0000
0103
0100
0001
1000
,
2000
0000
0000
0000
3010
0100
0001
1000
0010
0100
0001
1000
0010
0100
0010
1000
,
0001
0100
0010
1000
0001
0010
0100
1000
0001
0010
0100
1000
0100
0010
0001
1000
,
0100
0010
0001
1000
0010
0100
0001
1000
0010
0100
0001
1000
0010
0100
0010
1000
,
0001
0100
0010
1000
0001
0010
0100
1000
0001
0010
0001
1000
0100
0010
0001
1000
,
0100
0010
0001
1000
0001
0100
0010
1000
0010
0100
0001
1000
0010
0100
0001
0100
,
0010
1000
0001
0010
0100
1000
0001
0010
0100
1000
0100
0010
0001
1000
0100
0010
,
0001
0010
0100
1000
0001
0100
0010
1000
0001
0100
0010
1000
0001
0100
0010
0100
,
0001
1000
0010
0100
0001
1000
0100
0010
0001
0010
0100
1000
0001
0010
0100
1000
,
0001
0010
0002
0000
0000
0000
0000
0000
0003
0000
0000
0000
2002
0000
0000
0000
,
0000
0000
0000
0000
0000
3003
0000
0000
;

//---------------dance-single - ----------------
#NOTES:
     dance-single:
     Dossar:
     Easy:
     12:
     0.925,1.000,0.019,1.000,0.694:
0000
0000
0000
0000
,
0000
0000
0000
0000
,
0000
0000
0000
0000
0000
0000
0000
0000
0000
0000
0000
1000
0001
0000
0001
0000
,
1000
0000
0100
0000
0010
0001
0010
0000
0100
0000
1000
0100
1000
0000
0001
1000
,
1000
0000
0001
1000
1000
0010
0100
0001
0001
0100
0010
1000
1000
0001
0001
0000
,
1000
0000
0100
0000
0010
0100
0010
0001
1000
0001
0001
0010
0100
1000
0100
0000
,
1000
0000
0001
0000
0100
0010
0100
0001
1000
0001
0001
0100
0010
1000
0010
0100
,
0001
0000
1000
0000
0100
0010
0100
1000
0001
1000
1000
0100
0010
0001
0010
0100
,
1000
0000
0001
0000
0100
0010
0100
0001
1000
0001
0200
0020
0000
0000
0000
0330
,
2000
3000
0000
0000
0100
0000
0000
0000
1000
0000
0000
0000
0001
0000
0000
0000
0010
0000
0000
0000
0002
0003
0000
0000
0200
0300
0000
0000
0020
0030
0000
0000
,
1000
0100
1000
0001
0100
0001
1000
0100
,
0010
0000
0000
0000
0001
0000
0000
0000
0010
0000
0000
0000
0100
0000
0000
0000
2000
3000
0000
0000
0200
0300
0000
0000
0020
0030
0000
0000
0002
0003
0000
0000
,
1000
0000
0000
0000
0020
0030
0000
0000
2000
3000
0000
0000
0001
0000
0000
0000
0200
0300
0000
0000
0002
0003
0000
0000
0010
0000
0000
0000
0100
0000
0000
0000
,
2000
3000
0000
0000
0001
0000
0000
0000
1000
0000
0000
0000
0200
0300
0000
0000
0020
0030
0000
0000
0100
0000
0000
0000
2000
3000
0000
0000
0001
0000
0000
0000
,
0100
0000
0000
0000
0020
0030
0000
0000
0100
0000
0000
0000
0001
0000
0000
0000
1000
0000
0000
0000
0001
0000
0000
0000
0100
0000
0000
0000
0010
0000
0000
0000
,
1000
0000
0000
0000
0100
0000
0000
0000
1000
0000
0000
0000
0001
0000
0000
0000
0020
0030
0000
0000
0001
0000
0000
0000
1000
0000
0000
0000
0200
0300
0000
0000
,
0010
0000
0000
0000
0001
0000
0000
0000
0020
0030
0000
0000
0100
0000
0000
0000
1000
0000
0000
0000
0200
0300
0000
0000
0020
0030
0000
0000
0001
0000
0000
0000
,
2000
3000
0000
0000
0010
0000
0000
0000
1000
0000
0000
0000
0001
0000
0000
0000
0100
0000
0000
0000
0002
0003
0000
0000
0020
0030
0000
0000
0200
0300
0000
0000
,
1000
0000
0000
0000
0001
0000
0000
0000
1000
0000
0000
0000
0100
0000
0000
0000
0020
0030
0000
0000
0100
0000
0000
0000
2000
3000
0000
0000
0010
0000
0000
0000
,
0200
0300
0000
0000
0001
0000
0000
0000
0100
0000
0000
0000
0020
0030
0000
0000
1000
0000
0000
0000
0020
0030
0000
0000
0200
0300
0000
0000
0001
0000
0000
0000
,
2000
3000
0000
0000
0200
0300
0000
0000
2000
3000
0000
0000
0001
0000
0000
0000
0020
0030
0000
0000
0002
0003
0000
0000
0100
0000
0000
0000
0020
0030
0000
0000
,
2000
3000
0000
0000
0001
0000
0000
0000
1000
0000
0000
0000
0020
0030
0000
0000
0100
0000
0000
0000
0010
0000
0000
0000
2000
3000
0000
0000
0002
0003
0000
0000
,
0010
0000
0000
0000
0100
0000
0000
0000
0010
0000
0000
0000
0001
0000
0000
0000
1000
0000
0000
0000
0002
0003
0000
0000
0010
0000
0000
0000
0200
0300
0000
0000
,
1000
0000
0000
0000
0020
0030
0000
0000
1000
0000
0000
0000
0002
0003
0000
0000
0100
0000
0000
0000
0002
0003
0000
0000
0020
0030
0000
0000
0100
0000
0000
0000
,
2000
3000
0002
0003
0020
0030
0200
0300
2000
3000
0200
0300
0020
0030
0002
0003
2000
3000
0200
0300
0020
0030
0002
0003
0010
0000
0000
0000
0001
0000
0000
0000
,
1000
0010
0100
0001
1000
0010
0100
0001
1000
0010
1000
0001
0100
0001
1000
0100
,
0010
0001
1000
0100
0010
0001
1000
0100
1000
0001
0010
0100
1000
0001
0010
0100
,
2000
0000
0000
0001
0000
0001
3001
0100
,
0020
1000
1030
0001
0200
0010
0310
1000
,
0001
1000
0010
0100
0001
1000
0001
0100
0010
1000
0001
0100
0010
0100
0001
1000
,
0100
0010
0001
1000
0100
1000
0001
0010
0100
1000
0100
0010
0001
1000
0100
0010
,
0002
0000
0000
1000
0000
1000
0000
0000
,
1003
0010
0000
0100
0000
0010
0100
0100
,
0020
0000
0000
0100
0000
0100
0000
0000
,
0230
0000
0000
0001
0000
0001
0000
0000
,
0302
0000
0000
1000
0000
1000
0000
0000
,
2003
0000
0000
3100
0200
0010
0000
0000
,
0320
0000
0000
0001
0000
0001
0032
0000
,
1000
0000
0000
1000
0000
1000
0000
0000
,
2003
0000
0000
0010
0000
0010
0000
0000
,
3020
0100
0000
0100
0000
0000
0130
0010
,
0220
0000
0000
0000
,
0000
0000
0330
0000
0001
1000
0010
1000
0001
0000
1000
0010
1000
0001
0000
0000
,
1000
0010
0100
0001
1000
0010
0100
0001
1000
0010
1000
0001
0100
0001
1000
0100
,
0010
0001
1000
0100
0010
0001
1000
0100
1000
0001
0010
0100
1000
0001
0010
0100
,
2000
3002
0203
0320
2030
3002
0203
0320
,
2030
3002
2003
3002
,
1003
0010
0100
0010
1000
0001
1000
0010
0100
0001
1000
0010
0100
0010
1000
0001
,
0010
0100
1000
0001
0010
0001
1000
0100
0010
0001
0010
0100
1000
0001
0010
0100
,
1000
0000
0001
0000
0000
0000
1000
0000
0000
0000
0001
0000
0000
0000
1000
0001
,
1000
0000
0010
0000
1000
0000
0020
0000
0000
0000
0000
0000
,
2030
3002
0000
0000
0000
0000
0023
0230
0000
2300
3200
0000
0000
0320
0032
0000
,
2003
3020
0230
0302
2003
3020
0230
0302
2003
0000
0000
0000
0000
0000
0000
0000
3010
0000
0000
0000
0000
0000
0000
0000
0100
0000
0000
0000
0001
0000
0000
0000
,
0100
0000
0020
0000
1030
0000
0001
0010
,
0001
0000
2000
0000
3001
0000
1000
0100
,
1000
0000
0002
0100
0103
0000
0020
1000
,
1030
0000
0002
0000
0013
0000
0100
1000
,
0200
0000
2300
0000
3001
0000
0100
0010
,
0100
0000
0002
0000
1003
0000
0001
0010
,
0001
0000
2000
0000
3010
0010
1000
0001
,
0002
0000
1003
0010
1000
0001
0100
0001
,
1000
0000
0100
0010
0100
1000
0001
1000
,
0010
0000
1000
0001
1000
0010
0100
0010
,
1000
0000
0001
0010
0001
1000
0100
1000
,
0001
0000
0000
0000
1000
0010
0100
0001
0100
0010
1000
0001
0100
0010
1000
0010
,
0100
0001
1000
0100
0010
0001
1000
0100
0010
0001
0010
0100
1000
0001
0010
0100
,
1000
0100
0010
0001
1000
0010
0100
0001
1000
0010
0100
0001
1000
0010
0100
0010
,
1000
0001
0100
0010
1000
0001
0010
0100
1000
0100
0010
0001
1000
0100
0010
0001
,
1000
0100
2000
0000
0000
0000
0000
0000
3000
0000
0000
0000
2002
0000
0000
0000
,
0000
0000
0000
0000
0000
3003
0000
0000
;

//---------------dance-double - ----------------
#NOTES:
     dance-double:
     Dossar:
     Challenge:
     15:
     1.000,1.000,0.009,0.280,1.000: // measure 1
00000000
00000000
00000000
00000000
,  // measure 2
00000000
00000000
00000000
00000000
,  // measure 3
00000000
00000000
00000000
00000000
00000000
00000000
00000000
00000000
00000000
00000000
00000000
10000000
00010000
00000000
00010000
00000000
,  // measure 4
00100000
00000000
00001000
00000000
00010000
00000010
00010000
00000000
00000100
00000000
00000010
00000001
00000010
00000000
00000100
00010000
,  // measure 5
00010000
00000000
00001000
00100000
00100000
01000000
10000000
00010000
00010000
00100000
00001000
00010000
00010000
00000100
00000100
00000000
,  // measure 6
00000010
00000000
00000001
00000000
00000100
00000010
00000100
00000001
00001000
00000001
00000001
00001000
00000100
00010000
00000100
00000000
,  // measure 7
01000000
00000000
00010000
00000000
10000000
00100000
10000000
00010000
00100000
00010000
00010000
01000000
00001000
00010000
00001000
01000000
,  // measure 8
00100000
00000000
10000000
00000000
00010000
01000000
00010000
00100000
01000000
00100000
00100000
00001000
00010000
00000010
00010000
00000100
,  // measure 9
00000010
00000000
00000001
00000000
00001000
00000001
00001000
00000010
00000100
00000010
00002000
00000002
00000000
00000000
00000000
00003003
,  // measure 10
00001000
00000001
00000100
00000010
00001000
00000001
00001000
00000010
00000100
00000001
00001000
00000010
00000100
00000001
00001000
00000100
,  // measure 11
00010000
00000100
00010000
00001000
01000000
00001000
01000000
00010000
01000000
00100000
10000000
00010000
01000000
00001000
00010000
00001000
,  // measure 12
00010000
00000100
00000010
00000001
00001000
00000100
00000010
00000001
00000010
00000100
00001000
00000100
00010000
00000100
00010000
00001000
,  // measure 13
01000000
00010000
01000000
00100000
10000000
00010000
01000000
00100000
10000000
00010000
01000000
00010000
01000000
00001000
01000000
00001000
,  // measure 14
00010000
00000100
00000010
00000100
00001000
00000100
00000010
00000001
00001000
00000100
00001000
00000100
00010000
00001000
01000000
00001000
,  // measure 15
01000000
00010000
10000000
00100000
01000000
00010000
10000000
00100000
01000000
00010000
01000000
00100000
10000000
00010000
01000000
00001000
,  // measure 16
00010000
00000100
00000010
00000100
00001000
00000001
00000010
00000100
00001000
00000001
00000010
00000001
00001000
00000100
00010000
00001000
,  // measure 17
00100000
00010000
00100000
01000000
10000000
00010000
00100000
00010000
10000000
01000000
00100000
00010000
00100000
00001000
00010000
00000100
,  // measure 18
00001000
00000100
00000010
00000001
00001000
00000010
00000100
00000001
00000100
00000010
00001000
00000001
00001000
00000100
00010000
00001000
,  // measure 19
01000000
00010000
01000000
00100000
10000000
00010000
01000000
00100000
01000000
00010000
00100000
00001000
00100000
00001000
00010000
00000100
,  // measure 20
00001000
00000001
00001000
00000100
00001000
00000001
00000010
00000100
00001000
00000100
00000010
00000001
00001000
00000100
00010000
00001000
,  // measure 21
01000000
00010000
01000000
00100000
10000000
00010000
01000000
00100000
10000000
00010000
01000000
00001000
01000000
00001000
00010000
00000010
,  // measure 22
00001000
00000001
00000100
00000010
00001000
00000001
00000100
00000001
00001000
00000010
00000100
00000001
00001000
00000100
00010000
00001000
,  // measure 23
00100000
00010000
00100000
01000000
10000000
00010000
00100000
01000000
10000000
01000000
00100000
00010000
00100000
00001000
00010000
00000010
,  // measure 24
00001000
00000001
00000100
00000010
00001000
00000001
00001000
00000010
00000100
00000001
00001000
00000010
00000100
00000010
00001000
00000001
,  // measure 25
00000200
00000300
00000020
00000030
00002000
00003000
00000200
00000300
00020000
00030000
00002000
00003000
00200000
00300000
00020000
00030000
02000000
03000000
00200000
00300000
20000000
30000000
02000000
03000000
10000000
00000000
00000000
00000000
00000000
00000000
00000000
00000000
,  // measure 26
00010000
10000000
00100000
01000000
00010000
10000000
00010000
01000000
00100000
10000000
00010000
01000000
00100000
10000000
00010000
00100000
,  // measure 27
00001000
00100000
00001000
00010000
00000010
00010000
00000010
00001000
00000010
00000100
00000001
00001000
00000010
00010000
00001000
00010000
,  // measure 28
00001000
00100000
01000000
10000000
00010000
00100000
01000000
10000000
01000000
00100000
00010000
00100000
00001000
00100000
00001000
00010000
,  // measure 29
00000010
00001000
00000010
00000100
00000001
00001000
00000010
00000100
00000001
00001000
00000010
00001000
00000010
00010000
00000010
00010000
,  // measure 30
00001000
00100000
01000000
00100000
00010000
00100000
01000000
10000000
00010000
00100000
00010000
00100000
00001000
00010000
00000010
00010000
,  // measure 31
00000010
00001000
00000001
00000100
00000010
00001000
00000001
00000100
00000010
00001000
00000010
00000100
00000001
00001000
00000010
00010000
,  // measure 32
00001000
00100000
01000000
00100000
00010000
10000000
01000000
00100000
00010000
10000000
01000000
10000000
00010000
00100000
00001000
00010000
,  // measure 33
00000100
00001000
00000100
00000010
00000001
00001000
00000100
00001000
00000001
00000010
00000100
00001000
00000100
00010000
00001000
00100000
,  // measure 34
00010000
00100000
01000000
10000000
00010000
01000000
00100000
10000000
00100000
01000000
00010000
10000000
00010000
00100000
00001000
00010000
,  // measure 35
00000010
00001000
00000010
00000100
00000001
00001000
00000010
00000100
00000010
00001000
00000100
00010000
00000100
00010000
00001000
00100000
,  // measure 36
00010000
10000000
00010000
00100000
00010000
10000000
01000000
00100000
00010000
00100000
01000000
10000000
00010000
00100000
00001000
00010000
,  // measure 37
00000010
00001000
00000010
00000100
00000001
00001000
00000010
00000100
00000001
00001000
00000010
00010000
00000010
00010000
00001000
01000000
,  // measure 38
00010000
10000000
00100000
01000000
00010000
10000000
00100000
10000000
00010000
01000000
00100000
10000000
00010000
00100000
00001000
00010000
,  // measure 39
00000100
00001000
00000100
00000010
00000001
00001000
00000100
00000010
00000001
00000010
00000100
00001000
00000100
00010000
00001000
01000000
,  // measure 40
00010000
10000000
00100000
01000000
00010000
10000000
00010000
01000000
00100000
10000000
00010000
01000000
00010000
01000000
00001000
00010000
,  // measure 41
00000100
00001000
00000100
00000010
00000001
00001000
00000100
00001000
00000001
00000010
00000100
00001000
00000100
00010000
00001000
00100000
,  // measure 42
00020000
00000000
00000000
20000000
00000000
00000000
00000000
30030000
,  // measure 43
00000000
00000000
00000000
00000000
10000000
00010000
01000000
00001000
00010000
00000000
00000001
00001000
00000100
00010000
00000000
00000000
,  // measure 44
00001000
01000000
00001000
00010000
00001000
01000000
00001000
00010000
00000100
00000010
00000100
00001000
00000100
00000010
00000100
00010000
,  // measure 45
00001000
01000000
00001000
00010000
00001000
01000000
00001000
00100000
01000000
10000000
01000000
00100000
01000000
10000000
01000000
00100000
,  // measure 46
00001000
00010000
00001000
00100000
00001000
00010000
00001000
00100000
00010000
10000000
00010000
01000000
00010000
10000000
00010000
01000000
,  // measure 47
00002000
00013000
00002000
00013000
,  // measure 48
00010000
00000010
00010000
00001000
00010000
00000010
00010000
00001000
00100000
01000000
00100000
00010000
00100000
01000000
00100000
00001000
,  // measure 49
00010000
00000010
00010000
00001000
00010000
00000010
00010000
00000100
00000010
00000001
00000010
00000100
00000010
00000001
00000010
00000100
,  // measure 50
00010000
00001000
00010000
00000100
00010000
00001000
00010000
00000100
00001000
00000001
00001000
00000010
00001000
00000001
00001000
00000010
,  // measure 51
00010000
00000000
00001000
00000000
00010000
00000000
00002000
00000000
00000000
00000000
00000000
00000000
,  // measure 52
02003000
03000200
00000000
00000000
00000000
00000000
00200300
00300020
00000000
02000030
03000200
00000000
00000000
00200300
00300020
00000000
,  // measure 53
00010030
00000000
00000100
00001000
00000100
00000000
00000010
00000001
00001000
00000100
00010000
00001000
00010000
00000100
00000010
00000001
00001000
00000000
00000000
00000000
00000010
00000000
00000000
00000000
00000100
00000000
00000000
00000000
00000001
00000000
00000000
00000000
00001000
00000000
00000000
00000000
00000010
00000000
00000000
00000000
00001000
00000000
00000000
00000000
00000001
00000000
00000000
00000000
00000100
00000000
00000000
00000000
00000001
00000000
00000000
00000000
00001000
00000000
00000000
00000000
00000010
00000000
00000000
00000000
,  // measure 54
00000100
00000001
00001000
00000100
00010000
00000100
00010000
00001000
01000000
00001000
01000000
00010000
01000000
00100000
10000000
00010000
,  // measure 55
01000000
00001000
00010000
00001000
00010000
00000100
00000010
00000001
00001000
00000100
00000010
00000001
00000010
00000100
00001000
00000100
,  // measure 56
00010000
00000100
00010000
00001000
01000000
00010000
01000000
00100000
10000000
00010000
01000000
00100000
10000000
00010000
01000000
00010000
,  // measure 57
01000000
00001000
01000000
00001000
00010000
00000100
00000010
00000100
00001000
00000100
00000010
00000001
00001000
00000100
00001000
00000100
,  // measure 58
00010000
00001000
01000000
00001000
01000000
00010000
10000000
00100000
01000000
00010000
10000000
00100000
01000000
00010000
01000000
00100000
,  // measure 59
10000000
00010000
01000000
00001000
00010000
00000100
00000010
00000100
00001000
00000001
00000010
00000100
00001000
00000001
00000010
00000001
,  // measure 60
00001000
00000100
00010000
00001000
00100000
00010000
00100000
01000000
10000000
00010000
00100000
00010000
10000000
01000000
00100000
00010000
,  // measure 61
00100000
00001000
00010000
00000100
00001000
00000100
00000010
00000001
00001000
00000010
00000100
00000001
00000100
00000010
00001000
00000001
,  // measure 62
00001000
00000100
00010000
00001000
01000000
00010000
01000000
00100000
10000000
00010000
01000000
00100000
01000000
00010000
00100000
00001000
,  // measure 63
00100000
00001000
00010000
00000100
00001000
00000001
00001000
00000100
00001000
00000001
00000010
00000100
00001000
00000100
00000010
00000001
,  // measure 64
00001000
00000100
00010000
00001000
01000000
00010000
01000000
00100000
10000000
00010000
01000000
00100000
10000000
00010000
01000000
00001000
,  // measure 65
01000000
00001000
00010000
00000010
00001000
00000001
00000100
00000010
00001000
00000001
00000100
00000001
00001000
00000010
00000100
00000001
,  // measure 66
00001000
00000100
00010000
00001000
00100000
00010000
00100000
01000000
10000000
00010000
00100000
01000000
10000000
01000000
00100000
00010000
,  // measure 67
00100000
00001000
00010000
00000010
00001000
00000001
00000100
00000010
00001000
00000001
00001000
00000010
00000100
00000001
00001000
00000010
,  // measure 68
00010000
00001000
00100000
00010000
10000000
00100000
01000000
00010000
00100000
00001000
00010000
00000010
00001000
00000001
00000100
00000010
,  // measure 69
00010000
00001000
00020000
00000000
00000000
00000000
00000000
00000000
00030000
00000000
00000000
00000000
00022000
00000000
00000000
00000000
,  // measure 70
00000000
00000000
00000000
00000000
00000000
00033000
00000000
00000000
;
