#TITLE:END OF THE CENTURY;
#SUBTITLE:;
#ARTIST:NO.9;
#TITLETRANSLIT:;
#SUBTITLETRANSLIT:;
#ARTISTTRANSLIT:;
#CREDIT:;
#BANNER:../ddrstream fallback-bn.png;
#BACKGROUND:../ddrstream fallback-bg.png;
#LYRICSPATH:;
#CDTITLE:;
#MUSIC:END OF THE CENTURY.ogg;
#OFFSET:-2.847;
#SAMPLESTART:11.270;
#SAMPLELENGTH:11.160;
#SELECTABLE:YES;
#DISPLAYBPM:171.000;
#BPMS:0.000=171.000;
#STOPS:;
#BGCHANGES:;

//---------------dance-single - ----------------
#NOTES:
     dance-single:
     Dossar:
     Challenge:
     13:
     1.000,1.000,0.281,0.395,1.000:
0000
0000
0000
0000
,
0000
0000
0000
0000
,
1000
0010
0100
0001
1000
0010
1000
0001
0100
0010
1000
0001
0100
0010
0100
0001
,
1000
0100
0010
0001
1000
0100
1000
0001
0010
0100
1000
0001
0010
0100
0010
0001
,
1000
0010
0100
0001
1000
0010
1000
0001
0100
0010
1000
0001
0100
0010
0100
0001
,
2000
0000
0000
0001
0002
0000
3003
0000
,
1000
0010
0100
0001
1000
0010
0100
0001
1000
0010
1000
0001
0100
0001
1000
0100
,
0010
0001
1000
0100
0010
0001
1000
0100
0010
0100
1000
0001
0010
0100
1000
0001
,
0100
0010
1000
0001
0100
0010
1000
0010
0100
0001
1000
0010
0100
0001
1000
0001
,
0010
0100
1000
0001
0010
0100
1000
0100
0010
0001
1000
0100
0010
0100
1000
0001
,
1000
0010
0100
0001
1000
0010
0100
0010
1000
0001
0100
0010
1000
0001
0100
0010
,
1000
0001
0010
0100
1000
0001
0010
0100
1000
0001
0010
0100
0010
0001
1000
0100
,
1000
0001
0010
0001
1000
0010
1000
0001
0100
0001
1000
0100
1000
0001
0010
0001
,
1000
0002
0003
0200
0320
2030
3002
2003
,
3001
0010
0100
1000
0001
0010
0100
0010
0001
1000
0100
0010
0001
1000
0100
1000
,
0001
0100
0001
1000
0010
0100
0001
1000
0010
0100
0001
0100
0010
1000
0001
0100
,
0001
1000
0100
0010
0001
1000
0100
0010
0001
1000
0100
1000
0001
0010
0001
1000
,
0010
0100
0001
0100
0010
1000
0001
0100
0001
1000
0100
1000
0001
0010
0001
1000
,
0100
1000
0001
0010
0100
1000
0001
0010
0100
1000
0100
0010
0001
1000
0100
0010
,
0001
1000
0010
1000
0001
0100
0010
1000
0001
0100
0001
1000
0010
1000
0001
0010
,
0100
1000
0001
0010
0100
1000
0001
0010
0100
0010
0001
1000
0100
0010
0001
1000
,
0100
0000
0000
0000
0000
0000
0000
0000
0020
0000
0000
0000
0000
0000
0000
0000
0030
0000
0000
0000
0000
0000
0000
0000
0002
0000
0000
0000
0000
0000
0000
0000
2003
0000
0000
0000
0000
0000
0000
0000
3002
0000
0000
0000
0000
0000
0000
0000
0203
0000
0000
0000
0000
0000
0000
0000
0320
0000
0000
0000
0000
0000
0000
0030
,
1010
0101
0110
1001
,
2000
3000
0000
2000
3000
0001
0000
0010
,
0011
1100
0110
1001
,
0001
0000
1000
0000
0010
0100
0010
1000
0001
0100
0010
0000
1000
0000
0001
0000
,
1000
0010
0100
0001
1000
0100
1000
0001
0100
0010
1000
0001
0100
0010
0100
0001
,
1000
0100
0010
0001
1000
0100
1000
0001
0010
0100
1000
0001
0010
0100
0010
0001
,
1000
0010
0100
0001
1000
0010
1000
0001
0100
0010
1000
0001
0100
0010
0100
0001
,
2000
0000
0000
0001
0002
0000
3003
0000
,
1000
0010
0100
0001
1000
0010
0100
0001
1000
0010
1000
0001
0100
0001
1000
0100
,
0010
0001
1000
0100
0010
0001
1000
0100
0010
0100
1000
0001
0010
0100
1000
0001
,
0100
0010
1000
0001
0100
0010
1000
0010
0100
0001
1000
0010
0100
0001
1000
0001
,
0010
0100
1000
0001
0010
0100
1000
0100
0010
0001
1000
0100
0010
0100
1000
0001
,
1000
0010
0100
0001
1000
0010
0100
0010
1000
0001
0100
0010
1000
0001
0100
0010
,
1000
0001
0010
0100
1000
0001
0010
0100
1000
0001
0010
0100
0010
0001
1000
0100
,
1000
0001
0010
0001
1000
0010
1000
0001
0100
0001
1000
0100
1000
0001
0010
0001
,
1000
0000
0000
0000
0000
0000
0000
0000
0002
0000
0000
0000
0000
0000
0000
0000
0003
0000
0000
0000
0000
0000
0000
0000
0200
0000
0000
0000
0000
0000
0000
0000
0320
0000
0000
0000
0000
0000
0000
0000
2030
0000
0000
0000
0000
0000
0000
0000
3002
0000
0000
0000
0000
0000
0000
0000
2003
0000
0000
0000
0000
0000
0000
3000
,
1010
0101
0110
1001
,
2000
3000
0001
2000
3000
0001
0010
0100
,
1100
0000
1000
0001
1000
0000
1001
0000
,
2000
0000
0000
0000
0000
0000
0000
0000
3001
0000
0000
0000
0000
0000
0000
0000
0001
0000
0000
0000
0000
0000
0000
0000
2000
0000
0000
0000
0000
0000
0000
0000
3001
0000
0000
0000
0000
0000
0000
0000
0020
0000
0000
0000
0000
0000
0000
0000
0230
0000
0000
0000
0000
0000
0000
0000
0320
0000
0000
0000
0000
0000
0000
0030
,
0011
1100
0110
1001
,
2000
0000
0000
0000
0000
0000
0000
0000
3010
0000
0000
0000
0000
0000
0000
0000
0010
0000
0000
0000
0000
0000
0000
0000
2000
0000
0000
0000
0000
0000
0000
0000
3010
0000
0000
0000
0000
0000
0000
0000
0200
0000
0000
0000
0000
0000
0000
0000
0302
0000
0000
0000
0000
0000
0000
0000
2003
0000
0000
0000
0000
0000
0000
3000
,
1100
0000
0010
0001
0010
0000
0110
0000
,
1001
0110
1001
0000
,
0001
0100
0010
1000
0001
0100
0010
1000
0001
0100
0001
1000
0010
1000
0001
0010
,
0100
1000
0001
0010
0100
1000
0001
0010
0100
0010
0001
1000
0100
0010
0001
1000
,
0010
0100
0001
1000
0010
0100
0001
0100
0010
1000
0001
0100
0010
1000
0001
1000
,
0100
0010
0001
1000
0100
0010
0001
0010
0100
1000
0001
0010
0100
0010
0001
1000
,
0001
0100
0010
1000
0001
0100
0010
0100
0001
1000
0010
0100
0001
1000
0010
0100
,
0001
1000
0100
0010
0001
1000
0100
0010
0001
1000
0100
0010
0100
1000
0001
0010
,
0001
0000
1000
0010
1000
0000
1010
0000
,
0101
0000
0110
0000
1001
0000
0002
0003
,
1000
0010
0100
0001
1000
0010
0100
0001
1000
0010
1000
0001
0100
0001
1000
0100
,
0010
0001
1000
0100
0010
0001
1000
0100
0010
0100
1000
0001
0010
0100
1000
0001
,
0100
0010
1000
0001
0100
0010
1000
0010
0100
0001
1000
0010
0100
0001
1000
0001
,
0010
0100
1000
0001
0010
0100
1000
0100
0010
0001
1000
0100
0010
0100
1000
0001
,
1000
0010
0100
0001
1000
0010
0100
0010
1000
0001
0100
0010
1000
0001
0100
0010
,
1000
0001
0010
0100
1000
0001
0010
0100
1000
0001
0010
0100
0010
0001
1000
0100
,
1000
0001
0010
0001
1000
0010
1000
0001
0100
0001
1000
0100
1000
0001
0010
0001
,
1000
0100
0010
0001
1000
0100
0010
0100
1000
0001
0010
0100
1000
0001
0010
0001
,
1000
0010
1000
0001
0100
0010
1000
0001
0100
0010
1000
0010
0100
0001
1000
0010
,
0200
0000
0000
0300
;

//---------------dance-single - ----------------
#NOTES:
     dance-single:
     Dossar:
     Hard:
     12:
     1.000,1.000,0.281,0.395,1.000:
0000
0000
0000
0000
,
0000
0000
0000
0000
,
1000
0010
0100
0010
1000
0010
0100
0001
,
1000
0100
0010
0100
1000
0100
0010
0001
,
1000
0010
0100
0010
1000
0010
0100
0001
,
2000
0000
0000
0001
0002
0000
3003
0000
,
1000
0010
0100
0001
1000
0010
0100
0001
1000
0010
1000
0001
0100
0001
1000
0100
,
0010
0001
1000
0100
0010
0001
1000
0100
0010
0100
1000
0001
0010
0100
1000
0001
,
0100
0010
1000
0001
0100
0010
1000
0010
0100
0001
1000
0010
0100
0001
1000
0001
,
0010
0100
1000
0001
0010
0100
1000
0100
0010
0001
1000
0100
0010
0100
1000
0001
,
1000
0010
0100
0001
1000
0010
0100
0010
1000
0001
0100
0010
1000
0001
0100
0010
,
1000
0001
0010
0100
1000
0001
0010
0100
1000
0001
0010
0100
0010
0001
1000
0100
,
1000
0001
0010
0001
1000
0010
1000
0001
0100
0001
1000
0100
1000
0001
0010
0001
,
1000
0002
0003
0200
0320
2030
3002
2003
,
3010
0100
0010
0000
1000
0001
1000
0000
,
0001
0010
0001
0000
1000
0100
1000
0000
,
0001
0100
0001
0000
1000
0010
1000
0000
,
0001
0010
0001
0000
1000
0100
1000
0000
,
0001
1000
0001
0000
0100
0010
0100
0000
,
0001
0100
0001
0000
1000
0010
1000
0000
,
0001
0010
0001
0000
1000
0100
1000
0000
,
0100
0000
0000
0000
0000
0000
0000
0000
0020
0000
0000
0000
0000
0000
0000
0000
0030
0000
0000
0000
0000
0000
0000
0000
0002
0000
0000
0000
0000
0000
0000
0000
2003
0000
0000
0000
0000
0000
0000
0000
3002
0000
0000
0000
0000
0000
0000
0000
0203
0000
0000
0000
0000
0000
0000
0000
0320
0000
0000
0000
0000
0000
0000
0030
,
1010
0101
0110
1001
,
2000
3000
0000
2000
3000
0001
0000
0010
,
0011
1100
0110
1001
,
0001
0000
1000
0000
0010
0100
0010
1000
0001
0100
0010
0000
1000
0000
0001
0000
,
1000
0100
0010
0100
1000
0100
0010
0001
,
1000
0010
0100
0010
1000
0010
0100
0001
,
1000
0100
0010
0100
1000
0100
0010
0001
,
2000
0000
0000
0001
0002
0000
3003
0000
,
1000
0010
0100
0001
1000
0010
0100
0001
1000
0010
1000
0001
0100
0001
1000
0100
,
0010
0001
1000
0100
0010
0001
1000
0100
0010
0100
1000
0001
0010
0100
1000
0001
,
0100
0010
1000
0001
0100
0010
1000
0010
0100
0001
1000
0010
0100
0001
1000
0001
,
0010
0100
1000
0001
0010
0100
1000
0100
0010
0001
1000
0100
0010
0100
1000
0001
,
1000
0010
0100
0001
1000
0010
0100
0010
1000
0001
0100
0010
1000
0001
0100
0010
,
1000
0001
0010
0100
1000
0001
0010
0100
1000
0001
0010
0100
0010
0001
1000
0100
,
1000
0001
0010
0001
1000
0010
1000
0001
0100
0001
1000
0100
1000
0001
0010
0001
,
1000
0000
0000
0000
0000
0000
0000
0000
0002
0000
0000
0000
0000
0000
0000
0000
0003
0000
0000
0000
0000
0000
0000
0000
0200
0000
0000
0000
0000
0000
0000
0000
0320
0000
0000
0000
0000
0000
0000
0000
2030
0000
0000
0000
0000
0000
0000
0000
3002
0000
0000
0000
0000
0000
0000
0000
2003
0000
0000
0000
0000
0000
0000
3000
,
1010
0101
0110
1001
,
2000
3000
0001
2000
3000
0001
0010
0100
,
1100
0000
1000
0001
1000
0000
1001
0000
,
2000
0000
0000
0000
0000
0000
0000
0000
3001
0000
0000
0000
0000
0000
0000
0000
0001
0000
0000
0000
0000
0000
0000
0000
2000
0000
0000
0000
0000
0000
0000
0000
3001
0000
0000
0000
0000
0000
0000
0000
0020
0000
0000
0000
0000
0000
0000
0000
0230
0000
0000
0000
0000
0000
0000
0000
0320
0000
0000
0000
0000
0000
0000
0030
,
0011
1100
0110
1001
,
2000
0000
0000
0000
0000
0000
0000
0000
3010
0000
0000
0000
0000
0000
0000
0000
0010
0000
0000
0000
0000
0000
0000
0000
2000
0000
0000
0000
0000
0000
0000
0000
3010
0000
0000
0000
0000
0000
0000
0000
0200
0000
0000
0000
0000
0000
0000
0000
0302
0000
0000
0000
0000
0000
0000
0000
2003
0000
0000
0000
0000
0000
0000
3000
,
1100
0000
0010
0001
0010
0000
0110
0000
,
1001
0110
1001
0000
,
0001
0100
0010
1000
0001
0100
0010
1000
0001
0100
0001
1000
0010
1000
0001
0010
,
0100
1000
0001
0010
0100
1000
0001
0010
0100
0010
0001
1000
0100
0010
0001
1000
,
0010
0100
0001
1000
0010
0100
0001
0100
0010
1000
0001
0100
0010
1000
0001
1000
,
0100
0010
0001
1000
0100
0010
0001
0010
0100
1000
0001
0010
0100
0010
0001
1000
,
0001
0100
0010
1000
0001
0100
0010
0100
0001
1000
0010
0100
0001
1000
0010
0100
,
0001
1000
0100
0010
0001
1000
0100
0010
0001
1000
0100
0010
0100
1000
0001
0010
,
0001
0000
1000
0010
1000
0000
1010
0000
,
0101
0000
0110
0000
1001
0000
0002
0003
,
1000
0100
1000
0001
1000
0100
1000
0001
,
0010
0100
0010
0001
0010
0100
0010
0001
,
1000
0010
1000
0001
1000
0010
1000
0001
,
0100
0010
0100
0001
0100
0010
0100
0001
,
1000
0010
0100
0001
1000
0010
0100
0010
1000
0001
0100
0010
1000
0001
0100
0010
,
1000
0001
0010
0100
1000
0001
0010
0100
1000
0001
0010
0100
0010
0001
1000
0100
,
1000
0001
0010
0001
1000
0010
1000
0001
0100
0001
1000
0100
1000
0001
0010
0001
,
1000
0100
0010
0001
1000
0100
0010
0100
1000
0001
0010
0100
1000
0001
0010
0001
,
1000
0010
1000
0001
0100
0010
1000
0001
0100
0010
1000
0010
0100
0001
1000
0010
,
0200
0000
0000
0300
;

//---------------dance-single - ----------------
#NOTES:
     dance-single:
     Dossar:
     Medium:
     12:
     0.971,1.000,0.281,0.395,0.888:
0000
0000
0000
0000
,
0000
0000
0000
0000
,
1000
0010
0100
0010
1000
0010
0100
0001
,
1000
0100
0010
0100
1000
0100
0010
0001
,
1000
0010
0100
0010
1000
0010
0100
0001
,
2000
0000
0000
0001
0002
0000
3003
0000
,
1000
0010
0100
0001
1000
0010
0100
0001
1000
0010
1000
0001
0100
0001
1000
0100
,
0010
0001
1000
0100
0010
0001
1000
0100
0010
0100
1000
0001
0010
0100
1000
0001
,
0100
0010
1000
0001
0100
0010
1000
0010
0100
0001
1000
0010
0100
0001
1000
0001
,
0010
0100
1000
0001
0010
0100
1000
0100
0010
0001
1000
0100
0010
0100
1000
0001
,
1000
0000
0001
0000
0100
0010
0100
0000
,
0001
1000
0001
0000
1000
0100
1000
0000
,
0001
0010
0001
0000
1000
0001
1000
0010
,
0100
0002
0003
0200
0320
2030
3002
2003
,
3001
0100
0010
1000
0001
0100
0010
1000
0010
0100
0001
1000
0010
0100
0001
1000
,
0001
0010
0100
1000
0001
0010
0100
1000
0100
0010
0001
1000
0100
0010
0100
1000
,
0001
1000
0010
0100
0001
1000
0010
0100
0001
1000
0010
0100
0001
1000
0010
0100
,
0001
1000
0100
0010
0001
1000
0100
0010
0001
1000
0100
0010
0100
1000
0001
0010
,
0001
1000
0001
0000
0100
0010
0100
0000
,
0001
0100
0001
0000
1000
0010
1000
0000
,
0001
0010
0001
0000
1000
0100
1000
0000
,
0100
0000
0000
0000
0000
0000
0000
0000
0020
0000
0000
0000
0000
0000
0000
0000
0030
0000
0000
0000
0000
0000
0000
0000
0002
0000
0000
0000
0000
0000
0000
0000
2003
0000
0000
0000
0000
0000
0000
0000
3002
0000
0000
0000
0000
0000
0000
0000
0203
0000
0000
0000
0000
0000
0000
0000
0320
0000
0000
0000
0000
0000
0000
0030
,
1010
0101
0110
1001
,
2000
3000
0000
2000
3000
0001
0000
0010
,
0011
1100
0110
1001
,
0001
0000
1000
0000
0010
0100
0010
1000
0001
0100
0010
0000
1000
0000
0001
0000
,
1000
0100
0010
0100
1000
0100
0010
0001
,
1000
0010
0100
0010
1000
0010
0100
0001
,
1000
0100
0010
0100
1000
0100
0010
0001
,
2000
0000
0000
0001
0002
0000
3003
0000
,
1000
0010
0100
0001
1000
0010
0100
0001
1000
0010
1000
0001
0100
0001
1000
0100
,
0010
0001
1000
0100
0010
0001
1000
0100
0010
0100
1000
0001
0010
0100
1000
0001
,
0100
0010
1000
0001
0100
0010
1000
0010
0100
0001
1000
0010
0100
0001
1000
0001
,
0010
0100
1000
0001
0010
0100
1000
0100
0010
0001
1000
0100
0010
0100
1000
0001
,
1000
0001
1000
0000
0010
0100
0010
0000
,
1000
0010
1000
0000
0001
0100
0001
0000
,
1000
0100
1000
0000
0001
0010
0001
0000
,
1000
0000
0000
0000
0000
0000
0000
0000
0002
0000
0000
0000
0000
0000
0000
0000
0003
0000
0000
0000
0000
0000
0000
0000
0200
0000
0000
0000
0000
0000
0000
0000
0320
0000
0000
0000
0000
0000
0000
0000
2030
0000
0000
0000
0000
0000
0000
0000
3002
0000
0000
0000
0000
0000
0000
0000
2003
0000
0000
0000
0000
0000
0000
3000
,
1010
0101
0110
1001
,
2000
3000
0001
2000
3000
0001
0010
0100
,
1100
0000
1000
0001
1000
0000
1001
0000
,
2000
0000
0000
0000
0000
0000
0000
0000
3001
0000
0000
0000
0000
0000
0000
0000
0001
0000
0000
0000
0000
0000
0000
0000
2000
0000
0000
0000
0000
0000
0000
0000
3001
0000
0000
0000
0000
0000
0000
0000
0020
0000
0000
0000
0000
0000
0000
0000
0230
0000
0000
0000
0000
0000
0000
0000
0320
0000
0000
0000
0000
0000
0000
0030
,
0011
1100
0110
1001
,
2000
0000
0000
0000
0000
0000
0000
0000
3010
0000
0000
0000
0000
0000
0000
0000
0010
0000
0000
0000
0000
0000
0000
0000
2000
0000
0000
0000
0000
0000
0000
0000
3010
0000
0000
0000
0000
0000
0000
0000
0200
0000
0000
0000
0000
0000
0000
0000
0302
0000
0000
0000
0000
0000
0000
0000
2003
0000
0000
0000
0000
0000
0000
3000
,
1100
0000
0010
0001
0010
0000
0110
0000
,
1001
0110
1001
0000
,
0001
0100
0010
1000
0001
0100
0010
1000
0001
0100
0001
1000
0010
1000
0001
0010
,
0100
1000
0001
0010
0100
1000
0001
0010
0100
0010
0001
1000
0100
0010
0001
1000
,
0010
0100
0001
1000
0010
0100
0001
0100
0010
1000
0001
0100
0010
1000
0001
1000
,
0100
0010
0001
1000
0100
0010
0001
0010
0100
1000
0001
0010
0100
0010
0001
1000
,
0001
1000
0010
1000
0001
1000
0010
1000
,
0001
0100
0010
0100
0001
0100
0010
0100
,
0001
0000
1000
0010
1000
0000
1010
0000
,
0101
0000
0110
0000
1001
0000
0002
0003
,
1000
0100
1000
0001
1000
0100
1000
0001
,
0010
0100
0010
0001
0010
0100
0010
0001
,
1000
0010
1000
0001
1000
0010
1000
0001
,
0100
0010
0100
0001
0100
0010
0100
0001
,
1000
0010
0100
0001
1000
0010
0100
0010
1000
0001
0100
0010
1000
0001
0100
0010
,
1000
0001
0010
0100
1000
0001
0010
0100
1000
0001
0010
0100
0010
0001
1000
0100
,
1000
0001
0010
0001
1000
0010
1000
0001
0100
0001
1000
0100
1000
0001
0010
0001
,
1000
0100
0010
0001
1000
0100
0010
0100
1000
0001
0010
0100
1000
0001
0010
0001
,
1000
0010
1000
0001
0100
0010
1000
0001
0100
0010
1000
0010
0100
0001
1000
0010
,
0200
0000
0000
0300
;

//---------------dance-single - ----------------
#NOTES:
     dance-single:
     Dossar:
     Easy:
     11:
     0.888,1.000,0.281,0.468,0.603:
0000
0000
0000
0000
,
0000
0000
0000
0000
,
1000
0010
0100
0010
1000
0010
0100
0001
,
1000
0100
0010
0100
1000
0100
0010
0001
,
1000
0010
0100
0010
1000
0010
0100
0001
,
2000
0000
0000
0001
0002
0000
3003
0000
,
1000
0010
0100
0001
1000
0010
0100
0001
1000
0010
1000
0001
0100
0001
1000
0100
,
0010
0000
0001
0000
1000
0100
1000
0000
0001
0000
0010
0100
0010
0000
0001
0000
,
1000
0010
0100
0001
0100
0010
1000
0001
0100
0010
1000
0001
0100
0001
1000
0100
,
0010
0000
0001
0000
1000
0000
0001
0000
0000
0010
0000
0000
0100
0000
0000
1000
0000
0000
0001
0000
0000
0000
0000
0000
,
1000
0000
0001
0000
0100
0010
0100
0000
,
0001
1000
0001
0000
1000
0100
1000
0000
,
0001
0010
0001
0000
1000
0001
1000
0010
,
0100
0002
0003
0200
0320
2030
3002
2003
,
3001
0100
0010
1000
0001
0100
0010
1000
0010
0100
0001
1000
0010
0100
0001
1000
,
0001
0010
0100
1000
0100
0010
0001
0000
,
1000
0001
0100
0010
1000
0001
0100
0010
1000
0001
0100
0010
1000
0001
0100
0010
,
1000
0000
0001
0000
0010
0000
0100
0000
1000
0001
1000
0000
0100
0000
0000
0000
,
1000
0001
1000
0000
0010
0100
0010
0000
,
1000
0010
1000
0000
0001
0100
0001
0000
,
1000
0100
1000
0000
0001
0010
0001
0000
,
0010
0000
0000
0000
0000
0000
0000
0000
0200
0000
0000
0000
0000
0000
0000
0000
0300
0000
0000
0000
0000
0000
0000
0000
2000
0000
0000
0000
0000
0000
0000
0000
3002
0000
0000
0000
0000
0000
0000
0000
2003
0000
0000
0000
0000
0000
0000
0000
3020
0000
0000
0000
0000
0000
0000
0000
0230
0000
0000
0000
0000
0000
0000
0300
,
0101
1010
0110
1001
,
0002
0003
0000
0002
0003
1000
0000
0100
,
1100
0011
0110
1001
,
1000
0000
0001
0000
0100
0010
0100
0001
1000
0010
0100
0000
0001
0000
1000
0000
,
0001
0010
0100
0010
0001
0010
0100
1000
,
0001
0100
0010
0100
0001
0100
0010
1000
,
0001
0010
0100
0010
0001
0010
0100
1000
,
0002
0000
0000
1000
2000
0000
3003
0000
,
0001
0100
0010
1000
0001
0100
0010
1000
0001
0100
0001
1000
0010
1000
0001
0010
,
0001
0000
1000
0000
0100
0000
0010
0001
0010
0000
0001
0000
1000
0000
0000
0000
,
0010
0100
0001
1000
0010
0100
0001
0100
0010
1000
0001
0100
0010
1000
0001
1000
,
0100
0000
0010
0001
0010
0000
0100
0000
1000
0001
1000
0010
0100
0000
0000
0000
,
0001
1000
0001
0000
0100
0010
0100
0000
,
0001
0100
0001
0000
1000
0010
1000
0000
,
0001
0010
0001
0000
1000
0100
1000
0000
,
0001
0000
0000
0000
0000
0000
0000
0000
2000
0000
0000
0000
0000
0000
0000
0000
3000
0000
0000
0000
0000
0000
0000
0000
0020
0000
0000
0000
0000
0000
0000
0000
0230
0000
0000
0000
0000
0000
0000
0000
0302
0000
0000
0000
0000
0000
0000
0000
2003
0000
0000
0000
0000
0000
0000
0000
3002
0000
0000
0000
0000
0000
0000
0003
,
0101
1010
0110
1001
,
0002
0003
1000
0002
0003
1000
0100
0010
,
0011
0000
0001
1000
0001
0000
1001
0000
,
0002
0000
0000
0000
0000
0000
0000
0000
1003
0000
0000
0000
0000
0000
0000
0000
1000
0000
0000
0000
0000
0000
0000
0000
0002
0000
0000
0000
0000
0000
0000
0000
1003
0000
0000
0000
0000
0000
0000
0000
0200
0000
0000
0000
0000
0000
0000
0000
0320
0000
0000
0000
0000
0000
0000
0000
0230
0000
0000
0000
0000
0000
0000
0300
,
1100
0011
0110
1001
,
0002
0000
0000
0000
0000
0000
0000
0000
0103
0000
0000
0000
0000
0000
0000
0000
0100
0000
0000
0000
0000
0000
0000
0000
0002
0000
0000
0000
0000
0000
0000
0000
0103
0000
0000
0000
0000
0000
0000
0000
0020
0000
0000
0000
0000
0000
0000
0000
2030
0000
0000
0000
0000
0000
0000
0000
3002
0000
0000
0000
0000
0000
0000
0003
,
0011
0000
0100
1000
0100
0000
0110
0000
,
1001
0110
1001
0000
,
1000
0010
0100
0001
1000
0010
0100
0001
1000
0010
1000
0001
0100
0001
1000
0100
,
0010
0001
1000
0100
0010
0001
1000
0100
0010
0100
1000
0001
0010
0100
1000
0001
,
0100
0010
2000
3001
2000
3001
2000
3001
,
0010
0100
1000
0001
0010
0100
1000
0100
0010
0001
1000
0100
0010
0100
1000
0001
,
2000
3001
0100
0001
1000
0001
0200
0301
,
1000
0010
0200
0310
2000
3010
0100
0010
,
1000
0000
0001
0100
0001
0000
0101
0000
,
1010
0000
0110
0000
1001
0000
2000
3000
,
0001
0010
0001
1000
0001
0010
0001
1000
,
0100
0010
0100
1000
0100
0010
0100
1000
,
0001
0100
0001
1000
0001
0100
0001
1000
,
0010
0100
0010
1000
0010
0100
0010
1000
,
0001
0100
0010
1000
0001
0100
0010
0100
0001
1000
0010
0100
0001
1000
0010
0100
,
0001
1000
0100
0010
0001
1000
0100
0010
0001
1000
0100
0010
0100
1000
0001
0010
,
0001
1000
0100
1000
0001
0100
0001
1000
0010
1000
0001
0010
0001
0000
1000
0000
,
0001
0000
0000
0000
1000
0000
0001
0000
1000
0000
0000
0000
0001
1000
0010
0100
,
0001
1000
0001
0100
0010
1000
0001
0100
0010
1000
0001
0100
0010
0100
0001
1000
,
0020
0000
0000
0030
;

//---------------dance-double - ----------------
#NOTES:
     dance-double:
     Dossar:
     Challenge:
     13:
     1.000,1.000,0.031,0.727,1.000: // measure 1
00000000
00000000
00000000
00000000
,  // measure 2
00000000
00000000
00000000
00000000
,  // measure 3
10000000
00010000
01000000
00001000
,  // measure 4
00010000
00000000
00000100
00000000
00000010
00000002
00001003
00000002
,  // measure 5
00000103
00000010
00010000
00001000
,  // measure 6
00020000
00000000
00000000
00001000
00002000
00000000
00033000
00000000
,  // measure 7
00001000
00010000
00001000
01000000
00010000
01000000
00100000
10000000
00010000
01000000
00100000
10000000
00010000
10000000
00100000
01000000
,  // measure 8
00010000
01000000
00001000
01000000
00001000
00010000
00001000
00100000
00010000
00100000
00001000
00010000
00001000
00100000
00001000
00010000
,  // measure 9
00000100
00001000
00000100
00000010
00000100
00001000
00000001
00000010
00000100
00001000
00000001
00000010
00000001
00001000
00000100
00010000
,  // measure 10
00000100
00001000
00000100
00010000
00001000
00100000
00001000
00010000
00001000
00100000
00010000
00100000
00001000
00100000
00001000
00010000
,  // measure 11
00001000
00100000
00010000
00100000
01000000
00100000
00010000
10000000
01000000
00100000
00010000
00100000
01000000
10000000
00010000
00100000
,  // measure 12
00001000
00010000
00001000
00100000
00001000
00010000
00000100
00010000
00001000
00010000
00000100
00001000
00000100
00010000
00001000
00010000
,  // measure 13
00000100
00010000
00000100
00001000
00000100
00000010
00000001
00001000
00000100
00000010
00000001
00001000
00000100
00010000
00000100
00010000
,  // measure 14
00001000
00200000
00300000
00002000
00023000
00030200
00020300
00030020
,  // measure 15
00010030
00001000
00010000
00000010
00001000
00000010
00000100
00000001
00001000
00000010
00000100
00000001
00001000
00000001
00000100
00000010
,  // measure 16
00001000
00000010
00010000
00000010
00010000
00001000
00010000
00000100
00001000
00000100
00010000
00001000
00010000
00000100
00010000
00001000
,  // measure 17
00100000
00010000
00100000
01000000
00100000
00010000
10000000
01000000
00100000
00010000
10000000
01000000
10000000
00010000
00100000
00001000
,  // measure 18
00100000
00010000
00100000
00001000
00010000
00000100
00010000
00001000
00010000
00000100
00001000
00000100
00010000
00000100
00010000
00001000
,  // measure 19
00010000
00000100
00001000
00000100
00000010
00000100
00001000
00000001
00000010
00000100
00001000
00000100
00000010
00000001
00001000
00000100
,  // measure 20
00010000
00001000
00010000
00000100
00010000
00001000
00100000
00001000
00010000
00001000
00100000
00010000
00100000
00001000
00010000
00001000
,  // measure 21
00100000
00001000
00100000
00010000
00100000
01000000
10000000
00010000
00100000
01000000
10000000
00010000
00100000
00001000
00100000
00001000
,  // measure 22
00010000
00000200
00000300
00002000
00003002
00000203
00000320
00002030
,  // measure 23
00003001
00001000
00000100
00010000
,  // measure 24
00001000
00000000
00000000
00001000
00000000
00010000
00000000
00001000
,  // measure 25
01000000
00100000
10000000
00010000
,  // measure 26
01000000
00000000
00001000
00000000
00010000
00001000
00010000
00000100
00001000
00000100
00000010
00000000
00000001
00000000
00001000
00000000
,  // measure 27
00000001
00000100
00000001
00000100
00000010
00001000
00000010
00001000
00000100
00010000
00000100
00010000
00001000
01000000
00001000
01000000
,  // measure 28
00010000
10000000
00010000
10000000
00100000
01000000
00100000
01000000
00010000
00100000
00010000
00100000
00001000
00010000
00001000
00010000
,  // measure 29
00000100
00001000
00000100
00001000
00000001
00000100
00000001
00000100
00000010
00001000
00000010
00001000
00000100
00010000
00000100
00010000
,  // measure 30
00002000
00000000
00000000
00010000
00020000
00000000
00033000
00000000
,  // measure 31
00010000
00001000
00010000
00000100
00001000
00000100
00000010
00000001
00001000
00000100
00000010
00000001
00000010
00000100
00001000
00000100
,  // measure 32
00010000
00001000
00010000
00000100
00010000
00000100
00001000
00000100
00010000
00001000
00010000
00001000
00100000
00010000
00100000
01000000
,  // measure 33
10000000
00010000
01000000
00100000
10000000
00010000
01000000
00100000
10000000
00010000
10000000
00100000
01000000
00001000
00010000
00001000
,  // measure 34
01000000
00001000
00010000
00000100
00010000
00001000
00010000
00000100
00001000
00000100
00010000
00001000
00010000
00000100
00010000
00000100
,  // measure 35
00001000
00000001
00000100
00000010
00001000
00000001
00000100
00000010
00001000
00000001
00000100
00000010
00001000
00000001
00001000
00000100
,  // measure 36
00010000
00000100
00010000
00001000
00010000
00001000
01000000
00010000
01000000
00100000
10000000
00010000
10000000
00100000
01000000
00010000
,  // measure 37
10000000
01000000
00100000
00010000
00100000
01000000
10000000
00010000
00100000
01000000
10000000
00010000
00100000
00001000
00100000
00001000
,  // measure 38
00010000
00000200
00000300
00020000
00032000
00203000
00302000
02003000
,  // measure 39
03010000
20000000
30010000
20000000
30100000
00000000
01000000
00000000
,  // measure 40
00001000
00000000
00000000
00002000
00003000
00020000
00030200
00000320
,  // measure 41
00000031
00002000
00003001
00002000
00003010
00000000
00010000
00000000
,  // measure 42
00001000
00000000
00000000
00001000
00000000
00200000
00320000
20030000
,  // measure 43
31000000
00200000
01300000
00200000
00301000
00000000
00010000
00000000
,  // measure 44
00000010
00000000
00000000
00000020
00000030
00002000
00003020
00020030
,  // measure 45
00032000
00003000
00200000
00320000
00230000
00300000
00002000
00003000
,  // measure 46
20000000
30000000
00002000
00003000
02002000
03003000
20020000
30030000
,  // measure 47
00020000
00030000
10000000
00000000
01000000
00000000
00100000
00000000
00020000
00030000
00100000
00000000
01000000
00000000
10000000
00000000
00020000
00030000
00100000
00000000
01000000
00000000
10000000
00000000
02000000
03000000
00100000
00000000
00010000
00000000
00100000
00000000
,  // measure 48
00002000
00003000
00010000
00000000
00001000
00000000
00100000
00000000
00002000
00003000
00100000
00000000
00010000
00000000
00100000
00000000
00002000
00003000
00010000
00000000
00001000
00000000
00010000
00000000
00000100
00000000
00001000
00000000
00000100
00000000
00000010
00000000
,  // measure 49
00000001
00000000
00001000
00000000
00000010
00000000
00000100
00000000
00000002
00000003
00001000
00000000
00000010
00000000
00000100
00000000
00000002
00000003
00001000
00000000
00000001
00000000
00000100
00000000
00000020
00000030
00010000
00000000
00001000
00000000
00010000
00000000
,  // measure 50
00000010
00010000
00001000
00100000
00001000
00010000
00001000
00100000
00010000
00100000
00001000
00010000
00001000
00100000
00001000
00100000
,  // measure 51
00020000
00030000
10000000
00000000
00100000
00000000
01000000
00000000
00010000
00000000
10000000
00000000
00100000
00000000
01000000
00000000
00010000
00000000
10000000
00000000
00100000
00000000
01000000
00000000
00020000
00030000
10000000
00000000
00010000
00000000
00100000
00000000
,  // measure 52
00001000
00000000
00100000
00000000
00001000
00000000
00010000
00000000
00002000
00003000
00010000
00000000
00000010
00000000
00001000
00000000
00000020
00000030
00000100
00000000
00000001
00000000
00001000
00000000
00000001
00000000
00000100
00000000
00000010
00000000
00001000
00000000
,  // measure 53
00000001
00000000
00001000
00000100
00010000
00000000
00001000
00000000
,  // measure 54
00100000
00000000
00010000
00000000
10000000
00000000
20020000
30030000
,  // measure 55
10000000
01000000
10000000
01000000
00100000
00010000
00100000
00010000
01000000
00001000
01000000
00001000
00010000
00000100
00010000
00000100
,  // measure 56
00000010
00000001
00000010
00000001
00001000
00000100
00001000
00000100
00010000
00001000
00010000
00001000
00100000
00010000
00100000
00010000
,  // measure 57
10000000
00100000
10000000
00100000
01000000
00010000
01000000
00010000
00100000
00001000
00100000
00001000
00010000
00000010
00010000
00000010
,  // measure 58
00000100
00000000
00000001
00000000
00000001
00000000
00001000
00000010
00000100
00000001
00001000
00000000
00000001
00000000
00001000
00000000
,  // measure 59
00000001
00000100
00000001
00000100
00000010
00001000
00000010
00001000
00000100
00010000
00000100
00010000
00001000
01000000
00001000
01000000
,  // measure 60
00010000
10000000
00010000
10000000
01000000
00100000
01000000
00100000
00001000
00010000
00001000
00010000
00000100
00001000
00000100
00001000
,  // measure 61
00000001
00000100
00000001
00000100
00000010
00001000
00000010
00001000
00000100
00010000
00000100
00010000
00001000
00100000
00001000
00010000
,  // measure 62
00001000
00100000
01000000
00100000
00010000
10000000
00010000
00100000
00010000
01000000
00001000
00010000
00000100
00001000
00000100
00010000
,  // measure 63
00000100
00000010
00000001
00001000
00000010
00000100
00000010
00001000
00000010
00000100
00000001
00001000
00000100
00010000
00001000
01000000
,  // measure 64
00020000
00000000
00000000
00000000
00000000
00000000
00000000
20030000
,  // measure 65
00000000
00000000
00000000
30000000
00000000
00000000
00000000
00000000
;
