#TITLE:DYNAMITE RAVE;
#SUBTITLE:(B4 ZA BEAT MIX);
#ARTIST:NAOKI;
#TITLETRANSLIT:;
#SUBTITLETRANSLIT:;
#ARTISTTRANSLIT:;
#CREDIT:;
#BANNER:../ddrstream fallback-bn.png;
#BACKGROUND:../ddrstream fallback-bg.png;
#LYRICSPATH:;
#CDTITLE:;
#MUSIC:DYNAMITE RAVE (B4 ZA BEAT MIX).ogg;
#OFFSET:0.000;
#SAMPLESTART:50.820;
#SAMPLELENGTH:12.630;
#SELECTABLE:YES;
#DISPLAYBPM:170.000;
#BPMS:0.000=170.038;
#STOPS:;
#BGCHANGES:;

//---------------dance-single - ----------------
#NOTES:
     dance-single:
     Dossar:
     Challenge:
     12:
     1.000,1.000,0.000,0.011,1.000:
0000
0000
0000
0000
,
0000
0000
0000
0000
,
0000
0000
0000
0000
,
1000
0000
0001
0000
0100
0000
0001
1000
0000
1000
0010
0000
0100
0000
0001
0000
,
1000
0000
0100
0000
0010
0000
0100
1000
0000
1000
0001
0000
0010
0000
0001
0000
,
1000
0000
0010
0000
0100
0000
0001
1000
0000
1000
0010
0000
0100
0000
0010
0000
,
1000
0000
0001
0000
1000
0000
0100
0010
0000
0010
0001
1000
0100
0010
0100
1000
,
0001
0100
0001
1000
0010
0100
0001
1000
0001
0100
0010
1000
0001
1000
0010
0100
,
0001
1000
0001
0010
0100
1000
0100
0010
0001
1000
0100
1000
0001
0010
0100
1000
,
0001
0100
0010
0100
0001
1000
0010
0100
0010
1000
0001
0100
0010
1000
0010
0100
,
0001
1000
0100
1000
0001
0010
0100
1000
0001
0100
0001
1000
0010
0100
0001
1000
,
0010
0000
0100
0000
0001
0000
1000
0010
0000
0010
0100
0000
0001
0000
1000
0000
,
0100
0000
0010
0000
0001
0000
0010
0100
0000
0100
1000
0000
0001
0000
1000
0000
,
0010
0000
0100
0000
0001
0000
1000
0001
0000
0001
0100
0000
0010
0000
1000
0000
,
0001
0000
0010
0000
0100
0000
0010
0001
0000
0001
1000
0000
0100
0000
0010
0000
,
0001
0000
1000
0000
0010
0000
0100
0001
0000
0001
1000
0000
0010
0000
0100
0000
,
0001
0000
1000
0000
0100
0000
0010
0100
0000
0100
1000
0000
0001
0000
0100
0000
,
0010
0000
1000
0000
0001
0000
0100
0001
0000
0001
1000
0000
0010
0000
0100
0000
,
0001
0000
1000
0000
0100
0000
0010
0001
0000
0001
1000
0100
1000
0001
0010
0100
,
2000
0000
0000
3000
,
0001
0000
0100
0000
0001
0000
1000
0000
0010
0100
0010
1000
0001
0000
0100
0000
,
0010
1000
0010
0100
0001
1000
0001
0010
,
0100
1000
0100
0000
0010
0000
0001
0000
1000
0100
1000
0000
0001
0000
1000
0000
,
0100
0010
0001
0010
0100
1000
0100
0010
,
0001
0000
1000
0000
0010
0000
0100
0001
1000
0001
0100
0000
0010
0000
1000
0000
,
0001
0000
0100
0000
0001
0000
1000
0010
1000
0000
0001
0000
0100
0000
0001
1000
,
0100
0000
0010
0000
0001
0000
1000
0100
0010
0000
0001
0000
0010
0000
0100
0000
,
1000
0000
0001
0000
1000
0000
0100
0010
0100
0000
1000
0000
0001
0000
1000
0000
,
0010
0000
0100
0000
0010
0000
1000
0001
0100
0000
0010
0000
1000
0000
0001
0000
,
0100
0010
0100
0001
1000
0010
1000
0001
,
0010
0000
0001
0010
0001
0000
1000
0000
0100
0000
0010
0001
0010
0000
0100
0000
,
1000
0100
1000
0000
0001
0000
0010
0000
0100
1000
0001
1000
0100
0000
0010
0000
,
0001
0000
1000
0000
0001
0000
0100
0000
0010
1000
0001
1000
0010
0000
0100
0001
,
1000
0000
0010
0100
0001
0000
0100
0010
1000
0000
0001
0000
0100
0000
0001
0000
,
1000
0100
1000
0001
0010
0100
0010
0001
,
1000
0000
0100
1000
0100
0000
1000
0001
1000
0000
0001
1000
0010
0100
0010
1000
,
0001
0100
0001
1000
0010
1000
0001
0100
0010
1000
0010
0100
0001
1000
0010
0100
,
0001
1000
0100
1000
0001
0010
0001
1000
0100
0010
0001
0010
0100
1000
0001
0010
,
0001
1000
0010
1000
0001
0100
0010
0100
0001
1000
0001
0010
0100
1000
0100
0010
,
0001
1000
0010
1000
0001
0100
0010
0100
0001
1000
0010
1000
0001
0100
0010
0100
,
0001
1000
0001
0010
0100
1000
0100
0010
0001
1000
0100
0010
0100
1000
0001
1000
,
0010
0100
0001
0100
0010
1000
0001
1000
0010
0100
0001
1000
0001
0100
0010
1000
,
0001
0010
0100
1000
0100
0010
0001
1000
0001
0100
0010
1000
0010
0100
0001
1000
,
0001
0010
0100
0010
0001
1000
0100
0010
0001
0010
0100
1000
0001
0010
0100
0010
,
0001
1000
0010
0100
0001
1000
0010
0100
0001
1000
0010
1000
0001
0100
0010
1000
,
0001
0100
0001
1000
0010
0100
0010
1000
,
0001
0000
0010
0100
0010
0000
0001
0000
1000
0100
1000
0000
0001
0000
0010
0000
,
0001
0000
1000
0010
1000
0000
0001
0000
0100
0000
0010
0000
0100
0000
0001
0000
,
1000
0100
1000
0000
0001
0000
0010
0000
0100
0000
1000
0000
0100
0000
0010
0000
,
0001
0000
1000
0000
0001
0000
0100
0000
0010
0000
1000
0000
0010
0100
0001
0000
,
1000
0000
0100
0000
0010
0000
0001
1000
0100
0000
0010
0000
0001
0000
1000
0000
,
0010
0100
0010
1000
0001
0100
0001
1000
,
0100
0000
1000
0001
1000
0000
0010
0100
0001
1000
0001
0100
0010
0000
0100
0000
,
0001
1000
0010
1000
0001
0100
0010
0100
0001
1000
0100
1000
0001
0100
0001
1000
,
0100
0010
0001
1000
0100
1000
0001
0010
0100
1000
0001
0010
0100
1000
0100
0010
,
0001
1000
0010
0100
0001
0100
0010
1000
0001
0100
0010
0100
0001
1000
0010
0100
,
0001
1000
0100
1000
0001
0010
0001
1000
0100
0010
0001
0010
0100
1000
0001
0010
,
0001
1000
0010
1000
0001
0100
0010
0100
0001
1000
0001
0010
0100
1000
0100
0010
,
0001
1000
0010
1000
0001
0100
0010
0100
0001
1000
0010
1000
0001
0100
0010
0100
,
0001
1000
0001
0010
0100
1000
0100
0010
0001
1000
0100
0010
0100
1000
0001
1000
,
0010
0100
0001
0100
0010
1000
0001
1000
0010
0100
0001
1000
0001
0100
0010
1000
,
0001
0010
0100
1000
0100
0010
0001
1000
0001
0100
0010
1000
0010
0100
0001
1000
,
0001
0000
0000
0000
;

//---------------dance-single - ----------------
#NOTES:
     dance-single:
     Dossar:
     Hard:
     12:
     1.000,1.000,0.045,0.225,0.984:
0000
0000
0000
0000
,
0000
0000
0000
0000
,
0000
0000
0000
0000
,
1000
0000
0001
0000
0100
0000
0001
1000
0000
1000
0010
0000
0100
0000
0001
0000
,
1000
0000
0100
0000
0010
0000
0100
1000
0000
1000
0001
0000
0010
0000
0001
0000
,
1000
0000
0010
0000
0100
0000
0001
1000
0000
1000
0010
0000
0100
0000
0010
0000
,
1000
0000
0001
0000
1000
0000
0100
0010
0000
0010
0001
1000
0100
0010
0100
1000
,
0001
0100
0001
1000
0010
0100
0001
1000
0001
0100
0010
1000
0001
1000
0010
0100
,
0001
1000
0001
0010
0100
1000
0100
0010
0001
1000
0100
1000
0001
0010
0100
1000
,
0001
0100
0010
0100
0001
1000
0010
0100
0010
1000
0001
0100
0010
1000
0010
0100
,
0001
1000
0100
1000
0001
0010
0100
1000
0001
0100
0001
1000
0010
0100
0001
1000
,
0010
0000
0100
0000
0001
0000
1000
0010
0000
0010
0100
0000
0001
0000
1000
0000
,
0100
0000
0010
0000
0001
0000
0010
0100
0000
0100
1000
0000
0001
0000
1000
0000
,
0010
0000
0100
0000
0001
0000
1000
0001
0000
0001
0100
0000
0010
0000
1000
0000
,
0001
0000
0010
0000
0100
0000
0010
0001
0000
0001
1000
0000
0100
0000
0010
0000
,
0001
0000
1000
0000
0010
0000
0100
0001
0000
0001
1000
0000
0010
0000
0100
0000
,
0001
0000
1000
0000
0100
0000
0010
0100
0000
0100
1000
0000
0001
0000
0100
0000
,
0010
0000
1000
0000
0001
0000
0100
0001
0000
0001
1000
0000
0010
0000
0100
0000
,
0001
0000
1000
0000
0100
0000
0010
0001
0000
0001
1000
0100
1000
0001
0010
0100
,
2000
0000
0000
3000
,
0001
0000
0100
0000
0001
0000
1000
0000
0010
0100
0010
1000
0001
0000
0100
0000
,
0010
1000
0010
0100
0001
1000
0001
0010
,
0100
1000
0100
0000
0010
0000
0001
0000
1000
0100
1000
0000
0001
0000
1000
0000
,
0100
0010
0001
0010
0100
1000
0100
0010
,
0001
0000
1000
0000
0010
0000
0100
0001
1000
0001
0100
0000
0010
0000
1000
0000
,
0001
0000
0100
0000
0001
0000
1000
0010
1000
0000
0001
0000
0100
0000
0001
1000
,
0100
0000
0010
0000
0001
0000
1000
0100
0010
0000
0001
0000
0010
0000
0100
0000
,
1000
0000
0001
0000
1000
0000
0100
0010
0100
0000
1000
0000
0001
0000
1000
0000
,
0010
0000
0100
0000
0010
0000
1000
0001
0100
0000
0010
0000
1000
0000
0001
0000
,
0100
0010
0100
0001
1000
0010
1000
0001
,
0010
0000
0001
0010
0001
0000
1000
0000
0100
0000
0010
0001
0010
0000
0100
0000
,
1000
0100
1000
0000
0001
0000
0010
0000
0100
1000
0001
1000
0100
0000
0010
0000
,
0001
0000
1000
0000
0001
0000
0100
0000
0010
1000
0001
1000
0010
0000
0100
0001
,
1000
0000
0010
0100
0001
0000
0100
0010
1000
0000
0001
0000
0100
0000
0001
0000
,
1000
0100
1000
0001
0010
0100
0010
0001
,
1000
0000
0100
1000
0100
0000
1000
0001
1000
0000
0001
1000
0010
0100
0010
1000
,
0001
0100
0001
1000
0010
1000
0001
0100
0010
1000
0010
0100
0001
1000
0010
0100
,
0001
1000
0100
1000
0001
0010
0001
1000
0100
0010
0001
0010
0100
1000
0001
0010
,
0001
1000
0010
1000
0001
0100
0010
0100
0001
1000
0001
0010
0100
1000
0100
0010
,
0001
1000
0010
1000
0001
0100
0010
0100
0001
1000
0010
1000
0001
0100
0010
0100
,
0001
0000
2000
3000
0002
0003
0100
0000
,
0001
0000
1000
0002
0003
0020
0130
1000
,
0001
0010
0001
0010
0100
1000
0100
0000
,
2000
3000
0002
0003
0200
0300
0010
0000
,
0220
0330
0220
0330
2002
3003
2002
3003
,
0001
0100
0001
1000
0010
0100
0010
1000
,
0001
0000
0010
0100
0010
0000
0001
0000
1000
0100
1000
0000
0001
0000
0010
0000
,
0001
0000
1000
0010
1000
0000
0001
0000
0100
0000
0010
0000
0100
0000
0001
0000
,
1000
0100
1000
0000
0001
0000
0010
0000
0100
0000
1000
0000
0100
0000
0010
0000
,
0001
0000
1000
0000
0001
0000
0100
0000
0010
0000
1000
0000
0010
0100
0001
0000
,
1000
0000
0100
0000
0010
0000
0001
1000
0100
0000
0010
0000
0001
0000
1000
0000
,
0010
0100
0010
1000
0001
0100
0001
1000
,
0100
0000
1000
0001
1000
0000
0010
0100
0001
1000
0001
0100
0010
0000
0100
0000
,
0001
1000
0010
1000
0001
0100
0010
0100
0001
1000
0100
1000
0001
0100
0001
1000
,
0100
0010
0001
1000
0100
1000
0001
0010
0100
1000
0001
0010
0100
1000
0100
0010
,
0001
1000
0010
0100
0001
0100
0010
1000
0001
0100
0010
0100
0001
1000
0010
0100
,
0001
1000
0100
1000
0001
0010
0001
1000
0100
0010
0001
0010
0100
1000
0001
0010
,
0001
0000
2000
3000
0002
0003
0100
0000
,
0010
0000
1000
0002
0003
0020
0130
1000
,
0001
0010
0001
0010
0100
1000
0100
0000
,
1000
0000
0001
0100
0001
0000
1000
0010
1000
0000
0001
1000
0001
0100
0010
1000
,
0001
0010
0100
1000
0100
0010
0001
1000
0001
0100
0010
1000
0010
0100
0001
1000
,
0001
0000
0000
0000
;

//---------------dance-single - ----------------
#NOTES:
     dance-single:
     Dossar:
     Medium:
     11:
     0.922,1.000,0.045,0.225,0.686:
0000
0000
0000
0000
,
0000
0000
0000
0000
,
0000
0000
0000
0000
,
1000
0000
0001
0000
0100
0000
0001
1000
0000
1000
0010
0000
0100
0000
0001
0000
,
1000
0000
0100
0000
0010
0000
0100
1000
0000
1000
0001
0000
0010
0000
0001
0000
,
1000
0000
0010
0000
0100
0000
0001
1000
0000
1000
0010
0000
0100
0000
0010
0000
,
1000
0000
0001
0000
1000
0000
0100
0010
0000
0010
0001
0000
1000
0000
0000
0000
,
0001
0000
0100
0000
0001
0000
1000
0100
0000
0100
0010
0000
0001
0000
1000
0000
,
0010
0000
0100
0000
0010
0000
1000
0001
0000
0001
0010
0000
0100
0000
1000
0000
,
0001
0000
0010
0000
0001
0000
1000
0010
0000
0010
0100
0000
0001
0000
1000
0000
,
0001
0100
0010
1000
0001
0100
0010
1000
0001
0100
0001
1000
0010
0100
0001
1000
,
0010
0000
0100
0000
0001
0000
1000
0010
0000
0010
0100
0000
0001
0000
1000
0000
,
0100
0000
0010
0000
0001
0000
0010
0100
0000
0100
1000
0000
0001
0000
1000
0000
,
0010
0000
0100
0000
0001
0000
1000
0001
0000
0001
0100
0000
0010
0000
1000
0000
,
0001
0000
0010
0000
0100
0000
0010
0001
0000
0001
1000
0000
0100
0000
0010
0000
,
0001
0000
1000
0000
0010
0000
0100
0001
0000
0001
1000
0000
0010
0000
0100
0000
,
0001
0000
1000
0000
0100
0000
0010
0100
0000
0100
1000
0000
0001
0000
0100
0000
,
0010
0000
1000
0000
0001
0000
0100
0001
0000
0001
1000
0000
0010
0000
0100
0000
,
0001
0000
1000
0000
0100
0000
0010
0001
0000
0001
1000
0100
1000
0001
0010
0100
,
2000
0000
0000
3000
,
0001
0000
0100
0000
0001
0000
1000
0000
0010
0100
0010
1000
0001
0000
0100
0000
,
0010
1000
0010
0100
0001
1000
0001
0010
,
0100
1000
0100
0000
0010
0000
0001
0000
1000
0100
1000
0000
0001
0000
1000
0000
,
0100
0010
0001
0010
0100
1000
0100
0010
,
0001
0000
1000
0000
0010
0000
0100
0001
1000
0001
0100
0000
0010
0000
1000
0000
,
0001
0000
0100
0000
0001
0000
1000
0010
1000
0000
0001
0000
0100
0000
0001
1000
,
0100
0000
0010
0000
0001
0000
1000
0100
0010
0000
0001
0000
0010
0000
0100
0000
,
1000
0000
0001
0000
1000
0000
0100
0010
0100
0000
1000
0000
0001
0000
1000
0000
,
0010
0000
0100
0000
0010
0000
1000
0001
0100
0000
0010
0000
1000
0000
0001
0000
,
0100
0010
0100
0001
1000
0010
1000
0001
,
0010
0000
0001
0010
0001
0000
1000
0000
0100
0000
0010
0001
0010
0000
0100
0000
,
1000
0100
1000
0000
0001
0000
0010
0000
0100
1000
0001
1000
0100
0000
0010
0000
,
0001
0000
1000
0000
0001
0000
0100
0000
0010
1000
0001
1000
0010
0000
0100
0001
,
1000
0000
0010
0100
0001
0000
0100
0010
1000
0000
0001
0000
0100
0000
0001
0000
,
1000
0100
1000
0001
0010
0100
0010
0001
,
1000
0000
0100
1000
0100
0000
1000
0001
1000
0000
0001
1000
0010
0100
0010
1000
,
0001
0100
0001
1000
0010
1000
0001
0100
0010
1000
0010
0100
0001
1000
0010
0100
,
0001
1000
0100
1000
0001
0010
0001
1000
0100
0010
0001
0010
0100
1000
0001
0010
,
0001
1000
0010
0100
0001
1000
0010
0100
,
0001
1000
0100
0010
0001
1000
0100
0010
,
0001
0000
2000
3000
0002
0003
0100
0000
,
0001
0000
1000
0002
0003
0020
0130
1000
,
0001
0010
0001
0010
0100
1000
0100
0000
,
2000
3000
0002
0003
0200
0300
0010
0000
,
0220
0330
0220
0330
2002
3003
2002
3003
,
0001
0100
0001
1000
0010
0100
0010
1000
,
0001
0000
0010
0100
0010
0000
0001
0000
1000
0100
1000
0000
0001
0000
0010
0000
,
0001
0000
1000
0010
1000
0000
0001
0000
0100
0000
0010
0000
0100
0000
0001
0000
,
1000
0100
1000
0000
0001
0000
0010
0000
0100
0000
1000
0000
0100
0000
0010
0000
,
0001
0000
1000
0000
0001
0000
0100
0000
0010
0000
1000
0000
0010
0100
0001
0000
,
1000
0000
0100
0000
0010
0000
0001
1000
0100
0000
0010
0000
0001
0000
1000
0000
,
0010
0100
0010
1000
0001
0100
0001
1000
,
0100
0000
1000
0001
1000
0000
0010
0100
0001
1000
0001
0100
0010
0000
0100
0000
,
0001
1000
0010
1000
0001
0100
0010
0100
0001
1000
0100
1000
0001
0100
0001
1000
,
0100
0010
0001
1000
0100
1000
0001
0010
0100
1000
0001
0010
0100
1000
0100
0010
,
0001
1000
0010
0100
0001
1000
0010
0100
,
0001
1000
0100
0010
0001
1000
0100
0010
,
0001
0000
2000
3000
0002
0003
0100
0000
,
0010
0000
1000
0002
0003
0020
0130
1000
,
0001
0010
0001
0010
0100
1000
0100
0000
,
1000
0000
0001
0100
0001
0000
1000
0010
1000
0000
0001
1000
0001
0100
0010
1000
,
0001
0100
0010
1000
0010
0100
0001
1000
0010
0100
0001
1000
0010
0100
0010
1000
,
0001
0000
0000
0000
;

//---------------dance-double - ----------------
#NOTES:
     dance-double:
     Dossar:
     Challenge:
     12:
     1.000,1.000,0.022,0.090,1.000: // measure 1
00000000
00000000
00000000
00000000
,  // measure 2
00000000
00000000
00000000
00000000
,  // measure 3
00000000
00000000
00000000
00000000
,  // measure 4
10000000
00000000
00100000
00000000
01000000
00000000
00010000
01000000
00000000
01000000
00010000
00000000
00100000
00000000
00001000
00000000
,  // measure 5
00010000
00000000
00000100
00000000
00010000
00000000
00001000
00010000
00000000
00010000
00001000
00000000
00010000
00000000
00000100
00000000
,  // measure 6
00001000
00000000
00000100
00000000
00000010
00000000
00000001
00001000
00000000
00001000
00000001
00000000
00000010
00000000
00000100
00000000
,  // measure 7
00001000
00000000
00000100
00000000
00010000
00000000
00001000
00010000
00000000
00010000
00001000
00000000
01000000
00000000
00000000
00000000
,  // measure 8
00010000
01000000
00100000
10000000
00010000
01000000
00100000
10000000
00010000
01000000
00010000
10000000
00100000
01000000
00010000
01000000
,  // measure 9
00001000
00010000
00001000
01000000
00001000
00010000
00000100
00010000
00001000
00010000
00000100
00001000
00000100
00000010
00000001
00001000
,  // measure 10
00000010
00000100
00000001
00001000
00000010
00000100
00000001
00001000
00000010
00001000
00000001
00000100
00000010
00001000
00000010
00010000
,  // measure 11
00001000
00100000
00001000
00010000
00001000
00100000
00010000
00100000
01000000
10000000
01000000
00100000
00010000
10000000
00010000
01000000
,  // measure 12
00100000
00000000
10000000
00000000
00010000
00000000
01000000
00010000
00000000
00010000
01000000
00000000
00001000
00000000
00010000
00000000
,  // measure 13
00000100
00000000
00010000
00000000
00001000
00000000
00010000
00000100
00000000
00000100
00010000
00000000
00000100
00000000
00001000
00000000
,  // measure 14
00000001
00000000
00000100
00000000
00000010
00000000
00001000
00000010
00000000
00000010
00001000
00000000
00000001
00000000
00000100
00000000
,  // measure 15
00000010
00000000
00010000
00000000
00001000
00000000
00010000
00001000
00000000
00001000
00010000
00000000
00001000
00000000
00000000
00000000
,  // measure 16
00100000
00000000
00010000
00000000
10000000
00000000
01000000
00100000
00000000
00100000
01000000
00000000
10000000
00000000
00100000
00000000
,  // measure 17
01000000
00000000
00001000
00000000
00010000
00000000
00001000
01000000
00000000
01000000
00001000
00000000
00010000
00000000
00000100
00000000
,  // measure 18
00000010
00000000
00000001
00000000
00001000
00000000
00000010
00000100
00000000
00000100
00000010
00000000
00001000
00000000
00000100
00000000
,  // measure 19
00010000
00000000
00001000
00000000
00100000
00000000
00010000
10000000
00000000
10000000
00010000
00000000
01000000
00000000
00100000
00000000
,  // measure 20
20000000
00000000
00000000
30000000
,  // measure 21
00010000
00000000
01000000
00000000
00010000
00000000
00000000
00000000
10000000
00010000
01000000
00100000
10000000
00000000
00010000
00000000
,  // measure 22
01000000
00001000
00010000
00000000
00000100
00000010
00000001
00000000
,  // measure 23
00001000
00000001
00001000
00000000
00000010
00000000
00000000
00000000
00010000
00001000
00010000
00000000
00000100
00000000
00000000
00000000
,  // measure 24
00010000
00001000
00100000
00000000
00010000
10000000
00100000
00000000
,  // measure 25
01000000
00000000
00001000
00000000
00010000
00000000
00000000
00001000
00000000
00010000
00000100
00000000
00000010
00000000
00000000
00000000
,  // measure 26
00000100
00000000
00010000
00000000
00001000
00000000
00100000
00010000
00100000
00000000
01000000
00000000
10000000
00000000
00000000
00010000
,  // measure 27
01000000
00000000
00001000
00000000
00010000
00000000
00000000
00000010
00001000
00000000
00000001
00000000
00000100
00000000
00000010
00000000
,  // measure 28
00010000
00000000
00001000
00000000
00100000
00000000
00000000
01000000
10000000
00000000
00010000
00100000
00010000
10000000
01000000
00100000
,  // measure 29
00010000
00000000
00100000
00000000
00001000
00000000
00000000
00010000
00000100
00000000
00001000
00000000
00000001
00000000
00000000
00000000
,  // measure 30
00001000
00000000
00000010
00000000
00010000
00000000
00000000
00001000
01000000
00000000
00010000
00000000
10000000
00000000
00000000
00000000
,  // measure 31
00100000
00000000
01000000
00010000
01000000
00000000
00000000
00000000
00001000
00000000
00010000
00001000
00010000
00000000
00000000
00000000
,  // measure 32
00000100
00001000
00000100
00000000
00000010
00000000
00000000
00000000
00000001
00000000
00001000
00000100
00001000
00000000
00000001
00000000
,  // measure 33
00000100
00000000
00000010
00000000
00001000
00000000
00000000
00000000
00000010
00001000
00000010
00000000
00000100
00000000
00000000
00000001
,  // measure 34
00001000
00000000
00000010
00010000
00000010
00000000
00000000
00000000
00010000
00000000
00001000
00000000
00100000
00000000
00000000
00000000
,  // measure 35
00010000
10000000
01000000
00000000
00100000
00001000
00010000
00000000
,  // measure 36
00000100
00000000
00001000
00000100
00001000
00000000
00000001
00000010
00000001
00001000
00000100
00000010
00000001
00000000
00001000
00000000
,  // measure 37
00000001
00000100
00000010
00001000
00000001
00000100
00000010
00001000
00000001
00001000
00000010
00000100
00000001
00001000
00000010
00010000
,  // measure 38
00001000
00100000
00001000
00010000
00001000
00100000
00010000
00100000
00001000
00100000
00001000
00010000
00001000
00100000
01000000
00100000
,  // measure 39
00010000
10000000
00010000
01000000
00100000
10000000
00010000
01000000
00100000
01000000
00010000
10000000
00010000
01000000
00001000
00010000
,  // measure 40
00001000
01000000
00001000
00010000
00000100
00010000
00001000
00010000
00000100
00001000
00000100
00000010
00000001
00001000
00000100
00000010
,  // measure 41
00000001
00001000
00000010
00001000
00000001
00000100
00000010
00001000
00000001
00000100
00000010
00000100
00000001
00001000
00000010
00010000
,  // measure 42
00001000
00100000
00001000
00010000
00001000
00100000
00010000
00100000
00001000
00100000
00001000
00010000
00001000
00100000
01000000
00100000
,  // measure 43
00010000
10000000
00010000
01000000
00100000
10000000
00010000
01000000
00100000
01000000
00010000
10000000
00010000
01000000
00001000
00010000
,  // measure 44
00001000
01000000
00001000
00010000
00000100
00010000
00001000
00010000
00000100
00001000
00000100
00000010
00000001
00001000
00000100
00000010
,  // measure 45
00000002
00000003
00002000
00003000
00000002
00000003
00002000
00003000
,  // measure 46
00001001
00000000
00001001
00000000
00000001
00001000
00000100
00000000
,  // measure 47
00010000
00000000
00001000
00010000
00001000
00000000
00000000
00000000
00100000
00010000
00100000
00000000
01000000
00000000
00000000
00000000
,  // measure 48
10000000
00000000
00010000
01000000
00010000
00000000
00000000
00000000
01000000
00000000
00001000
00000000
00010000
00000000
00000000
00000000
,  // measure 49
00001000
00010000
00001000
00000000
00010000
00000000
00000000
00000000
00000100
00000000
00001000
00000100
00001000
00000000
00000001
00000000
,  // measure 50
00000100
00000010
00001000
00000000
00000010
00010000
00001000
00100000
,  // measure 51
01000000
10000000
00010000
01000000
00001000
00010000
00000100
00000000
,  // measure 52
00001000
00000001
00000100
00000000
00000010
00010000
00001000
00000000
,  // measure 53
00100000
00000000
00010000
10000000
00010000
00000000
10000000
00100000
01000000
00010000
01000000
00100000
10000000
00000000
00010000
00000000
,  // measure 54
10000000
00100000
01000000
00010000
10000000
00100000
01000000
00010000
10000000
00010000
01000000
00100000
10000000
00010000
01000000
00001000
,  // measure 55
00010000
00000100
00010000
00001000
00010000
00000100
00001000
00000100
00010000
00000100
00010000
00001000
00010000
00000100
00000010
00000100
,  // measure 56
00001000
00000001
00001000
00000010
00000100
00000001
00001000
00000010
00000100
00000010
00001000
00000001
00001000
00000010
00010000
00001000
,  // measure 57
00010000
00000010
00010000
00001000
00100000
00001000
00010000
00001000
00100000
00010000
00100000
01000000
10000000
00010000
00100000
01000000
,  // measure 58
10000000
00010000
01000000
00010000
10000000
00100000
01000000
00010000
10000000
00100000
01000000
00100000
10000000
00010000
01000000
00001000
,  // measure 59
00010000
00000100
00010000
00001000
00010000
00000100
00001000
00000100
00010000
00000100
00010000
00001000
00010000
00000100
00000010
00000100
,  // measure 60
00001000
00000001
00001000
00000010
00000100
00000001
00001000
00000010
00000100
00000010
00001000
00000001
00001000
00000010
00010000
00001000
,  // measure 61
00010000
00000010
00010000
00001000
00100000
00001000
00010000
00001000
00100000
00010000
00100000
01000000
10000000
00010000
00100000
01000000
,  // measure 62
20000000
00000000
00000000
30020000
00000000
00000000
02030000
00000000
00000000
03001000
00010000
00000000
00000100
00000000
00000010
00000000
,  // measure 63
00000001
00000000
00000000
00000000
;
