#TITLE:CAPTAIN JACK;
#SUBTITLE:(GRANDALE REMIX);
#ARTIST:CAPTAIN JACK;
#TITLETRANSLIT:;
#SUBTITLETRANSLIT:;
#ARTISTTRANSLIT:;
#CREDIT:;
#BANNER:../ddrstream fallback-bn.png;
#BACKGROUND:../ddrstream fallback-bg.png;
#LYRICSPATH:;
#CDTITLE:;
#MUSIC:CAPTAIN JACK (GRANDALE REMIX).ogg;
#OFFSET:-4.282;
#SAMPLESTART:49.440;
#SAMPLELENGTH:11.250;
#SELECTABLE:YES;
#DISPLAYBPM:170.000;
#BPMS:0.000=170.000;
#STOPS:;
#BGCHANGES:;

//---------------dance-single - ----------------
#NOTES:
     dance-single:
     Dossar:
     Easy:
     10:
     0.723,0.913,0.022,0.189,0.544:
0000
0000
0000
0000
,
0000
0000
0000
0000
,
0000
0000
0000
0000
,
0000
0000
0000
0000
,
0001
0000
1000
0000
0001
1000
0010
0000
1000
0000
0001
1000
0010
0000
1000
0000
,
0001
0000
0010
0000
0100
0010
0001
0000
0010
0000
0001
0010
0100
0000
0010
0000
,
0001
0000
1000
0000
0001
1000
0100
0000
1000
0000
0001
1000
0100
0000
1000
0001
,
1000
0100
0010
0001
1000
0100
0010
0001
1000
0100
0010
0001
1000
0100
0010
0001
,
1000
0000
0001
0000
1000
0010
1000
0000
,
0001
0000
0100
0000
0010
1000
0010
0000
,
1000
0000
0001
0000
0010
0000
0100
1000
0100
0000
0010
0000
0001
0000
0000
0000
,
1000
0000
0100
0000
0010
0000
0001
1000
0001
0000
0010
0000
0100
0000
0000
0000
,
1000
0001
0100
0010
1000
0010
0100
0000
,
0001
1000
0001
0000
0100
0000
0010
0000
1000
0000
0010
0000
0100
0000
0000
0000
,
0001
1000
0100
0010
0001
0010
0100
0000
,
1000
0100
0010
0001
1000
0100
0010
0001
1000
0100
0010
0001
1000
0100
0010
0001
,
1000
0001
1000
0000
,
1000
0000
0001
0000
1000
0000
0000
0001
,
01M0
01M0
1000
0001
0100
0000
0000
0001
,
01M0
01M0
1000
0001
0100
0000
0000
0001
,
0001
0000
1000
0000
1001
0000
0000
0001
,
0001
0000
1000
0000
1001
0000
0000
0001
,
1000
0100
1000
0000
0001
0000
0010
0000
0001
0000
0000
0000
0000
0000
1000
0000
,
0001
0010
0100
1000
0001
0010
0100
1000
0001
0010
0100
1000
0001
0010
0100
1000
,
0002
0000
0000
0000
0000
0000
0000
0000
0000
0000
0000
0000
0000
0000
0103
0010
,
1000
0000
0001
0000
0001
0000
0100
0000
0100
0010
0000
1000
0001
0000
1000
0000
,
1000
0001
0001
1000
2000
0000
3000
0000
,
1000
0000
0100
0000
0010
0100
0000
0000
0100
0000
0000
0100
0000
1000
0100
1000
,
0002
0000
0000
0000
,
1003
0000
0001
0000
0001
0000
0100
0000
0100
0010
0000
1000
0001
0000
1000
0000
,
1000
0001
0001
1000
2000
0000
3000
0000
,
1000
0010
0100
0001
1000
0010
0100
0001
0200
0000
0000
0000
0302
0000
0000
0000
,
1003
0100
0010
0001
0010
0100
2000
3000
,
0001
0100
0010
1000
0010
0100
0002
0003
,
1000
0000
0010
0000
M100
0000
0000
M100
0010
0000
0001
0000
1000
0000
0000
0000
,
0001
0010
0100
1000
0100
0010
0002
0003
,
1000
0010
0100
0001
0100
0010
2000
3000
,
0001
0010
0100
1000
0100
0010
0002
0003
,
1000
0000
0100
0000
001M
0000
0000
001M
1000
0000
0001
0000
0100
0000
0000
0001
,
1000
0010
0100
0001
1000
0010
0100
0001
1000
0010
0100
0001
1000
0010
0100
0001
,
2000
0000
0000
0000
0000
3001
0010
0001
,
0100
0010
0200
0000
0010
0000
0010
0000
,
0310
1000
0001
0001
,
1000
0000
0000
0000
0000
0000
0001
0010
0100
1000
0001
0010
0100
1000
0001
0010
,
0002
0000
0000
0000
0000
1003
0100
1000
,
0001
0010
0002
0000
1000
0000
1000
0000
,
1003
0010
0100
0001
0100
0010
1000
0000
,
0001
1000
0010
0100
0001
1000
0010
0100
0001
1000
0010
0100
0001
1000
0010
0100
,
0001
0000
1000
0000
0001
1000
0010
0000
1000
0000
0001
1000
0010
0000
1000
0000
,
0001
0000
0010
0000
0100
0010
0001
0000
0010
0000
0001
0010
0100
0000
0010
0000
,
0001
0000
1000
0000
0001
1000
0100
0000
1000
0000
0001
1000
0100
0000
1000
0001
,
0010
0000
0100
0000
1000
0100
0010
0000
0100
0000
1000
0100
0010
0000
0100
0000
,
1000
0000
0001
0000
1000
0001
0100
0000
0001
0000
1000
0001
0100
0000
0001
0000
,
1000
0000
0100
0000
0010
0100
1000
0000
0100
0000
1000
0100
0010
0000
0100
0000
,
1000
0000
0001
0000
1000
0001
0010
0000
0001
0000
1000
0001
0010
0000
0001
1000
,
0100
0010
0001
1000
0100
0010
0001
1000
0100
0010
0001
1000
0100
0010
0001
1000
,
0020
0000
0000
0000
,
1030
0000
0001
0000
0001
0000
0100
0000
0100
0010
0000
1000
0001
0000
1000
0000
,
1000
0001
0001
1000
2000
0000
3000
0000
;

//---------------dance-single - ----------------
#NOTES:
     dance-single:
     Dossar:
     Challenge:
     13:
     1.000,1.000,0.022,0.111,1.000:
0000
0000
0000
0000
,
0000
0000
0000
0000
,
0000
0000
0000
0000
,
0000
0000
0000
0000
,
1000
0000
0001
0000
1000
0001
0100
0000
0001
0000
1000
0001
0100
0000
0001
0000
,
1000
0000
0100
0000
0010
0100
1000
0000
0100
0000
1000
0100
0010
0000
0100
0000
,
1000
0000
0001
0000
1000
0001
0010
0000
0001
0000
1000
0001
0010
0000
0001
1000
,
0100
0010
0001
1000
0100
0010
0001
1000
0100
0010
0001
0010
0100
1000
0001
0100
,
0010
1000
0001
0100
0010
1000
0001
0100
0010
1000
0010
0100
0002
0000
0003
0000
,
1000
0100
0010
0001
1000
0100
0010
0001
1000
0001
1000
0100
0020
0000
0030
0000
,
0001
0010
0100
1000
0001
0010
0100
1000
0100
0010
0001
1000
0020
0000
0030
0000
,
0100
0001
1000
0010
0100
0001
0100
0010
1000
0001
0100
0010
2000
0000
3000
0000
,
0001
0010
0100
1000
0001
0010
0100
1000
0001
0010
0001
1000
0020
0000
0030
0000
,
1000
0001
1000
0010
0100
0001
1000
0010
0100
0001
1000
0001
0020
0000
0030
0000
,
0001
1000
0100
0010
0001
1000
0100
1000
0001
0010
0100
1000
0002
0000
0003
0000
,
1000
0100
0010
0001
1000
0100
0010
0001
1000
0100
1000
0001
0010
0100
0010
0001
,
1000
0001
1000
0000
,
1000
0000
0001
0000
1000
0000
0000
0001
,
01M0
01M0
1000
0001
0100
0000
0000
0001
,
01M0
01M0
1000
0001
0100
0000
0000
0001
,
0001
0000
1000
0000
1001
0000
0000
0001
,
0001
0000
1000
0000
1001
0000
0000
0001
,
1000
0100
1000
0000
0001
0000
0010
0000
0001
0000
0000
0000
0000
0000
1000
0000
,
0001
0010
0100
1000
0001
0010
0100
1000
0001
0010
0100
1000
0001
0010
0100
0010
,
0001
1000
0010
0100
0001
1000
0010
0100
0001
1000
0010
0100
0001
1000
0010
0100
,
0010
1000
0001
0100
0010
1000
0010
0100
0001
1000
0010
1000
0001
0100
0010
1000
,
0001
0010
0100
1000
0001
0010
0100
1000
0002
0000
0000
0000
0003
0000
0000
0000
,
1000
0000
0001
0000
1000
0001
0000
0000
0001
0000
0000
0001
0000
1000
0001
1000
,
0100
0010
0001
1000
0100
0010
0001
1000
0100
0010
0001
1000
0100
0010
0001
1000
,
0100
0010
0100
1000
0001
0010
0100
1000
0001
0010
0001
1000
0100
0010
0001
1000
,
0010
0100
0001
1000
0010
0100
0001
1000
0020
0000
0000
0000
0030
0000
0000
0000
,
1000
0010
0100
0001
1000
0010
0100
0001
1000
0010
1000
0001
0100
0010
0100
0001
,
1000
0100
1000
0001
0010
0100
0010
0001
1000
0100
1000
0001
0010
0100
1000
0001
,
0100
0010
0100
0001
1000
0010
1000
0001
0100
0010
0100
0001
1000
0010
0100
0001
,
1000
0100
1000
0001
0010
0100
1000
0001
0010
0100
0010
0001
1000
0100
0010
0001
,
1000
0010
1000
0001
0100
0010
0100
0001
1000
0010
1000
0001
0100
0010
1000
0001
,
0010
0100
0010
0001
1000
0100
1000
0001
0010
0100
0010
0001
1000
0100
0010
0001
,
1000
0010
1000
0001
0100
0010
0100
0001
1000
0010
1000
0001
0100
0010
1000
0001
,
0010
0100
0010
0001
1000
0100
0010
0001
1000
0100
1000
0001
0010
0100
1000
0001
,
0100
0010
0100
0001
1000
0010
1000
0001
0100
0010
0100
0001
1000
0010
0100
0001
,
1000
0100
0010
0001
1000
0100
0010
0001
1000
0100
0010
0001
0010
0100
0010
0001
,
1000
0010
1000
0001
1000
0010
0100
0001
1000
0010
0100
0001
1000
0010
0100
0001
,
1000
0100
0010
0001
1000
0100
0010
0100
1000
0001
0010
0100
1000
0001
0010
0001
,
1000
0010
0100
0001
1000
0010
0100
0001
1000
0010
0100
0001
1000
0010
0100
0001
,
1000
0100
0010
0001
1000
0100
0010
0001
1000
0100
0010
0001
0010
0100
0010
0001
,
1000
0010
1000
0001
1000
0010
0100
0001
1000
0010
0100
0001
1000
0010
0100
0001
,
1000
0100
1000
0001
0010
0100
0010
0001
1000
0100
1000
0001
0010
0100
1000
0001
,
0100
0010
0100
0001
1000
0010
0100
0001
0100
0010
1000
0001
1000
0010
0100
0010
,
1000
0000
0001
0000
1000
0001
0100
0000
0001
0000
1000
0001
0100
0000
0001
0000
,
1000
0000
0100
0000
0010
0100
1000
0000
0100
0000
1000
0100
0010
0000
0100
0000
,
1000
0000
0001
0000
1000
0001
0010
0000
0001
0000
1000
0001
0010
0000
0001
1000
,
0100
0000
0010
0000
0001
0010
0100
0000
0010
0000
0001
0010
0100
0000
0010
0100
,
1000
0001
0100
0010
0100
0001
1000
0010
0100
0001
0100
0010
1000
0001
0100
0001
,
1000
0100
0010
0001
0010
0100
1000
0001
0010
0100
0010
0001
1000
0100
0010
0100
,
1000
0001
0100
0010
0100
0001
1000
0010
0100
0001
0100
0010
1000
0001
0100
0001
,
1000
0100
0010
0001
0010
0100
1000
0001
0010
0100
0010
0001
1000
0100
0010
0100
,
1000
0001
0100
0010
1000
0001
0100
0010
1000
0001
0100
0010
1000
0001
0100
0010
,
1000
0001
1000
0010
0100
0001
0100
0010
1000
0001
1000
0010
0100
0001
1000
0100
,
0010
0001
1000
0100
0010
0001
0010
0100
2000
0000
0000
0000
3000
0000
0000
0000
;

//---------------dance-single - ----------------
#NOTES:
     dance-single:
     Dossar:
     Hard:
     12:
     0.966,1.000,0.022,0.144,1.000:
0000
0000
0000
0000
,
0000
0000
0000
0000
,
0000
0000
0000
0000
,
0000
0000
0000
0000
,
0001
0000
1000
0000
0001
1000
0010
0000
1000
0000
0001
1000
0010
0000
1000
0000
,
0001
0000
0010
0000
0100
0010
0001
0000
0010
0000
0001
0010
0100
0000
0010
0000
,
0001
0000
1000
0000
0001
1000
0100
0000
1000
0000
0001
1000
0100
0000
1000
0001
,
0010
0100
1000
0001
0010
0100
1000
0001
0010
0100
1000
0100
0010
0001
1000
0010
,
0100
0000
0001
0000
1000
0010
1000
0000
,
0001
0000
1000
0000
0100
0010
0100
0000
,
1000
0100
0010
0001
1000
0100
0010
0001
0010
0100
1000
0001
0200
0000
0300
0000
,
0010
1000
0001
0100
0010
1000
0010
0100
0001
1000
0010
0100
0002
0000
0003
0000
,
1000
0001
0100
0010
1000
0010
0100
0000
,
0001
1000
0001
0000
0010
0000
0100
0000
1000
0000
0100
0000
0010
0000
0000
0000
,
0001
1000
0100
0010
0001
1000
0100
1000
0001
0010
0100
1000
0002
0000
0003
0000
,
1000
0100
0010
0001
1000
0100
0010
0001
1000
0100
1000
0001
0010
0100
0010
0001
,
1000
0001
1000
0000
,
1000
0000
0001
0000
1000
0000
0000
0001
,
01M0
01M0
1000
0001
0100
0000
0000
0001
,
01M0
01M0
1000
0001
0100
0000
0000
0001
,
0001
0000
1000
0000
1001
0000
0000
0001
,
0001
0000
1000
0000
1001
0000
0000
0001
,
1000
0100
1000
0000
0001
0000
0010
0000
0001
0000
0000
0000
0000
0000
1000
0000
,
0001
0010
0100
1000
0001
0010
0100
1000
0001
0010
0100
1000
0001
0010
0100
0010
,
0001
1000
0010
0100
0001
1000
0010
0100
0001
1000
0010
0100
0001
1000
0010
0100
,
0010
1000
0001
0100
0010
1000
0010
0100
0001
1000
0010
1000
0001
0100
0010
1000
,
0001
0010
0100
1000
0001
0010
0100
1000
0002
0000
0000
0000
0003
0000
0000
0000
,
1000
0000
0001
0000
1000
0001
0000
0000
0001
0000
0000
0001
0000
1000
0001
1000
,
0100
0010
0001
1000
0100
0010
0001
1000
0100
0010
0001
1000
0100
0010
0001
1000
,
0100
0010
0100
1000
0001
0010
0100
1000
0001
0010
0001
1000
0100
0010
0001
1000
,
0010
0100
0001
1000
0010
0100
0001
1000
0020
0000
0000
0000
0030
0000
0000
0000
,
1000
0010
0100
0001
1000
0010
0100
0001
0200
0000
0000
0000
0302
0000
0000
0000
,
1003
0100
0010
0001
1000
0100
0010
0001
1000
0100
0010
0001
1000
0100
0010
0001
,
1000
0010
0100
0001
1000
0010
0100
0001
1000
0010
0100
0001
1000
0010
0100
0001
,
1000
0100
1000
0001
0010
0100
1000
0001
0010
0100
0010
0001
1000
0100
0010
0001
,
1000
0010
0100
0001
1000
0010
1000
0001
0100
0010
1000
0001
0100
0010
0100
0001
,
1000
0100
0010
0001
1000
0100
0010
0001
1000
0100
0010
0001
1000
0100
0010
0001
,
1000
0010
0100
0001
1000
0010
0100
0001
1000
0010
0100
0001
1000
0010
0100
0001
,
1000
0100
1000
0001
0010
0100
1000
0001
0010
0100
0010
0001
1000
0100
0010
0001
,
1000
0010
1000
0001
0100
0010
0100
0001
1000
0010
1000
0001
0100
0010
1000
0001
,
0020
0000
0000
0000
0000
0031
1000
0001
,
0100
0010
0200
0000
0010
0000
0010
0000
,
0310
1000
0001
0001
,
1000
0000
0000
0000
0000
0000
0001
0010
0100
1000
0100
0010
0001
1000
0100
0010
,
0002
0000
0000
0000
0000
1003
0100
1000
,
0001
0010
0002
0000
1000
0000
1000
0000
,
1003
0010
0100
0001
0100
0010
1000
0000
,
0001
1000
0010
0100
0001
1000
0010
0100
0010
1000
0001
0100
0010
1000
0010
0100
,
0001
0000
1000
0000
0001
1000
0010
0000
1000
0000
0001
1000
0010
0000
1000
0000
,
0001
0000
0010
0000
0100
0010
0001
0000
0010
0000
0001
0010
0100
0000
0010
0000
,
0001
0000
1000
0000
0001
1000
0100
0000
1000
0000
0001
1000
0100
0000
1000
0001
,
0010
0000
0100
0000
1000
0100
0010
0000
0100
0000
1000
0100
0010
0000
0100
0010
,
0001
1000
0010
0100
0010
1000
0001
0100
0010
1000
0010
0100
0001
1000
0010
1000
,
0001
0010
0100
1000
0100
0010
0001
1000
0100
0010
0100
1000
0001
0010
0100
0010
,
0001
1000
0010
0100
0010
1000
0001
0100
0010
1000
0010
0100
0001
1000
0010
1000
,
0001
0010
0100
1000
0100
0010
0001
1000
0100
0010
0100
1000
0001
0010
0100
1000
,
0020
0000
0000
0000
,
1030
0001
0100
0010
0100
0001
1000
0010
0100
0001
1000
0010
0100
0001
1000
0100
,
0010
0001
1000
0100
0010
0001
0010
0100
2000
0000
0000
0000
3000
0000
0000
0000
;

//---------------dance-single - ----------------
#NOTES:
     dance-single:
     Dossar:
     Medium:
     11:
     0.823,0.946,0.022,0.189,0.877:
0000
0000
0000
0000
,
0000
0000
0000
0000
,
0000
0000
0000
0000
,
0000
0000
0000
0000
,
0001
0000
1000
0000
0001
1000
0010
0000
1000
0000
0001
1000
0010
0000
1000
0000
,
0001
0000
0010
0000
0100
0010
0001
0000
0010
0000
0001
0010
0100
0000
0010
0000
,
0001
0000
1000
0000
0001
1000
0100
0000
1000
0000
0001
1000
0100
0000
1000
0001
,
0010
0100
1000
0001
0010
0100
1000
0001
0010
0100
1000
0100
0010
0001
1000
0010
,
0100
0000
0001
0000
1000
0010
1000
0000
,
0001
0000
0100
0000
0010
1000
0010
0000
,
1000
0000
0001
0000
0010
0000
0100
1000
0100
0000
0010
0000
0001
0000
0000
0000
,
1000
0000
0100
0000
0010
0000
0001
1000
0001
0000
0010
0000
0100
0000
0000
0000
,
1000
0001
0100
0010
1000
0010
0100
0000
,
0001
1000
0001
0000
0100
0000
0010
0000
1000
0000
0010
0000
0100
0000
0000
0000
,
0001
1000
0100
0010
0001
0010
0100
0000
,
1000
0100
0010
0001
1000
0100
0010
0001
1000
0100
1000
0001
0010
0100
0010
0001
,
1000
0001
1000
0000
,
1000
0000
0001
0000
1000
0000
0000
0001
,
01M0
01M0
1000
0001
0100
0000
0000
0001
,
01M0
01M0
1000
0001
0100
0000
0000
0001
,
0001
0000
1000
0000
1001
0000
0000
0001
,
0001
0000
1000
0000
1001
0000
0000
0001
,
1000
0100
1000
0000
0001
0000
0010
0000
0001
0000
0000
0000
0000
0000
1000
0000
,
0001
0010
0100
1000
0001
0010
0100
1000
0001
0010
0100
1000
0001
0010
0100
0010
,
0002
0000
0000
0000
0000
0000
0000
0000
0000
0000
0000
0000
0000
0000
1003
0010
,
0100
0001
0100
0010
1000
0001
0100
0010
1000
0010
0100
0001
1000
0010
0100
0001
,
1000
0100
0010
0001
1000
0100
0010
0001
2000
0000
0000
0000
3000
0000
0000
0000
,
0001
0000
1000
0000
0001
1000
0000
0000
1000
0000
0000
1000
0000
0001
1000
0001
,
0200
0000
0000
0000
,
0310
1000
0010
0100
0001
1000
0010
0100
0001
0100
0010
1000
0001
0100
0010
1000
,
0001
0010
0100
1000
0001
0010
0100
1000
0002
0000
0000
0000
0003
0000
0000
0000
,
1000
0010
0100
0001
1000
0010
0100
0001
0200
0000
0000
0000
0302
0000
0000
0000
,
1003
0100
0010
0001
1000
0100
0010
0001
1000
0100
0010
0001
2000
0000
3000
0000
,
0001
0100
0010
1000
0001
0100
0010
1000
0001
0100
0010
1000
0002
0000
0003
0000
,
1000
0000
0010
0000
M100
0000
0000
M100
0010
0000
0001
0000
1000
0000
0000
0000
,
0001
0010
0100
1000
0001
0010
0100
1000
0001
0010
0100
1000
0002
0000
0003
0000
,
1000
0010
0100
0001
1000
0010
0100
0001
1000
0010
0100
0001
2000
0000
3000
0000
,
0001
1000
0100
0010
0001
1000
0100
0010
0001
1000
0100
0010
0002
0000
0003
0000
,
1000
0000
0100
0000
001M
0000
0000
001M
1000
0000
0001
0000
0100
0000
0000
0001
,
1000
0010
0100
0001
1000
0010
1000
0001
0100
0010
1000
0001
0100
0010
1000
0001
,
0020
0000
0000
0000
0000
0031
1000
0001
,
0100
0010
0200
0000
0010
0000
0010
0000
,
0310
1000
0001
0001
,
1000
0000
0000
0000
0000
0000
0001
0010
0100
1000
0100
0010
0001
1000
0100
0010
,
0002
0000
0000
0000
0000
1003
0100
1000
,
0001
0010
0002
0000
1000
0000
1000
0000
,
1003
0010
0100
0001
0100
0010
1000
0000
,
0001
1000
0010
0100
0001
1000
0010
0100
0010
1000
0001
0100
0010
1000
0010
0100
,
0001
0000
1000
0000
0001
1000
0010
0000
1000
0000
0001
1000
0010
0000
1000
0000
,
0001
0000
0010
0000
0100
0010
0001
0000
0010
0000
0001
0010
0100
0000
0010
0000
,
0001
0000
1000
0000
0001
1000
0100
0000
1000
0000
0001
1000
0100
0000
1000
0001
,
0010
0000
0100
0000
1000
0100
0010
0000
0100
0000
1000
0100
0010
0000
0100
0000
,
1000
0000
0001
0000
1000
0001
0100
0000
0001
0000
1000
0001
0100
0000
0001
0000
,
1000
0000
0100
0000
0010
0100
1000
0000
0100
0000
1000
0100
0010
0000
0100
0000
,
1000
0000
0001
0000
1000
0001
0010
0000
0001
0000
1000
0001
0010
0000
0001
1000
,
0100
0010
0001
1000
0100
0010
0001
1000
0100
0010
0001
0010
0100
1000
0001
0100
,
0020
0000
0000
0000
,
1030
0001
0100
0010
0100
0001
1000
0010
0100
0001
1000
0010
0100
0001
1000
0100
,
0010
0001
1000
0100
0010
0001
0010
0100
2000
0000
0000
0000
3000
0000
0000
0000
;

//---------------dance-double - ----------------
#NOTES:
     dance-double:
     Dossar:
     Challenge:
     11:
     0.738,0.942,0.033,0.133,0.766: // measure 1
00000000
00000000
00000000
00000000
,  // measure 2
00000000
00000000
00000000
00000000
,  // measure 3
00000000
00000000
00000000
00000000
,  // measure 4
00000000
00000000
00000000
00000000
,  // measure 5
10000000
00000000
00010000
00000000
01000000
00010000
00000000
01000000
00001000
00000000
01000000
00010000
00000000
01000000
00001000
00000000
,  // measure 6
00010000
00000000
00001000
00000000
00010000
00001000
00000000
00010000
00000010
00000000
00010000
00001000
00000000
00010000
00000010
00000000
,  // measure 7
00001000
00000000
00000001
00000000
00000100
00000001
00000000
00000100
00000010
00000000
00000100
00000001
00000000
00000100
00000010
00001000
,  // measure 8
00000001
00000100
00000010
00001000
00000001
00000100
00000010
00001000
00000010
00000100
00000001
00001000
00000001
00001000
00000100
00010000
,  // measure 9
00001000
00000000
00100000
00000000
00010000
10000000
00010000
00000000
,  // measure 10
01000000
00000000
00001000
00000000
00010000
00000100
00010000
00000000
,  // measure 11
00000100
00000000
00000010
00000000
00000001
00000000
00001000
00000100
00010000
00000000
00001000
00000000
00100000
00000000
00000000
00000000
,  // measure 12
00010000
00000000
01000000
00000000
00001000
00000000
00010000
00000100
00001000
00000000
00000001
00000000
00000100
00000000
00000000
00000000
,  // measure 13
00000010
00001000
00000100
00010000
00001000
00100000
00010000
00000000
,  // measure 14
00100000
00010000
00100000
00000000
00001000
00000000
00010000
00000000
00000100
00000000
00000010
00000000
00000001
00000000
00000000
00000000
,  // measure 15
00001000
00000010
00001000
00000100
00010000
00001000
00100000
00000000
,  // measure 16
00001000
00010000
00001000
00010000
00001000
00010000
00001000
00000000
,  // measure 17
1000M000
000M0001
1000M000
00000000
,  // measure 18
1000M000
00000000
000M0001
00000000
1000M000
00000000
00000000
00001000
,  // measure 19
00010000
00001000
00010000
00001000
00010000
00000000
00000000
00001000
,  // measure 20
00010000
00000000
00001000
00000000
00010000
00000000
00001000
00000000
00010000
00000000
00000100
00000010
00000100
00000000
00001000
00000001
,  // measure 21
00001000
00000000
00000100
00000000
00011000
00000000
00000000
00001000
,  // measure 22
00001000
00000000
00100000
00000000
00110000
00000000
00000000
10000000
,  // measure 23
00010000
01000000
00010000
00000000
00100000
00000000
00001000
00000000
00010000
00000000
00000000
00000000
00000100
00000000
00000010
00000000
,  // measure 24
00000001
00001000
00000100
00000010
00000001
00000010
00000100
00001000
00000100
00010000
00000100
00010000
00001000
00100000
00010000
00100000
,  // measure 25
02000000
00000000
00000000
00000000
00000000
00000000
00000000
00000000
00000000
00000000
00000000
00000000
00000000
00000000
03100000
01000000
,  // measure 26
10000000
00000000
00010000
00000000
00010000
00000000
10000000
00000000
00001000
00010000
00000000
00010000
00000010
00000000
00001000
00000000
,  // measure 27
00001000
00000001
00000001
00001000
00001000
00000000
00000000
00000000
,  // measure 28
00000001
00000000
00001000
00000010
00001000
00000010
00000000
00010000
00001000
00000000
01000000
00010000
00000000
10000000
00010000
10000000
,  // measure 29
02000000
00000000
00000000
00000000
,  // measure 30
13000000
00000000
00010000
00000000
00010000
00000000
10000000
00000000
00001000
00010000
00000000
00010000
00000010
00000000
00001000
00000000
,  // measure 31
00001000
00000001
00000001
00001000
00001000
00000000
00000000
00000000
,  // measure 32
00000001
00000010
00000100
00001000
00000100
00010000
00001000
00100000
00002000
00000000
00000000
00000000
00023000
00000000
00000000
00000000
,  // measure 33
00031000
00010000
00001000
01000000
00010000
10000000
00010000
01000000
00100000
10000000
00100000
01000000
00200000
00000000
00300000
00000000
,  // measure 34
10000000
00010000
10000000
01000000
00100000
00010000
00100000
00001000
00010000
00000100
00010000
00001000
00020000
00000000
00030000
00000000
,  // measure 35
00001000
00000000
10000000
00000000
00010000
00000000
00000000
01000000
00001000
00000000
00010000
00000000
00000010
00000000
00000000
00000000
,  // measure 36
00010000
00001000
00010000
00000010
00001000
00000001
00001000
00000010
00000100
00000001
00000100
00000010
00000200
00000000
00000300
00000000
,  // measure 37
00000001
00001000
00000001
00000010
00000100
00001000
00000100
00010000
00001000
00100000
00001000
00010000
00002000
00000000
00003000
00000000
,  // measure 38
00010000
00001000
00010000
00000100
00001000
00000001
00001000
00000100
00010000
00001000
00010000
00000100
00020000
00000000
00030000
00000000
,  // measure 39
00001000
00000000
00100000
00000000
00010000
00000000
00000000
10000000
01000000
00000000
00100000
00000000
00001000
00000000
00000000
00000000
,  // measure 40
00010000
00001000
00010000
00000100
00001000
00000100
00000010
00000001
00001000
00000100
00001000
00000001
00000010
00000100
00001000
00000100
,  // measure 41
00010000
00000000
00000000
00000000
00000000
00001000
00010000
00001000
,  // measure 42
10000000
01000000
20000000
00000000
00000000
00000000
00000000
00000000
,  // measure 43
30000000
1000M000
000M0001
000M0001
,  // measure 44
1000M000
00000000
00000000
00000000
,  // measure 45
10010000
00000000
00000000
00000000
00000000
10000000
00010000
10000000
,  // measure 46
00001000
00010000
00002000
00000000
00000000
00000000
00000000
00000000
,  // measure 47
00013000
00000100
00010000
00000001
00010000
00000100
00010000
00000000
,  // measure 48
00001000
00010000
00001000
00100000
00010000
00100000
01000000
10000000
00010000
00100000
01000000
10000000
01000000
00100000
00001000
00010000
,  // measure 49
00001000
00000000
00100000
00000000
00010000
10000000
00000000
00010000
00100000
00000000
00010000
10000000
00000000
00010000
00100000
00000000
,  // measure 50
00001000
00000000
00010000
00000000
00000100
00001000
00000000
00000100
00010000
00000000
00000100
00001000
00000000
00000100
00010000
00000000
,  // measure 51
00001000
00000000
00100000
00000000
00001000
00010000
00000000
00001000
00100000
00000000
00001000
00010000
00000000
00001000
00100000
00010000
,  // measure 52
10000000
00000000
00100000
00000000
10000000
00010000
00000000
10000000
00100000
00000000
10000000
00010000
00000000
10000000
00100000
00000000
,  // measure 53
01000000
00000000
00001000
00000000
00010000
00000100
00000000
00010000
00001000
00000000
00010000
00000100
00000000
00010000
00001000
00000000
,  // measure 54
00010000
00000000
00000010
00000000
00001000
00000001
00000000
00001000
00000010
00000000
00001000
00000001
00000000
00001000
00000010
00000000
,  // measure 55
00001000
00000000
00000100
00000000
00010000
00001000
00000000
00010000
00000100
00000000
00010000
00001000
00000000
00010000
00000100
00001000
,  // measure 56
00000100
00000010
00000001
00001000
00000100
00000010
00000001
00001000
00000100
00010000
00000100
00010000
00001000
00100000
00001000
00100000
,  // measure 57
00020000
00000000
00000000
00000000
,  // measure 58
10030000
00000000
00010000
00000000
00010000
00000000
10000000
00000000
00001000
00010000
00000000
00010000
00000010
00000000
00001000
00000000
,  // measure 59
00001000
00000001
00000001
00001000
00001000
00000000
00000000
00000000
;

//---------------dance-double - ----------------
#NOTES:
     dance-double:
     Dossar:
     Hard:
     10:
     0.682,0.910,0.033,0.078,0.600:
00000000
00000000
00000000
00000000
,
00000000
00000000
00000000
00000000
,
00000000
00000000
00000000
00000000
,
00000000
00000000
00000000
00000000
,
10000000
00000000
00010000
00000000
01000000
00010000
00000000
01000000
00001000
00000000
01000000
00010000
00000000
01000000
00001000
00000000
,
00010000
00000000
00001000
00000000
00010000
00001000
00000000
00010000
00000010
00000000
00010000
00001000
00000000
00010000
00000010
00000000
,
00001000
00000000
00000001
00000000
00000100
00000001
00000000
00000100
00000010
00000000
00000100
00000001
00000000
00000100
00000010
00001000
,
00000001
00000100
00000010
00001000
00000001
00000100
00000010
00001000
00000010
00000100
00000001
00001000
00000001
00001000
00000100
00010000
,
00001000
00000000
00100000
00000000
00010000
10000000
00010000
00000000
,
01000000
00000000
00001000
00000000
00010000
00000100
00010000
00000000
,
00000100
00000000
00000010
00000000
00000001
00000000
00001000
00000100
00010000
00000000
00001000
00000000
00100000
00000000
00000000
00000000
,
00010000
00000000
01000000
00000000
00001000
00000000
00010000
00000100
00001000
00000000
00000001
00000000
00000100
00000000
00000000
00000000
,
00000010
00001000
00000100
00010000
00001000
00100000
00010000
00000000
,
00100000
00010000
00100000
00000000
00001000
00000000
00010000
00000000
00000100
00000000
00000010
00000000
00000001
00000000
00000000
00000000
,
00001000
00000010
00001000
00000100
00010000
00001000
00100000
00000000
,
00001000
00010000
00001000
00010000
00001000
00010000
00001000
00000000
,
1000M000
0001000M
1000M000
00000000
,
1000M000
00000000
0001000M
00000000
1000M000
00000000
00000000
00001000
,
00010000
00001000
00010000
00001000
00010000
00000000
00000000
00001000
,
00010000
00000000
00001000
00000000
00010000
00000000
00001000
00000000
00010000
00000000
00000100
00000010
00000100
00000000
00001000
00000001
,
00001000
00000000
00000100
00000000
00011000
00000000
00000000
00001000
,
00001000
00000000
00100000
00000000
00110000
00000000
00000000
10000000
,
00010000
01000000
00010000
00000000
00100000
00000000
00001000
00000000
00010000
00000000
00000000
00000000
00000100
00000000
00000010
00000000
,
00000001
00001000
00000100
00000010
00000001
00000010
00000100
00001000
00000100
00010000
00000100
00010000
00001000
00100000
00010000
00100000
,
02000000
00000000
00000000
00000000
00000000
00000000
00000000
00000000
00000000
00000000
00000000
00000000
00000000
00000000
03100000
01000000
,
10000000
00000000
00010000
00000000
00010000
00000000
10000000
00000000
00001000
00010000
00000000
00010000
00000010
00000000
00001000
00000000
,
00001000
00000001
00000001
00001000
00001000
00000000
00000000
00000000
,
00000001
00000000
00001000
00000010
00001000
00000010
00000000
00010000
00001000
00000000
01000000
00010000
00000000
10000000
00010000
10000000
,
02000000
00000000
00000000
00000000
,
13000000
00000000
00010000
00000000
00010000
00000000
10000000
00000000
00001000
00010000
00000000
00010000
00000010
00000000
00001000
00000000
,
00001000
00000001
00000001
00001000
00001000
00000000
00000000
00000000
,
00000001
00000010
00000100
00001000
00000100
00010000
00001000
00100000
00002000
00000000
00000000
00000000
00023000
00000000
00000000
00000000
,
00031000
01000000
00001000
10000000
00001000
01000000
00001000
00000000
,
00010000
00000100
00010000
00000001
00010000
00000100
00010000
00000000
,
00001000
00000000
10000000
00000000
00010000
00000000
00000000
01000000
00001000
00000000
00010000
00000000
00000100
00000000
00000000
00000000
,
00010000
00001000
00100000
01000000
00100000
00001000
00010000
00000000
,
00001000
00100000
00001000
10000000
00001000
00100000
00001000
00000000
,
00010000
00000010
00010000
00000001
00010000
00000010
00010000
00000000
,
00001000
00000000
00100000
00000000
00010000
00000000
00000000
10000000
01000000
00000000
00100000
00000000
00001000
00000000
00000000
00000000
,
00010000
00001000
00010000
00000100
00001000
00000100
00000010
00000001
00001000
00000100
00001000
00000001
00000010
00000100
00001000
00000100
,
00010000
00000000
00000000
00000000
00000000
00001000
00010000
00001000
,
10000000
01000000
20000000
00000000
00000000
00000000
00000000
00000000
,
30000000
1000M000
0001000M
0001000M
,
1000M000
00000000
00000000
00000000
,
10010000
00000000
00000000
00000000
00000000
10000000
00010000
10000000
,
00001000
00010000
00002000
00000000
00000000
00000000
00000000
00000000
,
00013000
00000100
00010000
00000001
00010000
00000100
00010000
00000000
,
00001000
00010000
00001000
00100000
00010000
00100000
01000000
10000000
00010000
00100000
01000000
10000000
01000000
00100000
00001000
00010000
,
00001000
00000000
00100000
00000000
00010000
10000000
00000000
00010000
00100000
00000000
00010000
10000000
00000000
00010000
00100000
00000000
,
00001000
00000000
00010000
00000000
00000100
00001000
00000000
00000100
00010000
00000000
00000100
00001000
00000000
00000100
00010000
00000000
,
00001000
00000000
00100000
00000000
00001000
00010000
00000000
00001000
00100000
00000000
00001000
00010000
00000000
00001000
00100000
00010000
,
10000000
00000000
00100000
00000000
10000000
00010000
00000000
10000000
00100000
00000000
10000000
00010000
00000000
10000000
00100000
00000000
,
01000000
00000000
00001000
00000000
00010000
00000100
00000000
00010000
00001000
00000000
00010000
00000100
00000000
00010000
00001000
00000000
,
00010000
00000000
00000010
00000000
00001000
00000001
00000000
00001000
00000010
00000000
00001000
00000001
00000000
00001000
00000010
00000000
,
00001000
00000000
00000100
00000000
00010000
00001000
00000000
00010000
00000100
00000000
00010000
00001000
00000000
00010000
00000100
00001000
,
00000100
00000010
00000001
00001000
00000100
00000010
00000001
00001000
00000100
00010000
00000100
00010000
00001000
00100000
00001000
00100000
,
00020000
00000000
00000000
00000000
,
10030000
00000000
00010000
00000000
00010000
00000000
10000000
00000000
00001000
00010000
00000000
00010000
00000010
00000000
00001000
00000000
,
00001000
00000001
00000001
00001000
00001000
00000000
00000000
00000000
;
